osu file format v5

[General]
AudioFilename: We Made You (1st Single).mp3
AudioLeadIn: 0
PreviewTime: 10159
Countdown: 1
SampleSet: Normal
StackLeniency: 0.7
Mode: 0
LetterboxInBreaks: 1
EditorDistanceSpacing: 1

[Metadata]
Title:We Made You
Artist:Eminem
Creator:EEeee
Version:Normal
Source:
Tags:

[Difficulty]
HPDrainRate:6
CircleSize:4
OverallDifficulty:5
SliderMultiplier:1.6
SliderTickRate:1

[Events]
//Background and Video events
0,0,"00602527047270_USUV70901042_640x480_01.jpg"
1,0,"eminem.wmv"
//Break Periods
2,40367,46686
2,55630,64230
2,87209,93002
2,110367,118441
2,139841,140546
2,157034,165283
2,173525,181862
//Storyboard Layer 0 (Background)
//Storyboard Layer 1 (Failing)
//Storyboard Layer 2 (Passing)
//Storyboard Layer 3 (Foreground)
//Storyboard Sound Samples
//Background Colour Transformations
3,100,255,0,0

[TimingPoints]
10694,526.315789473684,4,1,0,53,1,0

[Colours]
Combo1 : 232,232,0
Combo2 : 140,140,255
Combo3 : 0,117,112

[HitObjects]
72,72,10694,1,0
224,104,11220,1,0
72,152,11746,1,0
224,184,12272,5,0
72,232,12799,1,0
224,280,13325,1,0
384,280,13851,6,0,B|360:232|464:200|376:96,2,160
224,280,15430,1,0
72,232,15957,1,0
224,184,16483,5,0
376,224,17009,1,0
224,280,17536,1,0
80,216,18062,6,0,B|56:112|168:136|80:40,2,160
240,216,19641,5,2
240,216,20167,1,2
400,216,20694,6,0,B|400:104,1,106.666666666667
400,56,21220,5,0
240,56,21746,1,0
80,56,22272,1,0
80,160,22623,5,0
80,160,22799,1,0
184,160,23150,1,0
184,160,23325,1,0
80,280,23851,2,0,B|128:320|144:240|240:344,2,160
256,192,25430,12,0,27536
256,136,28062,5,0
128,40,28588,5,0
256,136,29115,5,0
384,40,29641,5,0
256,136,30167,5,0
256,376,30957,5,0
256,296,31220,1,4
256,136,31746,5,0
96,136,32272,1,0
96,296,32799,1,0
96,136,33325,1,0
96,296,33851,5,0
256,296,34378,1,0
256,56,35255,1,0
256,104,35430,1,0
256,216,35781,1,0
256,264,35957,5,0
336,128,36483,1,0
176,128,37009,1,0
336,128,37536,1,0
176,128,38062,1,0
256,264,38588,1,0
256,56,39465,5,0
256,104,39641,1,0
256,216,39992,1,0
256,264,40167,1,4
336,184,47886,5,0
336,128,48062,1,0
336,16,48413,1,0
336,16,48588,5,0
176,16,49115,1,0
176,256,49992,5,0
176,256,50167,1,0
176,144,50518,1,0
176,144,50693,5,0
336,144,51220,1,0
496,184,52097,5,0
448,184,52272,1,0
336,184,52623,1,0
280,184,52799,5,0
280,24,53325,1,0
280,184,53851,1,0
280,344,54378,1,0
280,184,54904,1,0
120,184,55430,1,4
440,72,65430,5,0
288,104,65957,1,0
440,152,66483,1,0
288,184,67009,5,0
440,232,67536,1,0
288,280,68062,1,0
128,280,68588,6,0,B|152:232|48:200|136:96,2,160
288,280,70167,1,0
440,232,70693,1,0
288,184,71220,5,0
136,224,71746,1,0
288,280,72272,1,0
432,216,72799,6,0,B|456:112|344:136|432:40,2,160
272,216,74378,5,2
272,216,74904,1,2
112,216,75430,6,0,B|112:104,1,106.666666666667
112,56,75957,5,0
272,56,76483,1,0
432,56,77009,1,0
432,160,77360,2,0,B|432:224,1,53.3333333333333
336,160,77886,2,0,B|336:224,1,53.3333333333333
184,160,78588,2,0,B|136:200|120:120|24:224,2,160
256,192,80167,12,0,82272
256,136,82799,5,0
384,40,83325,5,0
256,136,83851,5,0
128,40,84378,5,0
256,136,84904,5,0
256,376,85781,5,0
256,376,85957,1,0
256,264,86308,1,0
256,208,86483,1,0
256,48,87009,1,4
256,56,94202,6,0,B|256:120,1,53.3333333333333
256,216,94729,2,0,B|256:280,1,53.3333333333333
96,272,95430,1,0
256,56,96308,6,0,B|256:120,1,53.3333333333333
256,216,96834,2,0,B|256:280,1,53.3333333333333
416,264,97536,1,0
136,256,98413,6,0,B|136:192,1,53.3333333333333
136,88,98939,2,0,B|136:152,1,53.3333333333333
288,168,99641,1,0
288,168,100167,5,0
288,168,100693,5,0
288,168,101220,5,0
448,168,101746,5,0
208,32,102623,6,0,B|208:96,1,53.3333333333333
112,32,103150,2,0,B|112:96,1,53.3333333333333
160,232,103851,1,0
352,32,104729,6,0,B|352:88,1,53.3333333333333
448,32,105255,2,0,B|448:96,1,53.3333333333333
400,232,105957,1,0
136,304,106834,6,0,B|136:248,1,53.3333333333333
240,248,107360,2,0,B|240:312,1,53.3333333333333
192,152,108062,1,0
192,152,108588,5,0
192,152,109115,5,0
192,152,109641,5,0
192,152,110167,5,0
176,192,119641,6,0,B|176:96,3,53.3333333333333
336,192,120693,2,0,B|336:112,3,53.3333333333333
256,328,121746,2,0,B|256:208,1,106.666666666667
256,168,122272,2,0,B|208:144|328:128|256:24,1,160
152,32,123150,1,0
96,32,123325,6,0,B|40:80|136:104|24:200,2,160
256,32,124904,5,0
256,192,125430,1,0
392,112,125957,1,0
392,272,126483,1,0
256,192,127009,1,0
112,272,127528,5,0
216,272,127886,1,0
216,272,128062,1,0
112,272,128413,1,0
112,272,128588,2,0,B|112:160,1,106.666666666667
112,112,129115,5,2
112,112,129641,1,2
272,112,130167,6,0,B|272:272,1,106.666666666667
272,272,130693,5,0
432,272,131220,1,0
432,112,131746,5,0
328,112,132097,1,0
328,112,132272,1,0
224,112,132623,1,0
224,112,132799,1,0
224,272,133325,2,0,B|176:232|136:320|80:232,2,160
256,192,134904,12,0,137009
256,192,137536,5,0
96,192,138062,5,0
256,192,138588,5,0
416,192,139115,5,0
256,192,139641,5,0
256,40,141746,6,0,B|256:200,1,106.666666666667
256,304,142623,6,0,B|256:216,1,53.3333333333333
256,144,143150,5,0
256,88,143325,1,0
96,88,143851,1,0
96,192,144202,1,0
256,192,144729,6,0,B|328:192,1,53.3333333333333
416,192,145255,2,0,B|416:264,1,53.3333333333333
416,352,145781,2,0,B|320:352,1,53.3333333333333
256,352,146308,2,0,B|256:288,1,53.3333333333333
152,304,146834,2,0,B|96:304,1,53.3333333333333
96,200,147360,2,0,B|96:136,4,53.3333333333333
200,200,148413,1,0
360,200,148939,6,0,B|360:128,1,53.3333333333333
280,80,149465,2,0,B|280:176,1,53.3333333333333
128,80,150167,2,0,B|128:200,1,106.666666666667
128,288,151044,6,0,B|200:288,1,53.3333333333333
288,288,151571,2,0,B|376:288,1,53.3333333333333
504,288,152272,2,0,B|352:288,1,106.666666666667
296,160,153150,6,0,B|296:216,3,53.3333333333333
240,216,153851,2,0,B|240:96,1,106.666666666667
240,56,154378,2,0,B|112:56,1,106.666666666667
136,112,154904,2,0,B|136:264,1,106.666666666667
136,272,155430,2,0,B|136:360,3,53.3333333333333
288,272,156483,1,0
392,272,156834,1,4
256,184,166483,6,0,B|256:16,1,160
256,288,167886,6,0,B|184:288,1,53.3333333333333
96,288,168413,2,0,B|96:224,1,53.3333333333333
96,72,169115,1,0
360,72,169992,6,0,B|424:72,1,53.3333333333333
416,176,170518,1,0
416,176,170693,1,0
360,328,171220,1,0
312,176,171746,1,0
152,176,172272,1,0
232,312,172799,1,0
232,152,173325,1,4
48,192,183062,6,0,B|48:136,2,40
48,272,183588,1,0
128,272,183851,2,0,B|128:344,2,40
128,192,184378,1,0
208,192,184641,2,0,B|208:128,2,40
368,192,185430,6,0,B|424:192,2,40
368,112,185957,1,0
320,48,186220,1,0
272,112,186483,1,0
272,192,186746,1,0
272,272,187009,2,0,B|272:312|168:288|176:280,3,80
128,256,188062,5,0
88,184,188325,1,0
88,184,188588,1,0
88,184,188851,1,0
88,184,189115,1,0
248,184,189641,6,0,B|192:184,2,40
248,184,190167,1,0
248,184,190430,1,0
248,184,190693,1,0
248,184,190957,1,0
336,184,191220,5,0
336,288,191571,1,0
336,288,191746,1,0
488,232,192272,1,0
488,128,192623,2,0,B|424:128,1,53.3333333333333
272,128,193325,1,0
168,128,193676,1,0
112,128,193851,2,0,B|80:128|64:184|56:256|128:256,1,160
216,256,194729,1,0
256,192,194904,12,0,195957
72,64,196483,5,0
232,64,197009,1,0
152,200,197536,1,0
312,200,198062,1,0
232,336,198588,1,0
392,336,199115,5,0
312,200,199641,1,0
152,200,200167,1,0
312,200,200693,5,2
152,200,201220,1,2
240,64,201746,2,0,B|240:208,1,106.666666666667
240,224,202272,5,0
80,224,202799,1,0
240,224,203325,1,0
400,224,203851,1,0
240,264,204378,1,0
240,104,204904,6,0,B|240:312,1,160
344,264,205781,2,0,B|344:192,1,53.3333333333333
344,104,206308,2,0,B|344:40,1,53.3333333333333
240,48,206834,2,0,B|160:48,1,53.3333333333333
88,48,207360,2,0,B|88:120,1,53.3333333333333
88,208,207886,6,0,B|88:312,4,53.3333333333333
88,48,209115,1,0
88,208,209641,1,0
224,128,210167,1,0
224,288,210693,1,0
360,208,211220,1,0
256,56,212799,6,0,B|424:56,1,160
416,216,213851,1,0
256,216,214378,1,0
152,216,214729,2,0,B|80:216,4,53.3333333333333
152,56,215957,1,0
152,216,216483,1,0
216,136,216834,6,0,B|296:136,1,53.3333333333333,0|0
432,136,217536,1,0
352,272,218062,1,0
352,112,218588,1,0
352,272,219115,1,0
192,272,219641,1,0
192,168,219992,2,0,B|192:336,1,160
192,328,220693,1,0
256,56,221220,6,0,B|88:56,1,160
96,216,222272,1,0
256,216,222799,1,0
360,216,223150,2,0,B|432:216,4,53.3333333333333
360,56,224378,1,0
360,216,224904,1,0
296,136,225255,6,0,B|216:136,1,53.3333333333333,0|0
80,136,225957,1,0
160,272,226483,1,0
160,112,227009,1,0
160,272,227536,1,0
320,272,228062,1,0
320,168,228413,2,0,B|320:336,1,160
320,328,229115,1,0
