osu file format v5

[General]
AudioFilename: We Made You (1st Single).mp3
AudioLeadIn: 0
PreviewTime: 10159
Countdown: 1
SampleSet: Normal
StackLeniency: 0.7
Mode: 0
LetterboxInBreaks: 1
EditorDistanceSpacing: 1

[Metadata]
Title:We Made You
Artist:Eminem
Creator:EEeee
Version:Hard
Source:
Tags:

[Difficulty]
HPDrainRate:7
CircleSize:5
OverallDifficulty:6
SliderMultiplier:1.6
SliderTickRate:1

[Events]
//Background and Video events
0,0,"00602527047270_USUV70901042_640x480_01.jpg"
1,0,"eminem.wmv"
//Break Periods
2,38788,43340
2,57736,63866
2,87209,93866
2,111946,118603
2,157033,165445
2,174709,178077
//Storyboard Layer 0 (Background)
//Storyboard Layer 1 (Failing)
//Storyboard Layer 2 (Passing)
//Storyboard Layer 3 (Foreground)
//Storyboard Sound Samples
//Background Colour Transformations
3,100,255,0,0

[TimingPoints]
10694,526.315789473684,4,1,0,68,1,0

[Colours]
Combo1 : 232,232,0
Combo2 : 140,140,255
Combo3 : 0,117,112

[HitObjects]
256,72,10694,1,0
96,72,11220,1,0
96,176,11571,1,0
96,176,11747,1,0
216,280,12272,1,0
216,176,12623,1,0
216,176,12799,1,0
216,72,13150,1,0
216,72,13325,1,0
320,72,13676,1,0
320,72,13851,5,0
320,176,14202,2,0,B|288:216|248:200,1,53.3333333333333
280,312,14729,1,0
280,312,14904,5,0
440,312,15430,1,0
360,240,15781,2,0,B|360:160,1,53.3333333333333
360,24,16483,1,0
272,88,16834,1,0
232,120,17009,1,0
136,168,17360,1,0
168,208,17536,1,0
64,248,17886,1,0
64,304,18062,6,0,B|176:304,1,106.666666666667
224,304,18588,1,0
328,304,18939,1,0
384,304,19115,1,0
360,144,19641,5,2
200,144,20167,1,2
360,144,20694,6,0,B|248:144,1,106.666666666667
200,144,21220,5,0
96,144,21571,1,0
96,144,21746,1,0
96,40,22097,1,0
96,40,22272,1,0
96,144,22623,5,0
96,200,22799,1,0
96,304,23150,1,0
96,304,23325,1,0
256,304,23851,1,0
256,144,24378,1,0
360,144,24729,1,0
360,200,24904,1,0
360,304,25255,1,0
360,360,25430,5,0
448,304,25781,1,0
448,248,25957,1,0
448,144,26308,1,0
448,88,26483,1,0
360,32,26834,1,0
360,88,27009,1,0
256,56,27360,1,0
256,112,27536,5,0
96,112,28062,1,0
256,128,28588,1,0
416,128,29115,1,0
256,152,29641,1,0
256,312,30167,1,0
256,72,30969,1,0
256,72,31232,1,0
32,88,31746,5,0
136,88,32097,1,0
136,144,32272,1,0
136,144,32404,1,0
136,144,32536,1,0
136,144,32667,1,0
136,144,32799,1,0
136,264,33193,5,0
136,264,33325,1,0
136,264,33457,1,0
136,264,33588,1,0
176,264,33720,1,0
216,264,33851,2,0,B|376:264,1,120
400,224,34509,1,0
400,184,34641,1,0
360,112,34904,1,0
360,72,35036,1,0
360,32,35167,1,0
320,32,35299,1,0
320,72,35430,1,0
280,144,35693,6,0,B|216:144,3,40
200,144,36220,1,0
200,224,36483,1,0
160,224,36615,1,0
120,224,36746,1,0
120,184,36878,1,0
120,104,37141,1,0
120,64,37272,1,0
160,64,37404,1,0
200,64,37536,1,0
360,64,38062,1,0
360,224,38588,1,4
256,120,44378,5,0
256,200,44641,1,0
256,200,44772,1,8
256,200,44904,1,0
176,200,45167,1,8
136,200,45299,1,0
96,200,45430,2,8,B|80:168|104:144,1,40,0|0
104,120,45693,1,0
120,80,45825,1,8
136,40,45957,1,0
256,48,46351,5,0
256,88,46483,1,0
256,168,46746,1,8
256,248,47009,1,0
296,248,47141,1,0
336,248,47272,1,0
376,248,47404,1,8
416,168,47667,1,8
416,168,47799,1,0
416,168,47930,1,0
416,168,48062,1,0
416,88,48325,1,0
416,88,48457,1,0
416,88,48588,1,0
336,88,48851,1,2
256,88,49115,5,0
256,128,49246,1,0
256,168,49378,1,0
216,168,49509,1,2
192,88,49772,1,0
192,88,49904,1,0
152,88,50036,1,0
112,88,50167,1,2
112,248,50693,5,0
112,248,50825,1,0
112,248,50957,1,2
112,328,51220,1,0
112,328,51351,1,0
112,328,51483,1,2
152,328,51615,1,2
232,328,51878,1,0
272,328,52009,1,0
272,328,52141,1,2
272,328,52272,1,2
272,168,52799,5,0
272,208,52930,1,8
272,248,53062,1,0
344,208,53325,1,8
424,208,53588,1,0
424,168,53720,1,8
344,168,53983,1,0
344,128,54115,1,2
312,104,54246,1,0
272,88,54378,1,2
96,80,54904,5,0
120,80,55036,1,8
152,80,55167,1,0
216,128,55430,1,8
152,184,55693,1,0
152,184,55825,1,8
152,264,56088,1,2
152,264,56220,1,0
152,264,56351,1,10
152,264,56483,1,2
248,224,56834,1,0
248,224,57009,1,0
248,64,57536,1,4
112,136,64904,5,0
152,232,65255,1,0
112,264,65430,1,0
256,192,65957,5,0
352,232,66308,1,0
392,264,66483,1,0
392,104,67009,5,0
288,104,67360,1,0
232,104,67536,1,0
128,104,67886,1,0
72,104,68062,1,0
72,208,68413,1,0
128,208,68588,6,0,B|192:200|232:272|312:184,1,160
384,208,69465,5,0
440,208,69641,1,0
440,48,70167,1,0
336,48,70518,1,0
280,48,70693,1,0
120,48,71220,1,0
120,152,71571,5,0
120,208,71746,1,0
224,208,72097,1,0
280,208,72272,1,0
224,296,72623,1,0
280,296,72799,6,0,B|360:304|384:248,1,106.666666666667
384,208,73325,1,0
384,104,73676,1,0
384,104,73863,1,0
240,24,74378,5,2
240,184,74904,1,2
240,24,75430,6,0,B|208:72|264:80|176:120,1,120
144,136,75957,1,0
240,176,76308,1,0
240,176,76483,1,0
144,224,76834,1,0
184,248,77009,5,0
288,248,77360,1,0
248,280,77536,1,0
144,280,77886,1,0
192,304,78062,1,0
208,144,78588,1,0
208,304,79115,1,0
368,304,79641,1,4
336,144,80167,5,0
336,40,80518,1,0
280,40,80693,1,0
176,40,81044,1,0
176,96,81220,1,0
176,200,81571,1,0
176,256,81746,1,0
176,360,82097,1,0
176,360,82272,5,0
176,200,82799,1,0
80,72,83325,1,0
240,72,83851,1,0
336,200,84378,1,0
240,328,84904,1,0
8,192,85781,1,0
8,192,85957,1,0
112,192,86308,1,0
168,192,86483,1,0
328,192,87009,1,4
256,80,94904,5,0
256,80,95036,1,0
256,80,95167,2,0,B|256:168,2,80,0|0|0
176,80,95957,1,0
136,80,96088,1,0
96,80,96220,1,0
96,120,96351,1,0
96,160,96483,1,0
136,160,96615,1,0
216,160,96878,5,0
216,160,97009,1,0
216,160,97141,1,0
216,160,97272,2,0,B|216:248,2,80
296,160,98062,1,0
336,160,98193,1,0
376,160,98325,1,0
376,200,98457,1,0
376,240,98588,1,0
336,240,98720,1,0
256,240,98983,5,0
256,240,99115,1,0
256,240,99246,1,0
256,240,99378,2,0,B|256:328,2,80
176,240,100167,1,0
136,240,100299,1,0
96,240,100430,1,0
96,280,100562,1,0
96,320,100693,1,0
136,320,100825,1,0
256,320,101220,5,0
256,320,101351,1,0
256,320,101483,1,0
336,320,101746,2,0,B|336:272,2,40
416,320,102272,1,0
416,280,102404,1,0
416,240,102536,1,0
416,200,102667,2,0,B|416:120,2,40,0|0|0
416,80,103325,6,0,B|416:144,2,40,0|0|0
336,80,103851,1,0
256,80,104115,1,0
256,80,104246,1,0
256,80,104378,1,0
256,80,104509,1,0
216,80,104641,1,0
184,80,104772,1,0
144,80,104904,1,0
104,80,105036,1,0
104,200,105430,5,0
72,176,105562,1,0
104,160,105693,1,0
144,160,105825,1,0
176,160,105957,1,0
216,160,106088,1,0
256,160,106220,1,0
296,160,106351,1,0
336,160,106483,1,0
376,160,106615,1,0
416,160,106746,1,0
416,240,107009,2,0,B|416:296,2,40
296,240,107667,5,0
296,240,107799,1,0
216,240,108062,1,0
176,240,108193,1,0
136,240,108325,1,0
56,240,108588,1,0
56,280,108720,1,0
96,280,108851,1,0
96,240,108983,1,0
56,240,109115,1,0
56,280,109246,1,0
96,280,109378,1,0
96,160,109772,6,0,B|96:112,5,40
176,120,110693,1,0
176,120,110825,1,0
176,120,110957,1,0
176,120,111088,1,0
176,120,111220,1,0
176,120,111351,1,0
216,120,111483,1,0
296,120,111746,1,4
96,72,119641,5,0
96,176,119992,1,0
96,232,120167,1,0
256,232,120693,5,0
256,128,121044,1,0
256,72,121220,1,0
416,72,121746,5,0
416,176,122097,1,0
416,232,122272,2,0,B|480:320|328:304,1,160
232,304,123150,1,0
176,304,123325,6,0,B|96:352|112:192,1,160
80,128,124202,1,0
104,80,124378,1,0
264,88,124904,5,0
264,192,125255,1,0
320,192,125430,1,0
480,192,125957,1,0
480,88,126308,1,0
424,88,126483,1,0
320,88,126834,1,0
264,88,127009,1,0
320,176,127360,6,0,B|232:176,1,53.3333333333333
160,176,127886,1,0
160,176,128062,1,0
56,176,128413,1,0
56,176,128588,1,0
56,16,129115,5,2
56,176,129641,1,2
216,280,130167,6,0,B|216:248|136:304|112:248,1,106.666666666667
72,232,130693,5,0
72,128,131044,1,0
72,72,131220,1,0
176,72,131571,1,0
176,128,131746,5,0
264,72,132097,1,0
264,128,132272,1,0
368,128,132623,1,0
368,72,132799,1,0
368,232,133325,5,0
264,352,133851,2,0,B|192:272|112:368,1,160
40,216,134904,1,0
40,112,135255,1,0
96,112,135430,1,0
200,112,135781,2,0,B|200:176,1,53.3333333333333
200,272,136308,2,0,B|264:272,1,53.3333333333333
256,168,136834,6,0,B|256:104,1,53.3333333333333
416,113,137536,1,0
256,114,138062,1,0
96,114,138588,1,0
256,114,139115,1,0
256,272,139641,1,0
128,168,140167,1,4
192,80,140518,5,0
136,80,140693,1,0
32,80,141044,1,0
88,80,141220,1,4
248,80,141746,2,0,B|248:192,1,106.666666666667
408,184,142623,5,0
352,184,142799,1,0
352,288,143150,1,0
408,288,143325,1,0
248,288,143851,2,0,B|120:288,1,106.666666666667
144,128,144729,5,0
144,128,144904,1,0
144,232,145255,1,0
144,232,145430,1,0
248,232,145781,1,0
248,232,145957,1,0
248,128,146308,5,0
248,128,146483,1,0
352,128,146834,1,0
352,128,147009,1,0
352,232,147360,1,0
352,288,147536,1,0
248,288,147886,1,0
304,288,148062,6,0,B|304:176,1,106.666666666667
304,24,148939,5,0
248,24,149115,1,0
144,24,149465,1,0
200,24,149641,1,4
224,184,150167,2,0,B|224:296,1,106.666666666667
344,184,151044,5,0
344,128,151220,1,0
440,80,151571,1,0
440,136,151746,1,0
288,184,152272,2,0,B|288:304,1,106.666666666667
176,288,153150,5,0
176,232,153325,1,0
184,176,153501,1,0
208,128,153676,1,0
240,88,153851,1,0
344,88,154202,1,0
400,88,154378,1,0
400,192,154729,5,0
344,192,154904,1,0
344,296,155255,1,0
288,296,155430,1,0
256,192,155781,1,0
200,192,155957,1,0
88,80,156483,2,0,B|88:192,1,106.666666666667,0|4
256,64,166483,5,0
184,96,166746,1,0
112,64,167009,1,0
112,64,167141,1,0
112,64,167272,1,0
112,64,167404,1,0
112,64,167536,1,0
112,64,167667,1,0
112,64,167799,1,0
112,64,167930,1,0
112,144,168193,1,0
112,224,168457,6,0,B|64:224,2,40
112,224,168851,2,0,B|112:312,1,80
192,304,169378,1,0
232,304,169509,1,0
264,288,169641,1,0
296,272,169772,1,0
328,248,169904,1,0
344,216,170036,1,0
344,136,170299,1,0
256,48,170693,6,0,B|256:152,1,80
176,120,171220,1,0
136,120,171351,1,0
96,120,171483,1,0
96,120,171615,1,0
96,120,171746,1,0
96,120,171878,1,0
96,120,172009,1,0
96,80,172141,1,0
16,80,172404,1,0
16,200,172799,5,2
32,232,172930,1,0
56,264,173062,1,0
88,280,173194,1,0
128,264,173325,1,0
128,344,173588,5,0
128,264,173851,5,8
152,232,173983,1,0
176,200,174115,1,0
216,200,174246,1,0
216,280,174509,5,4
256,80,179115,5,0
256,80,179246,1,0
256,80,179378,1,0
176,80,179641,1,0
136,80,179772,1,0
136,200,180167,1,0
136,272,180430,1,0
136,272,180562,1,0
216,272,180825,6,0,B|216:320,3,40
288,272,181483,1,0
288,272,181615,1,0
288,272,181746,1,0
288,192,182009,1,0
288,192,182141,1,0
288,192,182272,1,0
288,112,182536,2,0,B|200:112,1,53.3333333333333
128,128,183062,5,0
112,168,183194,1,0
112,208,183325,1,0
112,288,183588,1,2
192,288,183851,5,0
192,248,183983,1,0
192,208,184115,1,0
192,128,184378,1,2
272,128,184641,5,0
272,128,184772,1,0
272,128,184904,1,2
424,184,185430,5,0
424,184,185562,1,0
424,184,185694,1,0
400,256,185957,1,2
320,256,186220,5,0
280,256,186351,1,0
240,256,186483,1,0
160,256,186746,1,2
80,256,187009,1,0
80,176,187272,5,0
80,176,187404,1,0
80,176,187536,1,0
80,96,187799,1,2
160,96,188062,5,0
200,96,188194,1,0
240,96,188325,1,0
280,96,188457,1,2
360,96,188720,1,0
400,96,188851,1,0
320,96,189115,1,0
320,256,189641,5,0
320,256,189772,1,0
320,256,189904,1,0
240,256,190167,1,0
240,256,190299,1,0
240,256,190430,1,0
240,256,190562,1,0
280,184,190825,1,0
280,184,190957,1,0
200,184,191220,6,0,B|200:296,1,106.666666666667
256,288,191746,1,0
136,184,192272,6,0,B|136:296,1,106.666666666667
80,288,192799,1,0
136,136,193325,6,0,B|136:8,1,106.666666666667
192,32,193851,1,0
296,32,194202,1,0
352,32,194378,1,0
352,136,194729,1,0
408,136,194904,1,0
352,224,195255,5,0
296,224,195430,1,0
232,136,195781,1,0
232,136,195957,1,0
72,136,196483,5,0
72,240,196834,1,0
128,240,197009,1,0
232,240,197360,1,0
232,240,197536,1,0
232,136,197886,2,0,B|232:72,1,53.3333333333333
328,80,198413,2,0,B|328:136,1,53.3333333333333
328,240,198939,1,0
272,240,199115,6,0,B|160:240,1,106.666666666667
112,240,199641,1,0
112,136,199992,1,0
112,80,200167,1,0
272,80,200693,5,2
432,80,201220,1,2
272,80,201746,6,0,B|232:56|216:104|168:64,1,106.666666666667
120,64,202272,5,0
16,64,202623,1,0
16,120,202799,1,0
120,120,203150,1,0
120,176,203325,5,0
16,176,203676,1,0
16,232,203851,1,0
120,232,204202,1,0
120,288,204378,1,4
224,288,204729,2,0,B|296:288,1,53.3333333333333
384,288,205255,1,0
384,288,205430,1,0
384,184,205781,1,0
384,184,205957,1,0
304,40,206483,5,0
248,128,206834,1,0
248,184,207009,1,0
168,256,207360,1,0
168,312,207536,1,0
272,312,207886,1,0
272,368,208062,1,0
360,312,208413,1,0
304,208,208588,6,0,B|336:152|400:192,1,106.666666666667
344,200,209115,6,0,B|408:232|360:296,1,106.666666666667
336,240,209641,6,0,B|296:296|240:256,1,106.666666666667
288,232,210167,6,0,B|232:200|272:136,1,106.666666666667
296,184,210693,6,0,B|336:128|392:168,1,106.666666666667
336,192,211220,6,0,B|384:232|352:288,1,106.666666666667
192,288,212097,6,0,B|112:288,1,53.3333333333333
136,184,212623,1,0
136,128,212799,1,0
208,48,213150,1,0
208,104,213325,1,0
304,48,213676,2,0,B|304:128,1,53.3333333333333
304,208,214202,1,0
304,264,214378,1,0
232,344,214729,1,0
232,288,214904,1,0
128,264,215255,5,0
128,208,215430,1,0
128,104,215781,2,0,B|128:208,1,53.3333333333333
224,104,216308,2,0,B|224:160,1,53.3333333333333
224,264,216834,1,0
224,320,217009,1,0
320,264,217360,1,0
320,320,217536,1,0
408,264,217886,5,0
408,208,218062,1,0
352,112,218413,1,0
352,112,218588,1,0
248,112,218939,1,0
248,112,219115,1,0
144,112,219465,1,0
144,112,219641,1,0
48,112,219992,6,0,B|48:280,1,160
104,272,220693,2,0,B|216:272,1,106.666666666667
208,216,221220,6,0,B|208:136,2,53.3333333333333
264,216,221746,1,0
344,144,222097,2,0,B|344:312,1,160
400,304,222799,2,0,B|400:192,1,106.666666666667
400,144,223325,6,0,B|400:64,2,53.3333333333333
344,144,223851,1,0
272,64,224202,2,0,B|272:232,1,160
216,224,224904,2,0,B|216:112,1,106.666666666667
160,120,225430,5,0
160,120,225606,1,0
160,120,225781,1,0
160,176,225957,1,0
160,72,226308,2,0,B|160:240,1,160
216,232,227009,2,0,B|216:120,1,106.666666666667
216,72,227536,6,0,B|296:72,1,53.3333333333333
216,72,227886,1,0
216,128,228062,1,0
216,24,228413,2,0,B|216:192,1,160
160,184,229115,2,0,B|160:296,1,106.666666666667
160,344,229641,5,4
320,344,230167,1,0
248,88,231044,1,0
248,144,231220,1,0
248,248,231571,1,0
248,304,231746,1,0
248,144,232272,1,0
200,144,233150,6,0,B|200:216,1,53.3333333333333
296,144,233676,2,0,B|296:232,1,53.3333333333333
248,352,234378,1,0
248,192,234904,1,0
248,32,235430,1,0
248,192,235957,1,0
248,192,236483,1,4
