osu file format v7

[General]
AudioFilename: Not Afraid.mp3
AudioLeadIn: 0
PreviewTime: 67330
Countdown: 0
SampleSet: Soft
StackLeniency: 0.7
Mode: 0
LetterboxInBreaks: 1

[Editor]
DistanceSpacing: 1
BeatDivisor: 4
GridSize: 8

[Metadata]
Title:Not Afraid
Artist:Eminem
Creator:uranuss8600
Version:Not Afraid
Source:
Tags:Recovery Hardcore Rap

[Difficulty]
HPDrainRate:6
CircleSize:4
OverallDifficulty:7
SliderMultiplier:1.6
SliderTickRate:2

[Events]
//Background and Video events
0,0,"not afraid1.jpg"
Video,0,"Not Afraid.avi"
//Break Periods
2,90901,100964
2,157878,159569
2,178808,190266
//Storyboard Layer 0 (Background)
//Storyboard Layer 1 (Fail)
//Storyboard Layer 2 (Pass)
//Storyboard Layer 3 (Foreground)
//Storyboard Sound Samples
//Background Colour Transformations
3,100,0,0,0

[TimingPoints]
23725,348.837209302326,4,2,0,70,1,0
68377,-100,4,2,0,70,0,1
90703,-100,4,2,0,70,0,0
135181,-100,4,2,0,70,0,1
157682,-100,4,2,0,70,0,0
158380,-200,4,2,0,70,0,0
189776,-100,4,2,0,70,0,0
224661,-100,4,2,0,70,0,1
246987,-100,4,2,0,70,0,0

[Colours]
Combo1 : 155,155,155
Combo2 : 141,145,209
Combo3 : 255,255,255

[HitObjects]
464,296,23724,2,2,B|504:208|416:128,1,160,4|2
368,96,24248,2,0,B|320:88|280:120,1,80,8|0
328,184,24597,1,2
376,248,24771,2,0,B|360:288|296:280,1,80,8|2
240,248,25120,6,2,B|240:128|112:192,1,160,0|2
144,264,25643,1,8
208,312,25818,1,0
208,312,25992,1,2
280,344,26166,2,0,B|336:344|312:264,1,80,8|2
424,192,26515,6,2,B|448:144|400:112,1,80,4|2
336,80,26864,1,0
304,152,27038,2,0,B|272:192|224:160,1,80,10|0
176,104,27387,1,2
136,32,27562,2,2,B|48:72|96:176,1,160,8|2
91,165,28085,1,0
72,248,28259,5,0
72,248,28434,1,8
128,312,28608,2,0,B|176:320|216:328,2,80,0|0|8
192,112,29306,6,2,B|256:40|360:112,1,160
392,160,29829,1,8
344,224,30004,2,0,B|320:272|256:256,2,80,2|0|10
392,160,30527,2,0,B|424:104|360:80,1,80,2|0
304,64,30876,1,0
304,64,31050,1,0
304,64,31224,1,8
256,128,31399,6,0,B|232:176|176:160,1,80,0|2
112,176,31748,1,8
56,232,31922,2,2,B|136:288|192:200,1,160,2|2
256,152,32445,5,8
256,152,32620,1,0
336,128,32794,2,0,B|376:112|416:96,3,80
376,256,33666,5,0
376,256,33754,1,0
376,256,33841,1,2
296,256,34015,1,0
239,312,34190,1,8
159,316,34364,2,0,B|96:312|136:256,1,80,2|8
208,240,34713,1,0
264,176,34887,6,2,B|288:64|160:64,1,160,4|2
120,112,35411,1,8
56,64,35585,2,0,B|72:16|144:32,1,80,0|2
200,32,35934,1,8
200,112,36108,2,2,B|264:184|344:112,1,160,2|0
480,184,36631,5,2
480,184,36806,1,8
464,264,36980,2,2,B|432:288|392:304,1,80,0|2
336,248,37329,1,8
296,320,37504,2,2,B|240:400|136:336,1,160,2|2
80,312,38027,1,0
88,232,38201,5,10
248,224,38550,1,2
184,80,38899,1,2
184,80,38986,1,0
184,80,39073,2,2,B|240:88|264:88,1,80,4|0
336,48,39422,1,0
400,104,39597,1,8
416,184,39771,2,0,B|376:192|328:200,1,80
416,184,40120,5,8
389,259,40294,1,2
336,200,40469,1,0
416,184,40643,1,0
336,200,40818,1,2
256,224,40992,2,0,B|232:272|176:248,1,80,8|2
184,176,41341,2,0,B|168:128|104:152,1,80,0|10
104,224,41690,6,2,B|80:328|208:360,1,160,2|0
224,288,42213,1,0
224,288,42387,1,8
208,208,42562,2,0,B|256:192|280:232,1,80,0|2
224,288,42911,1,8
168,344,43085,6,0,B|192:384|240:368,1,80,2|0
224,288,43434,1,0
304,312,43608,2,0,B|384:272|344:168,1,160,2|8
288,120,44131,1,0
208,120,44306,1,2
32,176,44655,5,0
56,96,44829,1,0
128,64,45004,1,0
200,96,45178,2,0,B|248:96|288:80,1,80,8|0
336,32,45527,1,0
336,32,45701,1,10
424,168,46050,5,2
352,128,46224,2,2,B|272:56|192:136,1,160,2|8
272,168,46748,2,2,B|200:232|128:152,1,160,2|8
72,104,47271,1,2
48,184,47445,1,0
64,264,47620,5,2
128,312,47794,1,0
184,256,47969,2,0,B|216:216|280:256,1,80,8|2
320,296,48318,1,0
368,232,48492,1,8
368,232,48841,5,2
432,184,49015,2,0,B|472:144|416:104,1,80,2|0
376,56,49364,2,0,B|336:24|288:64,1,80,8|0
248,112,49713,5,2
248,112,49887,1,8
176,152,50062,1,0
96,128,50236,2,0,B|40:104|16:160,1,80,2|0
72,208,50585,1,2
56,288,50759,2,0,B|96:312|136:256,1,80,8|2
208,272,51108,1,0
264,328,51283,1,8
400,248,51631,6,0,B|504:232|480:112,1,160,4|0
432,72,52155,1,8
360,40,52329,1,0
288,72,52504,6,0,B|248:112|208:80,1,80,2|8
152,40,52852,2,0,B|100:16|74:59,2,80,2|0|2
128,120,53376,1,0
128,120,53550,2,0,B|128:168|128:208,1,80,10|0
200,240,53899,2,0,B|200:208|200:152,1,80,2|8
280,144,54248,1,2
280,144,54422,6,0,B|328:72|440:104,1,160,4|0
488,152,54945,1,8
464,232,55120,1,0
392,264,55294,2,0,B|424:304|456:336,2,80,0|0|8
320,240,55818,5,0
240,248,55992,1,0
176,296,56166,1,0
104,256,56341,2,0,B|136:208|104:168,1,80,8|0
56,128,56690,1,0
56,128,56864,1,10
96,64,57038,6,0,B|128:24|184:72,1,80,6|2
216,120,57387,1,0
216,120,57562,1,0
296,104,57736,2,0,B|352:88|368:160,1,80,8|2
440,136,58085,1,0
440,136,58259,1,8
488,208,58434,2,2,B|496:328|368:312,1,160,0|2
400,312,59131,5,0
392,232,59306,2,0,B|352:256|320:272,1,80,8|2
256,224,59655,2,0,B|344:176,1,80,0|8
320,96,60004,5,2
280,26,60178,1,2
210,66,60352,1,0
250,135,60527,1,8
250,135,60701,2,0,B|222:240|222:240,2,80,2|0|10
320,96,61224,1,0
392,120,61399,6,0,B|368:168|416:192,1,80,6|0
344,232,61748,1,2
296,296,61922,2,0,B|272:248|224:272,1,80,8|2
152,256,62271,2,0,B|96:256|112:184,1,80,0|8
48,256,62620,1,8
128,232,62794,6,0,B|312:256|232:88|448:128,1,320,4|2
448,192,63666,1,0
448,192,63841,1,8
456,112,64015,6,0,B|352:144|400:272,1,160,2|0
424,312,64538,1,0
424,312,64713,2,0,B|384:328|344:288,1,80,10|0
352,296,65062,2,0,B|320:256|275:273,1,80,2|8
280,272,65411,1,2
128,336,65759,6,0,B|40:312|72:200,1,160,4|0
112,144,66283,1,8
184,104,66457,1,0
184,184,66631,1,8
112,144,66806,1,0
184,104,66980,1,4
184,184,67155,1,0
80,232,67329,5,2
32,168,67504,2,0,B|24:128|32:80,1,80,8|2
96,40,67852,1,0
168,80,68027,2,0,B|208:88|256:80,1,80,10|0
360,40,68376,6,0,B|424:88|472:160,1,160,6|2
448,232,68899,1,8
448,232,69073,1,0
384,280,69248,2,0,B|360:320|352:360,2,80,2|8|0
352,160,69771,6,4,B|272:152|184:160,1,160,6|2
112,176,70294,2,0,B|72:184|32:200,1,80,8|2
88,264,70643,2,0,B|48:288|24:320,1,80,0|10
80,376,70992,1,0
176,312,71166,6,4,B|256:296|344:312,1,160,6|0
408,344,71690,2,0,B|456:320|488:288,1,80,10|0
480,224,72038,1,2
480,224,72213,1,8
432,160,72387,1,0
312,184,72562,6,0,B|272:112|248:32,1,160,6|2
184,88,73085,2,0,B|160:120|144:160,1,80,8|2
80,112,73434,2,0,B|56:80|40:40,1,80,0|10
41,43,73783,1,0
128,208,73957,6,4,B|88:280|24:344,1,160,6|2
96,384,74480,1,8
96,384,74655,1,0
168,344,74829,2,0,B|208:336|256:344,1,80,2|8
312,288,75178,1,0
424,320,75352,6,2,B|480:264|512:184,1,160,6|0
448,136,75876,2,0,B|424:104|408:64,1,80,10|0
328,40,76225,1,2
328,40,76399,1,8
56,192,76748,6,2,B|0:272|104:352,1,160,6|0
200,264,77271,2,2,B|248:168|144:104,1,160,10|2
32,32,77969,5,2
32,32,78143,2,4,B|120:48|200:40,1,160,4|2
272,64,78666,1,8
328,120,78841,2,0,B|360:152|392:176,1,80,2|0
328,224,79190,2,0,B|336:264|360:304,1,80,10|0
512,288,79538,6,2,B|496:200|456:136,1,160,6|2
400,88,80062,1,8
400,88,80236,1,0
328,120,80411,2,0,B|288:120|240:112,1,80,2|8
176,152,80759,1,0
160,32,80934,6,0,B|72:40|0:72,1,160,6|2
48,136,81457,2,0,B|40:176|24:216,1,80,8|2
104,224,81806,2,0,B|112:272|128:312,1,80,0|10
176,360,82155,1,0
264,280,82329,6,0,B|352:272|424:240,1,160,6|2
384,168,82852,1,8
448,112,83027,2,0,B|440:64|448:24,2,80,0|2|8
384,168,83550,1,0
328,64,83725,6,0,B|240:72|168:104,1,160,6|2
152,176,84248,1,8
72,200,84422,2,0,B|72:152|80:112,1,80,2|0
160,104,84771,2,0,B|176:64|200:24,1,80,10|0
368,72,85120,6,0,B|336:152|280:208,1,160,6|2
224,264,85643,1,8
224,264,85818,1,0
152,296,85992,2,0,B|104:288|64:296,2,80,2|8|0
264,344,86515,6,2,B|352:360|424:336,1,160,4|2
432,256,87038,2,0,B|416:208|408:168,1,80,10|0
464,120,87387,2,0,B|456:80|440:32,1,80,2|8
368,72,87736,6,2,B|312:152|248:176|136:136,1,240,6|0
120,72,88434,1,8
120,72,88608,1,0
48,112,88783,2,0,B|24:160|48:200,1,80,2|8
72,264,89131,1,2
152,280,89306,6,2,B|312:328|360:160,2,240,6|2|2
200,128,90701,1,6
424,320,101864,6,2,B|304:200|464:120,2,240,6|2|2
272,272,103259,2,2,B|208:192|304:112,1,160,4|2
320,200,103783,1,0
272,272,103957,1,0
208,128,104306,5,0
128,112,104480,2,0,B|96:144|64:176,1,80
152,184,104829,2,0,B|120:216|88:248,2,80,2|0|0
168,264,105352,2,0,B|200:232|232:200,1,80,2|0
272,144,105701,1,2
344,128,105876,1,0
344,128,106050,2,2,B|384:208|416:272,1,160,2|2
416,271,106748,5,2
352,320,106922,1,2
352,320,107097,1,0
416,272,107271,1,0
344,240,107445,2,0,B|304:208|264:168,1,80,6|0
208,184,107794,1,0
136,144,107969,2,0,B|200:64|304:152,2,160,2|2|2
176,72,108841,5,0
104,24,109015,1,0
104,24,109190,1,0
40,80,109364,2,2,B|24:128|72:152,1,80
104,216,109713,2,0,B|152:184|192:248,1,80,2|0
328,184,110236,5,6
328,184,110411,2,0,B|376:160|416:224,1,80,8|0
352,264,110759,2,0,B|304:280|256:216,1,80,0|8
328,184,111108,1,0
328,184,111283,1,8
400,144,111457,1,0
480,128,111631,5,0
400,144,111806,2,0,B|352:120|304:96,1,80
296,32,112155,1,8
296,32,112329,1,2
296,32,112504,2,0,B|240:64|208:80,1,80,0|10
248,144,112852,1,2
112,120,113027,6,2,B|8:168|80:280,1,160,4|0
104,320,113550,2,0,B|136:360|192:336,1,80,10|0
224,272,113899,1,2
272,336,114073,1,8
336,288,114248,6,2,B|424:232|352:128,1,160,2|0
440,120,114771,1,2
384,56,114945,1,8
312,96,115120,2,0,B|264:88|224:80,2,80,0|2|8
365,150,115643,1,0
429,203,115818,6,6,B|365:147|301:99,1,160,6|0
256,160,116341,1,10
280,240,116515,2,0,B|232:264|192:208,1,80,0|2
168,160,116864,1,8
168,160,117213,6,2,B|176:104|240:104,1,80,6|0
256,160,117562,1,0
304,96,117736,2,0,B|344:112|384:80,1,80,8|0
344,160,118085,1,2
424,168,118259,1,8
464,240,118434,1,0
448,320,118608,6,0,B|424:360|368:344,1,80,6|0
312,304,118957,1,0
312,304,119131,2,0,B|232:368|144:288,1,160,10|2
88,280,119655,1,8
88,280,119829,1,2
48,208,120004,6,0,B|16:168|56:128,2,80,6|0|0
88,280,120527,1,10
88,280,120701,1,0
160,256,120876,2,0,B|200:296|248:240,1,80,2|8
296,208,121225,1,2
384,192,121399,1,0
432,128,121573,6,0,B|360:296|240:120|160:296,1,320,2|0
136,200,122445,1,8
64,56,122794,6,0,B|88:96|40:136,2,80,4|0|0
144,64,123318,1,8
144,64,123492,1,0
224,88,123666,1,0
264,160,123841,1,2
264,160,124015,1,0
280,320,124190,6,2,B|320:352|376:320,1,80,4|2
432,280,124538,1,0
408,200,124713,2,0,B|384:152|328:176,1,80,8|2
264,152,125062,1,0
264,152,125236,1,8
330,108,125411,6,2,B|242:28|170:148,2,160,2|2|8
264,152,126283,2,0,B|304:192|248:240,1,80,2|0
192,192,126631,1,8
160,120,126806,6,2,B|88:192|160:272,1,160,2|2
224,296,127329,1,0
296,256,127504,2,0,B|328:248|376:232,1,80,10|0
368,152,127852,1,2
368,152,128027,1,8
424,96,128201,1,0
360,48,128376,6,0,B|320:64|280:72,2,80,6|0|2
312,112,128899,2,0,B|312:48|312:16,1,80,8|2
232,56,129248,1,0
232,56,129422,1,8
232,56,129771,6,0,B|256:160|376:136,1,160,4|0
424,176,130294,1,8
368,328,130643,6,0,B|336:352|288:352,1,80,2|8
216,344,130992,2,2,B|112:336|96:232,1,160,2|0
112,176,131515,1,0
168,120,131690,2,0,B|136:80|92:97,1,80,10|0
112,176,132038,1,2
112,176,132213,1,8
184,208,132387,1,2
248,160,132562,6,0,B|248:56|392:88,1,160,4|0
432,120,133085,1,8
448,280,133434,2,0,B|400:280|352:280,1,80,0|8
384,16,133957,5,4
456,64,134131,1,0
456,64,134306,1,0
416,136,134480,2,0,B|408:176|408:224,1,80,8|0
440,288,134829,1,0
440,288,135004,1,10
384,344,135178,6,2,B|304:336|216:352,1,160,6|2
225,351,135701,1,0
160,304,135876,2,0,B|120:320|80:320,1,80,8|2
24,264,136225,1,0
24,264,136399,1,8
32,184,136573,2,2,B|104:144|192:136,1,160,6|2
248,184,137097,1,0
328,168,137271,2,0,B|344:120|352:80,1,80,8|2
424,64,137620,1,0
424,64,137794,1,8
472,128,137969,6,2,B|440:200|432:288,2,160,6|2|10
424,64,138841,1,0
352,96,139015,2,0,B|312:88|272:72,1,80,2|8
200,104,139364,1,0
144,48,139538,6,0,B|104:56|64:72,2,80,6|0|2
200,104,140062,1,8
184,184,140236,1,2
184,184,140411,1,0
240,240,140585,1,8
384,320,140759,6,0,B|328:192|496:192|424:16,1,320,4|2
344,8,141631,1,2
344,8,141806,1,0
344,8,141980,1,8
296,72,142155,6,0,B|216:88|128:80,1,160,6|0
88,144,142678,1,0
120,216,142852,2,0,B|112:256|96:296,1,80,10|0
160,344,143201,2,0,B|168:304|184:264,1,80,2|8
248,224,143550,1,2
328,240,143725,6,0,B|400:272|488:288,1,160,4|0
481,287,144248,1,8
448,128,144597,1,0
448,128,144771,1,8
304,64,145120,5,4
304,64,145294,1,0
224,88,145469,1,2
160,40,145643,2,0,B|120:32|72:40,1,80,8|2
32,104,145992,1,0
72,176,146166,2,0,B|80:216|72:264,1,80,10|0
184,336,146515,6,0,B|264:328|344:288,1,160,6|2
368,216,147038,1,8
368,216,147213,1,0
424,160,147387,2,0,B|464:136|504:128,2,80,2|8|0
368,216,147911,6,4,B|288:208|216:152,1,160,6|2
168,96,148434,2,0,B|128:104|88:120,1,80,8|2
96,200,148783,2,0,B|56:224|32:256,1,80,0|10
56,328,149131,1,0
136,352,149306,6,4,B|208:312|248:232,1,160,6|0
320,216,149829,2,0,B|368:240|400:272,1,80,10|0
464,264,150178,1,2
464,264,150352,1,8
496,192,150527,1,0
464,120,150701,6,0,B|384:104|328:32,1,160,6|2
256,16,151225,2,0,B|232:48|216:88,1,80,8|2
240,160,151573,2,0,B|225:198|192:248,1,80,0|10
128,264,151922,1,0
56,224,152097,6,4,B|40:144|56:56,1,160,6|2
120,24,152620,1,8
120,24,152794,1,0
192,64,152969,2,0,B|232:72|280:64,1,80,2|8
336,24,153318,1,0
400,64,153492,6,2,B|432:136|496:192,1,160,6|0
480,272,154015,2,0,B|456:312|424:336,1,80,10|0
352,344,154364,1,2
352,344,154538,1,8
136,256,154887,6,2,B|96:160|184:96,1,160,6|0
272,184,155411,2,2,B|304:280|224:344,1,160,10|2
24,312,156108,5,2
24,312,156283,2,4,B|8:224|16:144,1,160,4|2
64,88,156806,1,8
144,64,156980,2,0,B|184:72|208:112,1,80,2|0
288,128,157329,2,0,B|328:112|368:144,1,80,10|0
416,200,157678,1,4
88,224,160469,5,8
120,152,160818,1,0
192,120,161166,2,0,B|240:136,1,40,0|2
288,184,161690,2,0,B|336:184,1,40,0|2
328,224,162038,2,0,B|280:224,1,40,0|8
344,280,162562,6,0,B|408:169,1,120
400,136,163259,5,8
344,80,163608,1,0
264,56,163957,2,0,B|312:56,1,40,0|2
296,136,164480,2,0,B|328:168,1,40,2|0
328,208,164829,2,0,B|296:240,1,40,2|0
216,240,165352,2,0,B|160:248|152:200,1,80,0|8
152,128,166050,5,2
232,128,166399,1,2
280,192,166748,2,0,B|312:224,1,40,2|0
240,264,167271,2,0,B|272:296,1,40,0|2
240,264,167620,2,0,B|208:296,1,40,0|8
248,224,168143,6,0,B|280:256,1,40
304,224,168492,2,0,B|272:192,1,40,2|0
248,224,168841,5,4
328,248,169190,1,0
360,232,169364,1,8
376,200,169538,1,0
368,120,169887,2,0,B|312:40|224:88,1,160,0|2
240,168,170934,5,0
240,168,171283,1,0
240,168,171631,2,0,B|136:128|112:232,1,160,8|0
192,232,172678,1,0
232,224,172852,2,0,B|264:256,1,40,2|0
304,256,173201,2,0,B|336:224,1,40,2|8
320,144,173725,6,0,B|360:128,1,40
408,192,174248,2,0,B|400:144,1,40,2|0
416,72,174771,1,0
336,48,175120,6,0,B|288:64,1,40
224,88,175643,2,0,B|256:120,1,40,2|0
216,128,175992,2,0,B|184:160,1,40,2|0
192,240,176515,2,0,B|240:232,2,40,2|2|2
256,192,177213,12,4,178608
256,256,191166,6,2,B|136:376|56:216,2,240,6|2|2
192,112,192562,2,2,B|272:48|352:144,1,160,4|2
392,176,193085,1,0
408,264,193259,1,0
320,312,193434,1,0
216,320,193608,1,0
112,272,193783,1,8
128,192,193957,6,0,B|80:168|48:224,1,80,0|2
112,272,194306,1,8
56,328,194480,2,2,B|136:384|192:296,1,160,2|2
224,224,195004,5,8
224,224,195178,1,0
280,168,195352,2,0,B|320:152|360:136,2,80
352,208,195876,2,0,B|432:176,1,80,8|0
424,256,196225,1,0
424,256,196399,1,2
376,320,196573,1,0
376,320,196748,1,8
296,320,196922,2,0,B|233:316|273:260,1,80,2|8
208,320,197271,1,0
200,240,197445,6,2,B|224:128|96:128,1,160,4|2
120,128,197969,1,8
56,80,198143,2,0,B|72:32|144:48,1,80,0|2
200,48,198492,1,8
280,56,198666,2,2,B|272:168|400:136,1,160,2|0
448,176,199190,5,2
448,176,199364,1,8
432,256,199538,2,2,B|416:304|360:296,1,80,0|2
352,224,199887,1,8
296,280,200062,2,2,B|240:360|136:296,1,160,2|2
168,224,200585,1,0
168,224,200934,5,10
248,224,201108,1,2
328,224,201283,1,0
392,176,201457,2,0,B|368:128|312:152,1,80,8|2
248,144,201806,1,0
248,144,201980,1,8
248,144,202155,1,0
312,96,202329,6,2,B|224:16|152:136,2,160,6|2|8
248,144,203201,2,0,B|288:184|232:232,1,80,2|0
176,176,203550,1,8
136,104,203725,6,2,B|64:176|136:256,1,160,2|2
208,232,204248,1,0
264,288,204422,2,0,B|296:280|344:264,1,80,10|0
384,200,204771,1,2
384,200,204945,1,8
392,120,205120,1,0
336,64,205294,6,0,B|296:80|256:88,2,80,6|0|2
336,64,205818,2,0,B|336:128|336:160,1,80,8|2
280,200,206166,1,0
280,200,206341,1,8
200,208,206515,1,0
120,224,206690,6,0,B|144:328|264:304,1,160,0|0
288,248,207213,1,8
368,248,207387,1,0
408,320,207562,6,0,B|376:344|328:344,1,80,2|8
256,344,207911,2,2,B|152:336|136:232,1,160,6|0
112,176,208434,1,0
168,120,208608,2,0,B|136:80|92:97,1,80,10|0
112,176,208957,1,2
112,176,209131,1,8
184,208,209306,1,2
56,112,209655,6,0,B|56:8|200:40,1,160,0|0
240,72,210178,1,8
296,128,210352,1,0
227,170,210527,2,0,B|299:242|380:158,1,160,0|8
304,320,211225,5,8
304,320,211399,1,0
232,280,211573,1,0
168,328,211748,1,0
96,288,211922,2,0,B|128:240|96:200,1,80,8|0
48,160,212271,1,0
48,160,212445,1,10
80,88,212620,6,0,B|112:48|168:80,1,80,2|2
224,112,212969,1,0
224,112,213143,1,0
256,184,213318,1,0
232,320,213492,6,2,B|192:352|136:320,1,80,4|2
80,280,213841,1,0
104,200,214015,2,0,B|128:152|184:176,1,80,8|2
248,152,214364,1,0
248,152,214538,1,8
182,108,214713,6,2,B|270:28|342:148,2,160,2|2|8
248,152,215585,2,0,B|208:192|264:240,1,80,2|0
320,192,215934,1,8
352,120,216108,6,2,B|424:192|352:272,1,160,2|2
288,296,216631,1,0
216,256,216806,2,0,B|184:248|136:232,1,80,10|0
144,152,217155,1,2
144,152,217329,1,8
88,96,217504,1,0
152,48,217678,6,0,B|184:80|232:72,2,80,6|0|2
136,128,218201,2,0,B|176:160|216:144,1,80,8|2
280,104,218550,1,0
280,104,218725,1,8
280,104,219073,6,0,B|256:208|136:184,1,160,4|0
88,168,219597,1,8
144,328,219945,6,0,B|176:352|224:352,1,80,2|8
296,344,220294,2,2,B|400:336|416:232,1,160,2|0
344,120,220992,6,0,B|376:80|420:97,1,80,10|0
400,176,221341,1,2
400,176,221515,1,8
328,208,221690,1,2
272,152,221864,1,0
216,96,222038,6,0,B|133:57|85:164,1,160,4|0
98,235,222562,1,8
165,192,222736,1,0
168,272,222911,1,8
127,203,223085,1,0
197,241,223259,1,4
130,284,223434,1,0
80,152,223608,5,2
32,216,223783,2,0,B|24:256|32:304,1,80,8|2
96,344,224131,1,0
168,304,224306,2,0,B|208:296|256:304,1,80,10|0
360,344,224655,6,0,B|424:296|472:224,1,160,6|2
448,152,225178,1,8
448,152,225352,1,0
384,104,225527,2,0,B|360:64|352:24,2,80,2|8|0
344,176,226050,6,4,B|264:160|176:176,1,160,6|2
112,208,226573,2,0,B|72:232|32:184,1,80,8|2
112,208,226922,2,0,B|64:176|112:120,1,80,0|10
112,208,227271,1,0
192,216,227445,6,4,B|272:232|360:216,1,160,6|0
368,136,227969,2,0,B|416:112|448:80,1,80,10|0
488,152,228318,1,2
488,152,228492,1,8
440,216,228666,1,0
360,192,228841,6,0,B|320:264|296:344,1,160,6|2
224,304,229364,2,0,B|200:272|184:232,1,80,8|2
112,256,229713,2,0,B|88:288|72:328,1,80,0|10
73,325,230062,1,0
128,176,230236,6,4,B|88:104|24:40,1,160,6|2
112,32,230759,1,8
112,32,230934,1,0
176,88,231108,2,0,B|216:96|264:88,1,80,2|8
320,40,231457,1,0
392,72,231631,6,2,B|448:128|480:208,1,160,6|0
424,264,232155,2,0,B|400:296|384:336,1,80,10|0
312,360,232504,1,2
312,360,232678,1,8
56,192,233027,6,2,B|0:112|104:32,1,160,6|0
200,120,233550,2,2,B|248:216|144:280,1,160,10|2
288,144,234248,5,2
304,64,234422,1,4
304,64,234597,1,0
224,88,234771,1,2
160,40,234945,2,0,B|120:32|72:40,1,80,8|2
32,104,235294,1,0
72,176,235469,2,0,B|80:216|72:264,1,80,10|0
184,336,235818,6,0,B|264:328|344:288,1,160,6|2
368,216,236341,1,8
368,216,236515,1,0
424,160,236690,2,0,B|464:136|504:128,2,80,2|8|0
368,216,237213,6,4,B|288:208|216:152,1,160,6|2
168,96,237736,2,0,B|128:104|88:120,1,80,8|2
168,144,238085,2,0,B|128:168|104:200,1,80,0|10
184,184,238434,1,0
240,80,238608,6,0,B|328:88|400:120,1,160,6|2
432,192,239131,1,8
448,272,239306,2,0,B|440:320|448:360,2,80,0|2|8
432,192,239829,1,0
368,240,240004,6,0,B|280:232|208:200,1,160,6|2
144,160,240527,1,8
64,184,240701,2,0,B|64:232|72:272,1,80,2|0
152,280,241050,2,0,B|168:320|192:360,1,80,10|0
368,312,241399,6,0,B|336:232|280:176,1,160,6|2
224,120,241922,1,8
224,120,242097,1,0
152,88,242271,2,0,B|104:96|64:88,2,80,2|8|0
216,40,242794,6,2,B|304:24|376:48,1,160,4|2
432,104,243318,2,0,B|416:152|408:192,1,80,10|0
456,248,243666,2,0,B|448:288|432:336,1,80,2|8
360,312,244015,6,2,B|304:232|240:208|128:248,1,240,6|0
112,312,244713,1,8
112,312,244887,1,0
48,264,245062,2,0,B|24:216|48:176,1,80,2|8
72,112,245411,1,2
256,192,245585,12,6,246980
