osu file format v14

[General]
AudioFilename: audio.mp3
AudioLeadIn: 0
PreviewTime: 47041
Countdown: 0
SampleSet: Normal
StackLeniency: 0.7
Mode: 1
LetterboxInBreaks: 0
WidescreenStoryboard: 0

[Editor]
DistanceSpacing: 1.6
BeatDivisor: 4
GridSize: 32
TimelineZoom: 0.6999999

[Metadata]
Title:Unfinished START
TitleUnicode:未完成START
Artist:Emilia(CV:Setsunan)
ArtistUnicode:艾米莉亞(CV:薛南)
Creator:katacheh
Version:Futsuu
Source:前進吧!高捷少女Initiating Station
Tags:EAjRock (Ayre Records) Uniparity Hoskey 艾米莉亞 Reo shinia Stellarism 希萌創意 Shi Kuang Lee NGC224 SAFE HOUSE T Narrator 前進吧!高捷少女《進め!高捷(たかめ)少女!》 Simon moe Short Version LET'S GO! K.R.T. GIRLS stu00608 Fantazy
BeatmapID:1020316
BeatmapSetID:477590

[Difficulty]
HPDrainRate:7
CircleSize:5
OverallDifficulty:4
ApproachRate:5
SliderMultiplier:1.4
SliderTickRate:1

[Events]
//Background and Video events
0,0,"BG.jpg",0,80
//Break Periods
//Storyboard Layer 0 (Background)
//Storyboard Layer 1 (Fail)
//Storyboard Layer 2 (Pass)
//Storyboard Layer 3 (Foreground)
//Storyboard Sound Samples

[TimingPoints]
494,342.857142857143,4,1,0,50,1,0
14208,333.333333333333,4,1,0,75,1,0
47541,-100,4,1,0,75,0,1
68874,-100,4,1,0,75,0,0
80874,-100,4,1,0,55,0,0
82207,-100,4,1,0,40,0,0
83541,-100,4,1,0,25,0,0
84541,-100,4,1,0,75,0,0

[HitObjects]
256,192,836,5,2,0:0:0:0:
256,192,1179,1,0,0:0:0:0:
256,192,1865,1,2,0:0:0:0:
256,192,2551,1,0,0:0:0:0:
256,192,2894,1,2,0:0:0:0:
256,192,3579,1,2,0:0:0:0:
256,192,3922,1,2,0:0:0:0:
256,192,4608,1,0,0:0:0:0:
256,192,5294,1,2,0:0:0:0:
256,192,5636,1,0,0:0:0:0:
256,192,5979,1,2,0:0:0:0:
256,192,6494,1,2,0:0:0:0:
256,192,7351,1,2,0:0:0:0:
256,192,7865,1,2,0:0:0:0:
256,192,8722,1,2,0:0:0:0:
256,192,10094,1,0,0:0:0:0:
256,192,10608,1,2,0:0:0:0:
256,192,10951,1,2,0:0:0:0:
256,192,11465,12,2,12836,0:0:0:0:
256,192,14208,5,0,0:0:0:0:
256,192,14541,1,2,0:0:0:0:
256,192,14874,1,0,0:0:0:0:
256,192,15041,1,0,0:0:0:0:
256,192,15207,1,2,0:0:0:0:
256,192,15541,1,4,0:0:0:0:
256,192,16207,1,0,0:0:0:0:
256,192,16541,1,0,0:0:0:0:
256,192,16874,1,2,0:0:0:0:
256,192,17541,1,0,0:0:0:0:
256,192,17874,1,2,0:0:0:0:
256,192,18207,1,0,0:0:0:0:
256,192,18874,1,2,0:0:0:0:
256,192,19207,1,0,0:0:0:0:
256,192,19541,1,2,0:0:0:0:
256,192,20207,1,2,0:0:0:0:
256,192,20541,1,2,0:0:0:0:
256,192,20874,1,4,0:0:0:0:
256,192,21874,1,2,0:0:0:0:
256,192,22207,1,0,0:0:0:0:
256,192,22541,1,2,0:0:0:0:
256,192,23207,1,0,0:0:0:0:
256,192,23541,1,2,0:0:0:0:
256,192,24041,1,0,0:0:0:0:
256,192,24374,1,2,0:0:0:0:
256,192,24874,1,6,0:0:0:0:
256,192,25374,1,6,0:0:0:0:
256,192,26207,1,0,0:0:0:0:
256,192,26874,1,0,0:0:0:0:
256,192,27541,1,2,0:0:0:0:
256,192,27874,1,2,0:0:0:0:
256,192,28207,1,0,0:0:0:0:
256,192,28541,1,2,0:0:0:0:
256,192,28874,1,0,0:0:0:0:
256,192,29541,1,0,0:0:0:0:
256,192,30207,1,0,0:0:0:0:
256,192,30541,1,2,0:0:0:0:
256,192,30874,1,2,0:0:0:0:
256,192,31207,1,2,0:0:0:0:
256,192,31541,1,0,0:0:0:0:
256,192,32207,1,2,0:0:0:0:
256,192,32874,1,0,0:0:0:0:
256,192,33207,1,0,0:0:0:0:
256,192,33541,1,2,0:0:0:0:
256,192,33874,1,0,0:0:0:0:
256,192,34207,1,2,0:0:0:0:
256,192,34707,1,2,0:0:0:0:
256,192,35041,1,2,0:0:0:0:
256,192,35374,1,0,0:0:0:0:
256,192,35541,2,0,L|352:192,6,70
256,192,36874,1,4,0:0:0:0:
256,192,37374,1,4,0:0:0:0:
256,192,37874,1,6,0:0:0:0:
256,192,38374,1,0,0:0:0:0:
256,192,38541,1,0,0:0:0:0:
256,192,38874,1,2,0:0:0:0:
256,192,39207,1,0,0:0:0:0:
256,192,39541,1,6,0:0:0:0:
256,192,40041,1,4,0:0:0:0:
256,192,40541,1,6,0:0:0:0:
256,192,41207,1,2,0:0:0:0:
256,192,41541,1,0,0:0:0:0:
256,192,41874,1,2,0:0:0:0:
256,192,42207,1,4,0:0:0:0:
256,192,42707,1,4,0:0:0:0:
256,192,43207,1,6,0:0:0:0:
256,192,43707,1,2,0:0:0:0:
256,192,43874,1,0,0:0:0:0:
256,192,44207,1,2,0:0:0:0:
256,192,44541,1,2,0:0:0:0:
256,192,44874,1,0,0:0:0:0:
256,192,45374,1,2,0:0:0:0:
256,192,45874,1,0,0:0:0:0:
224,160,46207,2,0,L|320:160,6,70
256,192,47541,1,6,0:0:0:0:
256,192,47874,1,2,0:0:0:0:
256,192,48207,1,0,0:0:0:0:
256,192,48541,1,0,0:0:0:0:
256,192,48707,1,2,0:0:0:0:
256,192,49041,1,0,0:0:0:0:
256,192,49541,1,0,0:0:0:0:
256,192,49874,1,2,0:0:0:0:
256,192,50207,1,0,0:0:0:0:
256,192,50541,1,0,0:0:0:0:
256,192,50874,1,2,0:0:0:0:
256,192,51207,1,0,0:0:0:0:
256,192,51374,1,2,0:0:0:0:
256,192,52541,1,2,0:0:0:0:
256,192,52874,1,4,0:0:0:0:
256,192,53207,1,2,0:0:0:0:
256,192,53541,1,0,0:0:0:0:
256,192,53874,1,0,0:0:0:0:
256,192,54041,1,2,0:0:0:0:
256,192,54374,1,0,0:0:0:0:
256,192,54874,1,0,0:0:0:0:
256,192,55207,1,2,0:0:0:0:
256,192,55541,1,2,0:0:0:0:
256,192,55874,1,0,0:0:0:0:
256,192,56207,1,0,0:0:0:0:
256,192,56541,1,0,0:0:0:0:
256,192,56707,1,2,0:0:0:0:
256,192,57874,1,2,0:0:0:0:
256,192,58207,1,4,0:0:0:0:
256,192,58541,1,2,0:0:0:0:
256,192,58874,1,0,0:0:0:0:
256,192,59207,1,2,0:0:0:0:
256,192,59374,1,2,0:0:0:0:
256,192,59874,1,2,0:0:0:0:
256,192,60207,1,0,0:0:0:0:
256,192,60541,1,2,0:0:0:0:
256,192,60874,1,6,0:0:0:0:
256,192,61541,1,6,0:0:0:0:
256,192,62207,1,4,0:0:0:0:
256,192,62707,1,4,0:0:0:0:
256,192,63207,1,0,0:0:0:0:
256,192,63541,1,6,0:0:0:0:
256,192,64041,1,2,0:0:0:0:
256,192,64541,1,0,0:0:0:0:
256,192,64874,1,6,0:0:0:0:
256,192,65374,1,2,0:0:0:0:
256,192,65874,1,0,0:0:0:0:
256,192,66207,1,6,0:0:0:0:
256,192,66707,1,0,0:0:0:0:
256,192,67207,1,2,0:0:0:0:
256,192,67541,1,4,0:0:0:0:
256,192,67874,1,6,0:0:0:0:
256,192,68207,1,0,0:0:0:0:
256,192,68541,1,2,0:0:0:0:
256,192,68874,1,4,0:0:0:0:
256,192,69541,1,2,0:0:0:0:
256,192,69874,1,0,0:0:0:0:
256,192,70207,1,2,0:0:0:0:
256,192,70874,1,0,0:0:0:0:
256,192,71207,1,2,0:0:0:0:
256,192,71541,1,0,0:0:0:0:
256,192,72207,1,2,0:0:0:0:
256,192,72874,1,0,0:0:0:0:
256,192,73207,1,2,0:0:0:0:
256,192,73541,1,0,0:0:0:0:
256,192,73874,1,2,0:0:0:0:
256,192,74207,1,0,0:0:0:0:
256,192,74374,1,0,0:0:0:0:
256,192,74541,1,6,0:0:0:0:
256,192,74874,1,6,0:0:0:0:
256,192,75374,1,4,0:0:0:0:
256,192,76207,1,0,0:0:0:0:
256,192,76541,1,0,0:0:0:0:
256,192,76874,1,6,0:0:0:0:
256,192,77374,1,0,0:0:0:0:
256,192,77541,1,0,0:0:0:0:
256,192,78041,1,2,0:0:0:0:
256,192,78207,1,2,0:0:0:0:
256,192,78707,1,2,0:0:0:0:
256,192,78874,1,2,0:0:0:0:
256,192,79207,1,0,0:0:0:0:
256,192,79374,1,0,0:0:0:0:
256,192,79874,12,0,84874,0:0:0:0:
