osu file format v14

[General]
AudioFilename: audio.mp3
AudioLeadIn: 0
PreviewTime: 47041
Countdown: 0
SampleSet: Normal
StackLeniency: 0.7
Mode: 1
LetterboxInBreaks: 0
WidescreenStoryboard: 0

[Editor]
DistanceSpacing: 1.6
BeatDivisor: 4
GridSize: 32
TimelineZoom: 1.3

[Metadata]
Title:Unfinished START
TitleUnicode:未完成START
Artist:Emilia(CV:Setsunan)
ArtistUnicode:艾米莉亞(CV:薛南)
Creator:katacheh
Version:stu's Oni
Source:前進吧!高捷少女Initiating Station
Tags:EAjRock (Ayre Records) Uniparity Hoskey 艾米莉亞 Reo shinia Stellarism 希萌創意 Shi Kuang Lee NGC224 SAFE HOUSE T Narrator 前進吧!高捷少女《進め!高捷(たかめ)少女!》 Simon moe Short Version LET'S GO! K.R.T. GIRLS stu00608 Fantazy
BeatmapID:1207122
BeatmapSetID:477590

[Difficulty]
HPDrainRate:5
CircleSize:5
OverallDifficulty:5.5
ApproachRate:5
SliderMultiplier:1.4
SliderTickRate:1

[Events]
//Background and Video events
0,0,"BG.jpg",0,80
//Break Periods
//Storyboard Layer 0 (Background)
//Storyboard Layer 1 (Fail)
//Storyboard Layer 2 (Pass)
//Storyboard Layer 3 (Foreground)
//Storyboard Sound Samples

[TimingPoints]
494,342.857142857143,4,1,0,50,1,0
494,-125,4,1,0,50,0,0
14208,333.333333333333,4,1,0,75,1,0
47541,-100,4,1,0,90,0,1
68874,-100,4,1,0,75,0,0

[HitObjects]
256,192,836,5,8,0:0:0:0:
256,192,1008,1,8,0:0:0:0:
256,192,1179,1,8,0:0:0:0:
256,192,1522,1,8,0:0:0:0:
256,192,1694,1,8,0:0:0:0:
256,192,1865,1,0,0:0:0:0:
256,192,2208,1,8,0:0:0:0:
256,192,2551,1,0,0:0:0:0:
256,192,2894,1,8,0:0:0:0:
256,192,3579,1,8,0:0:0:0:
256,192,3751,1,8,0:0:0:0:
256,192,3922,1,0,0:0:0:0:
256,192,4265,1,8,0:0:0:0:
256,192,4608,1,0,0:0:0:0:
256,192,4951,1,8,0:0:0:0:
256,192,5294,1,8,0:0:0:0:
256,192,5636,1,0,0:0:0:0:
256,192,5979,1,8,0:0:0:0:
256,192,6322,1,0,0:0:0:0:
256,192,6494,1,8,0:0:0:0:
256,192,7008,1,0,0:0:0:0:
256,192,7351,1,8,0:0:0:0:
256,192,7694,1,0,0:0:0:0:
256,192,7865,1,8,0:0:0:0:
256,192,8379,1,8,0:0:0:0:
256,192,8722,1,0,0:0:0:0:
256,192,9236,1,8,0:0:0:0:
256,192,9579,1,8,0:0:0:0:
256,192,9922,1,0,0:0:0:0:
256,192,10094,1,0,0:0:0:0:
256,192,10436,1,8,0:0:0:0:
256,192,10608,1,8,0:0:0:0:
256,192,10951,1,0,0:0:0:0:
256,192,11465,1,8,0:0:0:0:
256,192,11979,12,0,12836,0:0:0:0:
256,192,14208,5,8,0:0:0:0:
256,192,14374,1,0,0:0:0:0:
256,192,14541,1,8,0:0:0:0:
256,192,14708,1,0,0:0:0:0:
256,192,14791,1,0,0:0:0:0:
256,192,14874,1,0,0:0:0:0:
256,192,15041,1,0,0:0:0:0:
256,192,15124,1,0,0:0:0:0:
256,192,15207,1,8,0:0:0:0:
256,192,15291,1,0,0:0:0:0:
256,192,15374,1,0,0:0:0:0:
256,192,15457,1,0,0:0:0:0:
256,192,15541,1,8,0:0:0:0:
256,192,15874,1,8,0:0:0:0:
256,192,16041,1,0,0:0:0:0:
256,192,16124,1,0,0:0:0:0:
256,192,16207,1,0,0:0:0:0:
256,192,16374,1,0,0:0:0:0:
256,192,16541,1,8,0:0:0:0:
256,192,16874,1,0,0:0:0:0:
256,192,17207,1,8,0:0:0:0:
256,192,17374,1,0,0:0:0:0:
256,192,17457,1,0,0:0:0:0:
256,192,17541,1,0,0:0:0:0:
256,192,17707,1,0,0:0:0:0:
256,192,17874,1,8,0:0:0:0:
256,192,17957,1,8,0:0:0:0:
256,192,18041,1,8,0:0:0:0:
256,192,18124,1,8,0:0:0:0:
256,192,18207,1,0,0:0:0:0:
256,192,18541,1,8,0:0:0:0:
256,192,18707,1,0,0:0:0:0:
256,192,18791,1,0,0:0:0:0:
256,192,18874,1,0,0:0:0:0:
256,192,19041,1,0,0:0:0:0:
256,192,19207,1,8,0:0:0:0:
256,192,19541,1,0,0:0:0:0:
256,192,19874,1,8,0:0:0:0:
256,192,20041,1,0,0:0:0:0:
256,192,20207,1,0,0:0:0:0:
256,192,20374,1,0,0:0:0:0:
256,192,20457,1,0,0:0:0:0:
256,192,20541,1,8,0:0:0:0:
256,192,20624,1,8,0:0:0:0:
256,192,20707,1,0,0:0:0:0:
256,192,20874,1,4,0:0:0:0:
256,192,21207,1,8,0:0:0:0:
256,192,21374,1,0,0:0:0:0:
256,192,21457,1,0,0:0:0:0:
256,192,21541,1,0,0:0:0:0:
256,192,21707,1,0,0:0:0:0:
256,192,21874,1,8,0:0:0:0:
256,192,22041,1,0,0:0:0:0:
256,192,22207,1,0,0:0:0:0:
256,192,22541,1,8,0:0:0:0:
256,192,22707,1,0,0:0:0:0:
256,192,22791,1,0,0:0:0:0:
256,192,22874,1,0,0:0:0:0:
256,192,23041,1,0,0:0:0:0:
256,192,23207,1,8,0:0:0:0:
256,192,23374,1,0,0:0:0:0:
256,192,23541,1,8,0:0:0:0:
256,192,23874,1,0,0:0:0:0:
256,192,24041,1,0,0:0:0:0:
256,192,24374,1,8,0:0:0:0:
256,192,24541,1,8,0:0:0:0:
256,192,24624,1,8,0:0:0:0:
256,192,24707,1,0,0:0:0:0:
256,192,24874,1,12,0:0:0:0:
256,192,25041,1,0,0:0:0:0:
256,192,25124,1,0,0:0:0:0:
256,192,25207,1,0,0:0:0:0:
256,192,25374,1,12,0:0:0:0:
256,192,25707,1,8,0:0:0:0:
256,192,25874,1,8,0:0:0:0:
256,192,25957,1,8,0:0:0:0:
256,192,26041,1,0,0:0:0:0:
256,192,26124,1,0,0:0:0:0:
256,192,26207,1,0,0:0:0:0:
256,192,26541,1,8,0:0:0:0:
256,192,26707,1,8,0:0:0:0:
256,192,26791,1,8,0:0:0:0:
256,192,26874,1,8,0:0:0:0:
256,192,27041,1,0,0:0:0:0:
256,192,27207,1,8,0:0:0:0:
256,192,27374,1,8,0:0:0:0:
256,192,27541,1,0,0:0:0:0:
256,192,27874,1,8,0:0:0:0:
256,192,28207,1,0,0:0:0:0:
256,192,28374,1,0,0:0:0:0:
256,192,28541,1,8,0:0:0:0:
256,192,28707,1,8,0:0:0:0:
256,192,28874,1,0,0:0:0:0:
256,192,29207,1,8,0:0:0:0:
256,192,29374,1,8,0:0:0:0:
256,192,29457,1,8,0:0:0:0:
256,192,29541,1,0,0:0:0:0:
256,192,29707,1,0,0:0:0:0:
256,192,29874,1,8,0:0:0:0:
256,192,30041,1,8,0:0:0:0:
256,192,30207,1,0,0:0:0:0:
256,192,30541,1,8,0:0:0:0:
256,192,30874,1,8,0:0:0:0:
256,192,31041,1,0,0:0:0:0:
256,192,31124,1,0,0:0:0:0:
256,192,31207,1,8,0:0:0:0:
256,192,31374,1,8,0:0:0:0:
256,192,31541,1,0,0:0:0:0:
256,192,31874,1,8,0:0:0:0:
256,192,32041,1,8,0:0:0:0:
256,192,32124,1,8,0:0:0:0:
256,192,32207,1,8,0:0:0:0:
256,192,32374,1,0,0:0:0:0:
256,192,32541,1,8,0:0:0:0:
256,192,32707,1,8,0:0:0:0:
256,192,32874,1,0,0:0:0:0:
256,192,33207,1,8,0:0:0:0:
256,192,33374,1,0,0:0:0:0:
256,192,33541,1,0,0:0:0:0:
256,192,33707,1,0,0:0:0:0:
256,192,33874,1,8,0:0:0:0:
256,192,34041,1,0,0:0:0:0:
256,192,34207,1,8,0:0:0:0:
256,192,34541,1,8,0:0:0:0:
256,192,34707,1,8,0:0:0:0:
256,192,34791,1,8,0:0:0:0:
256,192,34874,1,0,0:0:0:0:
256,192,35041,1,8,0:0:0:0:
256,192,35207,1,0,0:0:0:0:
256,192,35374,1,0,0:0:0:0:
256,192,35541,1,8,0:0:0:0:
256,192,35707,1,0,0:0:0:0:
256,192,35791,1,0,0:0:0:0:
256,192,35874,1,8,0:0:0:0:
256,192,36041,1,8,0:0:0:0:
256,192,36207,1,0,0:0:0:0:
256,192,36374,1,0,0:0:0:0:
256,192,36541,1,8,0:0:0:0:
256,192,36874,1,4,0:0:0:0:
256,192,37041,1,0,0:0:0:0:
256,192,37374,1,4,0:0:0:0:
256,192,37707,1,0,0:0:0:0:
256,192,37874,1,12,0:0:0:0:
256,192,38374,1,8,0:0:0:0:
256,192,38457,1,8,0:0:0:0:
256,192,38541,1,0,0:0:0:0:
256,192,38707,1,0,0:0:0:0:
256,192,38791,1,0,0:0:0:0:
256,192,38874,1,8,0:0:0:0:
256,192,39041,1,0,0:0:0:0:
256,192,39207,1,8,0:0:0:0:
256,192,39374,1,0,0:0:0:0:
256,192,39541,1,12,0:0:0:0:
256,192,39707,1,8,0:0:0:0:
256,192,40041,1,4,0:0:0:0:
256,192,40374,1,0,0:0:0:0:
256,192,40541,1,12,0:0:0:0:
256,192,41041,1,0,0:0:0:0:
256,192,41124,1,0,0:0:0:0:
256,192,41207,1,8,0:0:0:0:
256,192,41374,1,0,0:0:0:0:
256,192,41541,1,8,0:0:0:0:
256,192,41707,1,8,0:0:0:0:
256,192,41874,1,0,0:0:0:0:
256,192,42041,1,0,0:0:0:0:
256,192,42207,1,12,0:0:0:0:
256,192,42374,1,8,0:0:0:0:
256,192,42707,1,4,0:0:0:0:
256,192,43041,1,0,0:0:0:0:
256,192,43207,1,12,0:0:0:0:
256,192,43707,1,8,0:0:0:0:
256,192,43874,1,0,0:0:0:0:
256,192,44041,1,0,0:0:0:0:
256,192,44124,1,0,0:0:0:0:
256,192,44207,1,8,0:0:0:0:
256,192,44374,1,0,0:0:0:0:
256,192,44541,1,8,0:0:0:0:
256,192,44624,1,0,0:0:0:0:
256,192,44707,1,0,0:0:0:0:
256,192,44874,1,12,0:0:0:0:
256,192,45207,1,0,0:0:0:0:
256,192,45374,1,8,0:0:0:0:
256,192,45541,1,0,0:0:0:0:
256,192,45707,1,0,0:0:0:0:
256,192,45874,1,8,0:0:0:0:
256,192,46041,1,8,0:0:0:0:
256,192,46207,1,8,0:0:0:0:
256,192,46291,1,0,0:0:0:0:
256,192,46374,1,0,0:0:0:0:
256,192,46457,1,0,0:0:0:0:
256,192,46541,1,8,0:0:0:0:
256,192,46624,1,0,0:0:0:0:
256,192,46707,1,0,0:0:0:0:
256,192,46791,1,0,0:0:0:0:
256,192,46874,1,8,0:0:0:0:
256,192,46957,1,8,0:0:0:0:
256,192,47041,1,8,0:0:0:0:
256,192,47124,1,8,0:0:0:0:
256,192,47207,1,0,0:0:0:0:
256,192,47541,1,4,0:0:0:0:
256,192,47707,1,0,0:0:0:0:
256,192,47791,1,0,0:0:0:0:
256,192,47874,1,8,0:0:0:0:
256,192,48041,1,0,0:0:0:0:
256,192,48207,1,8,0:0:0:0:
256,192,48291,1,8,0:0:0:0:
256,192,48374,1,0,0:0:0:0:
256,192,48541,1,8,0:0:0:0:
256,192,48707,1,8,0:0:0:0:
256,192,48791,1,0,0:0:0:0:
256,192,48874,1,0,0:0:0:0:
256,192,48957,1,0,0:0:0:0:
256,192,49041,1,8,0:0:0:0:
256,192,49207,1,0,0:0:0:0:
256,192,49291,1,0,0:0:0:0:
256,192,49374,1,8,0:0:0:0:
256,192,49541,1,8,0:0:0:0:
256,192,49707,1,0,0:0:0:0:
256,192,49791,1,0,0:0:0:0:
256,192,49874,1,8,0:0:0:0:
256,192,50041,1,0,0:0:0:0:
256,192,50207,1,8,0:0:0:0:
256,192,50291,1,8,0:0:0:0:
256,192,50374,1,0,0:0:0:0:
256,192,50541,1,8,0:0:0:0:
256,192,50707,1,0,0:0:0:0:
256,192,50791,1,0,0:0:0:0:
256,192,50874,1,8,0:0:0:0:
256,192,50957,1,8,0:0:0:0:
256,192,51041,1,0,0:0:0:0:
256,192,51207,1,0,0:0:0:0:
256,192,51374,1,8,0:0:0:0:
256,192,51707,1,0,0:0:0:0:
256,192,51874,1,8,0:0:0:0:
256,192,52041,1,0,0:0:0:0:
256,192,52124,1,0,0:0:0:0:
256,192,52207,1,0,0:0:0:0:
256,192,52374,1,0,0:0:0:0:
256,192,52541,1,8,0:0:0:0:
256,192,52874,1,8,0:0:0:0:
256,192,53041,1,0,0:0:0:0:
256,192,53124,1,0,0:0:0:0:
256,192,53207,1,8,0:0:0:0:
256,192,53374,1,0,0:0:0:0:
256,192,53541,1,8,0:0:0:0:
256,192,53624,1,0,0:0:0:0:
256,192,53707,1,0,0:0:0:0:
256,192,53791,1,0,0:0:0:0:
256,192,53874,1,8,0:0:0:0:
256,192,54041,1,8,0:0:0:0:
256,192,54124,1,0,0:0:0:0:
256,192,54207,1,0,0:0:0:0:
256,192,54374,1,8,0:0:0:0:
256,192,54541,1,0,0:0:0:0:
256,192,54707,1,8,0:0:0:0:
256,192,54874,1,8,0:0:0:0:
256,192,55041,1,0,0:0:0:0:
256,192,55124,1,0,0:0:0:0:
256,192,55207,1,8,0:0:0:0:
256,192,55374,1,8,0:0:0:0:
256,192,55541,1,8,0:0:0:0:
256,192,55624,1,8,0:0:0:0:
256,192,55707,1,0,0:0:0:0:
256,192,55791,1,0,0:0:0:0:
256,192,55874,1,8,0:0:0:0:
256,192,56041,1,0,0:0:0:0:
256,192,56207,1,8,0:0:0:0:
256,192,56374,1,0,0:0:0:0:
256,192,56457,1,0,0:0:0:0:
256,192,56541,1,0,0:0:0:0:
256,192,56707,1,8,0:0:0:0:
256,192,57041,1,0,0:0:0:0:
256,192,57207,1,8,0:0:0:0:
256,192,57374,1,8,0:0:0:0:
256,192,57541,1,0,0:0:0:0:
256,192,57624,1,0,0:0:0:0:
256,192,57707,1,8,0:0:0:0:
256,192,57791,1,8,0:0:0:0:
256,192,57874,1,0,0:0:0:0:
256,192,57957,1,0,0:0:0:0:
256,192,58041,1,8,0:0:0:0:
288,288,58207,1,4,0:0:0:0:
256,192,58374,1,0,0:0:0:0:
256,192,58541,1,8,0:0:0:0:
256,192,58707,1,0,0:0:0:0:
256,192,58791,1,0,0:0:0:0:
256,192,58874,1,8,0:0:0:0:
256,192,58957,1,8,0:0:0:0:
256,192,59041,1,0,0:0:0:0:
256,192,59207,1,8,0:0:0:0:
256,192,59374,1,8,0:0:0:0:
352,384,59707,1,0,0:0:0:0:
256,192,59874,1,8,0:0:0:0:
256,192,60041,1,0,0:0:0:0:
256,192,60124,1,0,0:0:0:0:
256,192,60207,1,8,0:0:0:0:
256,192,60374,1,0,0:0:0:0:
256,192,60541,1,8,0:0:0:0:
256,192,60707,1,0,0:0:0:0:
256,192,60874,1,8,0:0:0:0:
256,192,61041,1,0,0:0:0:0:
256,192,61124,1,0,0:0:0:0:
256,192,61207,1,0,0:0:0:0:
256,192,61374,1,0,0:0:0:0:
256,192,61541,1,8,0:0:0:0:
256,192,61624,1,0,0:0:0:0:
256,192,61707,1,0,0:0:0:0:
256,192,61874,1,0,0:0:0:0:
256,192,62041,1,0,0:0:0:0:
256,192,62207,1,12,0:0:0:0:
256,192,62541,1,0,0:0:0:0:
256,192,62707,1,12,0:0:0:0:
256,192,63041,1,0,0:0:0:0:
256,192,63124,1,0,0:0:0:0:
256,192,63207,1,8,0:0:0:0:
256,192,63374,1,0,0:0:0:0:
256,192,63541,1,12,0:0:0:0:
256,192,63707,1,0,0:0:0:0:
256,192,63791,1,0,0:0:0:0:
256,192,63874,1,0,0:0:0:0:
256,192,64041,1,12,0:0:0:0:
256,192,64207,1,0,0:0:0:0:
256,192,64291,1,0,0:0:0:0:
256,192,64374,1,0,0:0:0:0:
256,192,64541,1,12,0:0:0:0:
256,192,64874,1,12,0:0:0:0:
256,192,65041,1,0,0:0:0:0:
256,192,65124,1,8,0:0:0:0:
256,192,65207,1,0,0:0:0:0:
256,192,65374,1,12,0:0:0:0:
256,192,65541,1,0,0:0:0:0:
256,192,65624,1,8,0:0:0:0:
256,192,65707,1,0,0:0:0:0:
256,192,65874,1,12,0:0:0:0:
256,192,66207,1,8,0:0:0:0:
256,192,66291,1,0,0:0:0:0:
256,192,66374,1,0,0:0:0:0:
256,192,66457,1,0,0:0:0:0:
256,192,66541,1,0,0:0:0:0:
256,192,66707,1,8,0:0:0:0:
256,192,66791,1,0,0:0:0:0:
256,192,66874,1,0,0:0:0:0:
256,192,66957,1,0,0:0:0:0:
256,192,67041,1,8,0:0:0:0:
256,192,67124,1,0,0:0:0:0:
256,192,67207,1,8,0:0:0:0:
256,192,67374,1,0,0:0:0:0:
256,192,67541,1,12,0:0:0:0:
256,192,67707,1,8,0:0:0:0:
256,192,67874,1,12,0:0:0:0:
256,192,68041,1,8,0:0:0:0:
256,192,68207,1,8,0:0:0:0:
256,192,68291,1,0,0:0:0:0:
256,192,68374,1,8,0:0:0:0:
256,192,68457,1,0,0:0:0:0:
256,192,68541,1,8,0:0:0:0:
256,192,68707,1,8,0:0:0:0:
256,192,68874,1,0,0:0:0:0:
256,192,69207,1,8,0:0:0:0:
256,192,69541,1,0,0:0:0:0:
256,192,69707,1,0,0:0:0:0:
256,192,69874,1,8,0:0:0:0:
256,192,70041,1,8,0:0:0:0:
256,192,70207,1,0,0:0:0:0:
256,192,70541,1,8,0:0:0:0:
256,192,70874,1,0,0:0:0:0:
256,192,71041,1,0,0:0:0:0:
256,192,71207,1,8,0:0:0:0:
256,192,71374,1,8,0:0:0:0:
256,192,71541,1,0,0:0:0:0:
256,192,71874,1,8,0:0:0:0:
256,192,72207,1,0,0:0:0:0:
256,192,72374,1,0,0:0:0:0:
256,192,72541,1,8,0:0:0:0:
256,192,72707,1,0,0:0:0:0:
256,192,73041,1,0,0:0:0:0:
256,192,73207,1,8,0:0:0:0:
256,192,73374,1,0,0:0:0:0:
256,192,73707,1,0,0:0:0:0:
256,192,73874,1,0,0:0:0:0:
256,192,74041,1,8,0:0:0:0:
256,192,74207,1,8,0:0:0:0:
256,192,74291,1,0,0:0:0:0:
256,192,74374,1,0,0:0:0:0:
256,192,74541,1,12,0:0:0:0:
256,192,74874,1,12,0:0:0:0:
256,192,75041,1,8,0:0:0:0:
256,192,75207,1,8,0:0:0:0:
256,192,75374,1,4,0:0:0:0:
256,192,75707,1,0,0:0:0:0:
256,192,75874,1,8,0:0:0:0:
256,192,76041,1,0,0:0:0:0:
256,192,76207,1,8,0:0:0:0:
256,192,76374,1,0,0:0:0:0:
256,192,76457,1,0,0:0:0:0:
256,192,76541,1,8,0:0:0:0:
256,192,76707,1,0,0:0:0:0:
256,192,76874,1,8,0:0:0:0:
256,192,77207,1,0,0:0:0:0:
256,192,77374,1,8,0:0:0:0:
256,192,77541,1,8,0:0:0:0:
256,192,77707,1,0,0:0:0:0:
256,192,77874,1,0,0:0:0:0:
256,192,78041,1,8,0:0:0:0:
256,192,78207,1,8,0:0:0:0:
256,192,78374,1,0,0:0:0:0:
256,192,78541,1,0,0:0:0:0:
256,192,78707,1,8,0:0:0:0:
256,192,78791,1,8,0:0:0:0:
256,192,78874,1,8,0:0:0:0:
256,192,78957,1,8,0:0:0:0:
256,192,79041,1,0,0:0:0:0:
256,192,79124,1,0,0:0:0:0:
256,192,79207,1,8,0:0:0:0:
256,192,79291,1,8,0:0:0:0:
256,192,79374,1,0,0:0:0:0:
256,192,79457,1,8,0:0:0:0:
256,192,79874,12,8,84874,0:0:0:0:
