osu file format v9

[General]
AudioFilename: abyss.mp3
AudioLeadIn: 2000
PreviewTime: 53560
Countdown: 0
SampleSet: Soft
StackLeniency: 0.3
Mode: 0
LetterboxInBreaks: 0

[Editor]
DistanceSpacing: 0.8
BeatDivisor: 4
GridSize: 4

[Metadata]
Title:Abyss
Artist:Emii
Creator:Snowy Dream
Version:Light
Source:Touhou
Tags:Komeiji Satori LiLA'c Records wmfchris 556mm passion dancing battle girls hakurei rave 03

[Difficulty]
HPDrainRate:1
CircleSize:3
OverallDifficulty:1
ApproachRate:3
SliderMultiplier:1.2
SliderTickRate:2

[Events]
//Background and Video events
0,0,"satori.jpg"
//Break Periods
2,82758,90718
2,159558,167518
//Storyboard Layer 0 (Background)
//Storyboard Layer 1 (Fail)
//Storyboard Layer 2 (Pass)
//Storyboard Layer 3 (Foreground)
Sprite,Foreground,Centre,"Lyric\satoriSB.png",320,240 M,0,953,,320,240 F,0,953,1753,1,0 S,0,953,1753,0.8,0.87712
Sprite,Foreground,Centre,"Lyric\1-1.png",320,240 F,0,757,957,0,1 F,0,957,6557,1 M,0,957,6757,187,114 F,0,6557,6757,1,0
Sprite,Foreground,Centre,"Lyric\1-2.png",320,240 F,0,6957,7157,0,1 F,0,7157,14357,1 M,0,7157,14557,200,140 F,0,14357,14557,1,0
Sprite,Foreground,Centre,"Lyric\satoriSB.png",320,240 F,0,15353,16153,1,0 S,0,15353,16153,0.8,0.8771199
Sprite,Foreground,Centre,"Lyric\2-1.png",320,240 F,0,15153,15353,0,1 F,0,15353,17753,1 M,0,15353,17953,200,117 F,0,17753,17953,1,0
Sprite,Foreground,Centre,"Lyric\2-2.png",320,240 F,0,18153,18353,0,1 M,0,18353,21353,194,157 F,0,18353,21353,1 F,0,21353,21553,1,0
Sprite,Foreground,Centre,"Lyric\3-1.png",320,240 F,0,21553,21753,0,1 M,0,21753,24153,178,91,193,101 F,0,21753,24153,1 F,0,24153,24353,1,0
Sprite,Foreground,Centre,"Lyric\3-2.png",320,240 F,0,24553,24753,0,1 M,0,24753,26553,169,166,187,153 F,0,24753,28153,1 M,0,26553,,187,153 F,0,28153,28353,1,0
Sprite,Foreground,Centre,"Lyric\3-3.png",320,240 F,0,26953,27153,0,1 M,0,27153,28153,272,184 F,0,27153,28153,1 F,0,28153,28353,1,0
Sprite,Foreground,Centre,"Lyric\4-1.png",320,240 F,0,28553,28753,0,1 M,0,28753,30553,193,100 F,0,28753,30553,1 F,0,30553,30753,1,0
Sprite,Foreground,Centre,"Lyric\ma.png",320,240 F,0,31053,31153,0,1 S,0,31153,31353,1.39936,1.13312 F,0,31153,34153,1 M,0,31153,34353,101,158 F,0,34153,34353,1,0
Sprite,Foreground,Centre,"Lyric\4-2.png",320,240 F,0,31153,31353,0,1 M,0,31353,32953,194,164 F,0,31353,34153,1 F,0,34153,34353,1,0
Sprite,Foreground,Centre,"Lyric\4-3.png",320,240 F,0,33253,33553,0,1 F,0,33553,34153,1 M,0,33558,34158,315,163,302,164 F,0,34153,34353,1,0
Sprite,Foreground,Centre,"Lyric\5-1.png",320,240 F,0,34353,34553,0,1 M,0,34553,36953,222,89,195,102 F,0,34553,36953,1 F,0,36953,37153,1,0
Sprite,Foreground,Centre,"Lyric\5-2.png",320,240 F,0,37353,37553,0,1 M,0,37553,39353,165,167,180,152 F,0,37553,40953,1 F,0,40953,41153,1,0
Sprite,Foreground,Centre,"Lyric\5-3.png",320,240 F,0,39653,39953,0,1 M,0,39953,40953,291,190,283,182 F,0,39953,40953,1 F,0,40953,41153,1,0
Sprite,Foreground,Centre,"Lyric\6-1.png",320,240 F,0,40953,41153,0,1 M,0,41153,42153,119,103,131,103 F,0,41153,43953,1 F,0,43953,44153,1,0
Sprite,Foreground,Centre,"Lyric\6-2.png",320,240 F,0,42153,42353,0,1 M,0,42353,43953,222,147,198,147 F,0,42353,43953,1 F,0,43953,44153,1,0
Sprite,Foreground,Centre,"Lyric\7-1.png",320,240 F,0,43953,44153,0,1 M,0,44153,47153,236,78,213,99 F,0,44153,47153,1 F,0,47153,47353,1,0
Sprite,Foreground,Centre,"Lyric\7-2.png",320,240 F,0,47353,47553,0,1 M,0,47553,48753,199,161,184,150 F,0,47553,50353,1 M,0,48753,,184,150 F,0,50353,50553,1,0
Sprite,Foreground,Centre,"Lyric\7-3.png",320,240 F,0,48853,49153,0,1 M,0,49153,50353,132,91,146,102 F,0,49153,50353,1 F,0,50353,50553,1,0
Sprite,Foreground,Centre,"Lyric\7-4.png",320,240 F,0,50353,50553,0,1 M,0,50553,53553,183,178,183,157 F,0,50553,53553,1 F,0,53553,53753,1,0
Sprite,Foreground,Centre,"Lyric\white.PNG",320,240 S,0,53753,,0.8054399 F,0,53753,53853,0,0.6710202 F,0,53853,55353,0.6710202,0.001283999
Sprite,Foreground,Centre,"Lyric\8-1.png",320,240 F,0,53553,53753,0,1 M,0,53753,53853,98,99 F,0,53753,59353,1 M,0,53853,55353,98,99,110,105 F,0,59353,59553,1,0
Sprite,Foreground,Centre,"Lyric\8-4.png",320,240 F,0,61053,61353,0,1 M,0,61353,62353,163,208,163,193 F,0,61353,65753,1 F,0,65753,66153,1,0
Sprite,Foreground,Centre,"Lyric\8-5.png",320,240 F,0,62653,62953,0,1 M,0,62953,65753,299,161,253,162 F,0,62953,65753,1 F,0,65753,66153,1,0
Sprite,Foreground,Centre,"Lyric\satoriSB.png",320,240 F,0,66553,67353,1,0 S,0,66553,67353,0.8,0.8771199
Sprite,Foreground,Centre,"Lyric\8-6.png",320,240 F,0,66353,66553,0,1 M,0,66553,,127,94 S,0,66553,68153,1.04096,1.306893 F,0,66553,72153,1 F,0,72153,72353,1,0
Sprite,Foreground,Centre,"Lyric\8-7.png",320,240 F,0,69053,69353,0,1 S,0,69353,,1 M,0,69353,72153,211,169,222,138 F,0,69353,72153,1 F,0,72153,72353,1,0
Sprite,Foreground,Centre,"Lyric\8-8.png",320,240 F,0,72553,72753,0,1 M,0,72753,73553,92,97,114,97 F,0,72753,79353,1 F,0,79353,80153,1,0
Sprite,Foreground,Centre,"Lyric\8-9.png",320,240 F,0,73853,74153,0,1 M,0,74153,75153,133,126,161,126 F,0,74153,79353,1,0.9833333 F,0,79353,80153,0.9833333,0
Sprite,Foreground,Centre,"Lyric\8-a.png",320,240 F,0,75453,75753,0,1 M,0,75753,77353,221,178,221,155 F,0,75753,79353,1 F,0,79353,80153,1,0
Sprite,Foreground,Centre,"Lyric\8-b.png",320,240 F,0,77453,77753,0,1 M,0,77753,79353,298,212,284,184 F,0,77753,79353,1 F,0,79353,80153,1,0
Sprite,Foreground,Centre,"Lyric\white.PNG",320,240 S,0,82553,,0.8054399 F,0,82553,84153,0.77984,0
Sprite,Foreground,Centre,"Lyric\9-1.png",320,240 F,0,91953,92153,0,1 F,0,92153,98153,1 M,0,92158,,97,102 F,0,98153,98353,1,0
Sprite,Foreground,Centre,"Lyric\9-2.png",320,240 F,0,92453,92753,0,1 M,0,92753,,216,105 F,0,92753,98153,1,0.99 F,0,98153,98353,0.99,0
Sprite,Foreground,Centre,"Lyric\9-3.png",320,240 F,0,94853,95153,0,1 M,0,95153,,226,144 F,0,95153,98153,1 F,0,98153,98353,1,0
Sprite,Foreground,Centre,"Lyric\9-4.png",320,240 F,0,98353,98553,0,1 M,0,98553,100953,185,78,185,100 F,0,98553,104553,1 F,0,104553,104753,1,0
Sprite,Foreground,Centre,"Lyric\9-5.png",320,240 F,0,101353,101553,0,1 M,0,101553,103353,195,167,195,147 F,0,101553,104553,1 F,0,104553,104753,1,0
Sprite,Foreground,Centre,"Lyric\9-6.png",320,240 F,0,103353,103953,0.16,1 M,0,103953,,279,181 F,0,103953,104553,1,0.99 F,0,104553,104753,0.99,0
Sprite,Foreground,Centre,"Lyric\10-1.png",320,240 F,0,104753,104953,0,1 S,0,104753,105053,1.63488,1.37888 F,0,104953,110953,1 M,0,104958,,93,92 F,0,110953,111153,1,0
Sprite,Foreground,Centre,"Lyric\10-2.png",320,240 F,0,105453,105753,0,1 M,0,105753,,219,103 F,0,105753,110953,1 F,0,110953,111153,1,0
Sprite,Foreground,Centre,"Lyric\10-3.png",320,240 F,0,107753,107953,0,1 M,0,107953,,162,145 F,0,107953,110953,1 F,0,110953,111153,1,0
Sprite,Foreground,Centre,"Lyric\10-4.png",320,240 F,0,111153,111353,0,1 M,0,111353,113753,245,98,195,98 F,0,111353,117553,1 F,0,117553,117753,1,0
Sprite,Foreground,Centre,"Lyric\10-5.png",320,240 F,0,114153,114353,0,1 M,0,114353,116153,208,134,174,134 F,0,114353,117553,1 F,0,117553,117753,1,0
Sprite,Foreground,Centre,"Lyric\10-6.png",320,240 F,0,116353,116753,0,1 M,0,116553,117553,247,165,275,165 F,0,116753,117553,1 F,0,117553,117753,1,0
Sprite,Foreground,Centre,"Lyric\satoriSB.png",320,240 F,0,117753,118553,1,0 S,0,117753,118553,0.8,0.8771201
Sprite,Foreground,Centre,"Lyric\11-1.png",320,240 F,0,117753,117953,0,1 M,0,117953,120753,155,104,186,104 F,0,117953,123953,1 M,0,120753,123553,186,104 M,0,123553,123953,186,104,192,104 F,0,123953,124153,1,0
Sprite,Foreground,Centre,"Lyric\11-2.png",320,240 F,0,120753,120953,0,1 M,0,120953,123953,232,141,186,141 F,0,120953,123953,1 F,0,123953,124153,1,0
Sprite,Foreground,Centre,"Lyric\11-3.png",320,240 F,0,124153,124353,0,1 M,0,124353,,203,99 F,0,124353,130353,1 F,0,130353,130553,1,0
Sprite,Foreground,Centre,"Lyric\11-4.png",320,240 F,0,126753,126953,0,1 M,0,126953,,204,133 F,0,126953,,1,0 F,0,126953,130353,1 F,0,130353,130553,1,0
Sprite,Foreground,Centre,"Lyric\satoriSB.png",320,240 F,0,130553,131353,1,0 S,0,130553,131353,0.8,0.8771199
Sprite,Foreground,Centre,"Lyric\12-1.png",320,240 F,0,130353,130553,0,1 S,0,130353,131353,1,1.13312 M,0,130553,,130,94 F,0,130553,136153,1 F,0,136153,136353,1,0
Sprite,Foreground,Centre,"Lyric\12-2.png",320,240 F,0,133153,133353,0,1 M,0,133353,,219,136 F,0,133353,136153,1,0.965 F,0,136153,136353,0.965,0
Sprite,Foreground,Centre,"Lyric\12-3.png",320,240 F,0,139453,139753,0,1 M,0,139753,142553,212,159,242,159 F,0,139753,142553,1 F,0,142553,143153,1,0
Sprite,Foreground,Centre,"Lyric\8-3.png",320,240 F,0,136553,136753,0,1 M,0,136753,137553,122,97,136,97 F,0,136753,142553,1 F,0,142553,143153,1,0
Sprite,Foreground,Centre,"Lyric\8-4.png",320,240 F,0,137853,138153,0,1 M,0,138153,139153,223,129,197,129 F,0,138153,142553,1 F,0,142553,143153,1,0
Sprite,Foreground,Centre,"Lyric\12-4.png",320,240 F,0,143153,143353,0,1 M,0,143353,,161,98 S,0,143353,144953,1,1.27648 F,0,143353,148953,1 F,0,148953,149353,1,0.3333333
Sprite,Foreground,Centre,"Lyric\12-5.png",320,240 F,0,145953,146153,0,1 M,0,146153,148953,213,138,237,138 F,0,146153,148953,1 F,0,148953,149353,1,0
Sprite,Foreground,Centre,"Lyric\12-6.png",320,240 S,0,149353,,1.24576 F,0,149353,149553,0,1 M,0,149553,150353,137,80,137,98 F,0,149553,156153,1 F,0,156153,156953,1,0
Sprite,Foreground,Centre,"Lyric\12-7.png",320,240 F,0,150753,150953,0,1 M,0,150953,151953,141,134,175,135 F,0,150953,156153,1 F,0,156153,156953,1,0
Sprite,Foreground,Centre,"Lyric\12-8.png",320,240 F,0,152353,152553,0,1 M,0,152553,154353,266,168,222,168 F,0,152553,156153,1 F,0,156153,156953,1,0
Sprite,Foreground,Centre,"Lyric\12-9.png",320,240 F,0,154353,154553,0,1 M,0,154553,156153,263,225,263,205 F,0,154553,156153,1 F,0,156153,156953,1,0
Sprite,Foreground,Centre,"Lyric\black.PNG",320,240 M,0,154553,,320,240 S,0,154553,,0.8054401 F,0,154553,157753,0,0.91808 F,0,157753,162553,0.91808,1 F,0,162553,168953,1,0
Sprite,Foreground,Centre,"Lyric\13-1.png",320,240 F,0,156153,156553,0,1 M,0,156553,162553,244,124,323,204 F,0,156553,168553,1 F,0,168553,168953,1,0
Sprite,Foreground,Centre,"Lyric\13-2.png",320,240 F,0,162553,162953,0,1 M,0,162953,168553,447,369,351,287 F,0,162953,168553,1 F,0,168553,168953,1,0
Sprite,Foreground,Centre,"Lyric\white.PNG",320,240 F,0,155953,156153,0,0.6876799 M,0,156153,,320,240 S,0,156153,,0.8054399 F,0,156153,157553,0.6876799,0.3412015 F,0,157553,157753,0.3412015,0.5972015 F,0,157753,159153,0.5972015,0.295739 F,0,159153,159353,0.295739,0.4538159 F,0,159353,160753,0.4538159,0.3098255 F,0,160753,160953,0.3098255,0.4224655 F,0,160953,162353,0.4224655,0.22212 F,0,162353,162553,0.22212,0.40132 F,0,162553,163953,0.40132,0.2579087 F,0,163953,164153,0.2579087,0.3449487 F,0,164153,165553,0.3449487,0.18944 F,0,165553,165753,0.18944,0.384 F,0,165753,167153,0.384,0.08704008 F,0,167153,167353,0.08704008,0.2406401 F,0,167353,168953,0.2406401,0
Sprite,Foreground,Centre,"Lyric\8-1.png",320,240 F,0,168753,168953,0,1 M,0,168953,,148,124 S,0,168953,,1.49152 F,0,168953,174753,1,0.97 F,0,174753,174953,0.97,0
Sprite,Foreground,Centre,"Lyric\8-2.png",320,240 F,0,171553,171753,0,1 S,0,171753,,1.09216 M,0,171753,174753,185,173,215,173 F,0,171753,174753,1 F,0,174753,174953,1,0
Sprite,Foreground,Centre,"Lyric\8-4.png",320,240 F,0,176353,176553,0,1 M,0,176553,177553,240,125,205,168 F,0,176553,180953,1 F,0,180953,181553,1,0
Sprite,Foreground,Centre,"Lyric\8-3.png",320,240 F,0,174953,175153,0,1 F,0,175153,180953,1 M,0,175158,175958,110,161,136,135 F,0,180953,181553,1,0
Sprite,Foreground,Centre,"Lyric\8-5.png",320,240 F,0,177953,178153,0,1 M,0,178153,180953,274,255,275,200 F,0,178153,180953,1 F,0,180953,181553,1,0
Sprite,Foreground,Centre,"Lyric\satoriSB.png",320,240 F,0,181753,182553,1,0 S,0,181753,182553,0.8,0.8771199
Sprite,Foreground,Centre,"Lyric\12-1.png",320,240 F,0,181553,181753,0,1 M,0,181753,,197,97 S,0,181753,,1.37888 F,0,181753,187353,1,0.99 F,0,187353,187553,0.99,0
Sprite,Foreground,Centre,"Lyric\12-2.png",320,240 F,0,184353,184553,0,1 M,0,184553,187353,200,179,200,149 F,0,184553,187353,1 F,0,187353,187553,1,0
Sprite,Foreground,Centre,"Lyric\8-3.png",320,240 F,0,187753,187953,0,1 M,0,187953,188753,271,121,242,121 F,0,187953,193753,1 F,0,193753,194353,1,0
Sprite,Foreground,Centre,"Lyric\8-4.png",320,240 F,0,189153,189353,0,1 M,0,189353,190353,99,155,141,155 F,0,189353,193753,1 F,0,193753,194353,1,0
Sprite,Foreground,Centre,"Lyric\14-1.png",320,240 F,0,190753,190953,0,1 M,0,190953,193753,216,225,215,190 F,0,190953,193753,1 F,0,193753,194353,1,0
Sprite,Foreground,Centre,"Lyric\satoriSB.png",320,240 F,0,194553,195353,1,0 S,1,194553,195353,0.8,0.8771202
Sprite,Foreground,Centre,"Lyric\15-1.png",320,240 F,0,194353,194553,0,1 S,0,194553,,1.3584 R,0,194553,,0 M,0,194553,196153,194,82,194,106 F,0,194553,200153,1 F,0,200153,200353,1,0
Sprite,Foreground,Centre,"Lyric\15-1.png",320,240 M,0,194553,195353,193,82,194,92 F,0,194553,195353,1,0 S,0,194553,195353,1.36864,1.75776
Sprite,Foreground,Centre,"Lyric\15-2.png",320,240 F,0,197153,197353,0,1 M,0,197353,200153,195,182,195,152 F,0,197353,200153,1 F,0,200153,200353,1,0
Sprite,Foreground,Centre,"Lyric\15-3.png",320,240 F,0,200553,200753,0,1 S,0,200753,,1.1024 M,0,200753,202153,150,117,189,117 F,0,200753,207353,1 F,0,207353,208953,1,0
Sprite,Foreground,Centre,"Lyric\15-4.png",320,240 F,0,202353,202553,0,1 S,0,202553,,1.08192 M,0,202553,203753,97,163,147,163 F,0,202553,207353,1 F,0,207353,208953,1,0
Sprite,Foreground,Centre,"Lyric\15-5.png",320,240 F,0,203953,204153,0,1 S,0,204153,205353,1.4608,1.27648 M,0,204153,205753,265,199,236,199 F,0,204153,207353,1 F,0,207353,208953,1,0
Sprite,Foreground,Centre,"Lyric\satoriSB.png",320,240 M,0,210553,,320,240 F,0,210553,212153,1,0 S,0,210553,212153,0.8,0.8771199
Sprite,Foreground,Centre,"Lyric\15-6.png",320,240 M,0,205753,205758,280,200,289,200 F,0,205753,206953,0,1 S,0,205753,206953,1.28672,1.64512 S,0,206953,206957,1.64512 F,0,206953,207353,1,0.9966667 F,0,207353,208953,0.9966667,0.004983329
Sprite,Foreground,Centre,"Lyric\8-2.png",320,240 F,0,56253,56553,0,1 M,0,56553,59353,266,125,242,125 F,0,56553,59353,1 F,0,59353,59553,1,0
Sprite,Foreground,Centre,"Lyric\8-3.png",320,240 F,0,59753,59953,0,1 M,0,59953,60753,110,156,123,161 F,0,59953,65753,1 F,0,65753,66153,1,0
Sprite,Foreground,Centre,"Lyric\8-1.png",320,240 M,0,53753,54153,97,99,98,98 F,0,53753,54153,1,0 S,0,53753,54153,1,1.16384
Sprite,Foreground,Centre,"Lyric\12-1.png",320,240 M,0,130553,,129,93 F,0,130553,130953,1,0 S,0,130553,130953,1,1.34816
Sprite,Foreground,Centre,"Lyric\12-1.png",320,240 M,0,181753,,196,97 F,0,181753,182553,1,0 S,0,181753,182553,1.36864,1.80896
//Storyboard Sound Samples
//Background Colour Transformations
3,100,163,162,255

[TimingPoints]
-642,400,4,2,1,70,1,0
953,-100,4,2,1,50,0,0
14657,-100,4,2,1,60,0,0
15257,-100,4,2,1,70,0,0
53758,-100,4,2,1,70,0,1
66558,-100,4,2,1,70,0,0
130558,-100,4,2,1,70,0,1
143358,-100,4,2,1,70,0,0
181758,-100,4,2,1,70,0,1
194458,-100,4,2,1,70,0,0
194558,-100,4,2,1,70,0,1
207358,-100,4,2,1,70,0,0

[Colours]
Combo1 : 20,235,159
Combo2 : 245,10,204
Combo3 : 47,150,225
Combo4 : 242,79,83

[HitObjects]
140,88,958,1,4
80,164,1358,2,0,B|68:224|104:288,2,120,0|2|0
172,184,2558,2,0,B|224:224|288:204,2,120,2|0|2
244,120,3758,1,0
244,120,4158,5,2
424,180,4958,1,2
244,244,5758,1,2
244,244,6158,1,0
244,244,6558,1,2
88,356,7358,6,0,B|140:320|132:248,2,120,2|0|2
44,272,8558,1,0
52,176,8958,2,0,B|132:116|212:184|284:136,1,240,2|2
380,140,10158,1,0
380,140,10558,5,2
380,332,11358,1,2
256,192,12158,12,4,15358
256,192,16158,5,2
172,144,16558,1,8
84,180,16958,2,0,B|84:300,2,120,2|10|2
252,72,18558,5,2
340,36,18958,1,8
424,80,19358,2,0,B|436:144|484:188,2,120,2|8|2
340,196,20758,5,0
340,196,20958,1,2
264,256,21358,2,0,B|212:292|144:304,1,120,8|2
88,236,22158,6,0,B|56:240|24:256,2,60,8|0|2
124,144,22958,1,8
204,92,23358,2,0,B|256:128|320:128,2,120,2|8|2
192,236,24758,5,0
192,236,24958,1,2
280,200,25358,2,0,B|280:324,1,120,8|2
360,264,26158,2,0,B|447:351,1,120,8|2
440,204,27158,6,0,B|460:176|452:144,2,60,0|2|0
368,140,27958,2,0,B|344:120|308:116,1,60,0|4
128,64,28958,6,0,B|64:52|12:80,2,120,2|8|2
216,100,30158,1,8
140,156,30558,1,2
140,156,30758,1,0
140,156,30958,1,8
60,208,31358,6,0,B|60:220|60:220|72:240|72:240|60:264|60:264|80:296|80:296|68:316,1,120,0|8
164,312,32158,2,0,B|204:344|256:348,2,90,2|0|0
148,268,32958,2,0,B|164:216|208:232|232:188,2,120,2|8|2
244,284,34158,1,8
244,284,34558,1,6
436,268,35358,6,0,B|444:320|484:352,2,90,2|0|0
432,220,36158,2,0,B|428:184|408:160,2,60,2|0|8
392,244,36758,1,0
392,244,36958,2,0,B|336:272|276:260,1,120,2|8
188,216,37758,5,2
92,216,38158,1,8
188,216,38558,1,2
188,120,38958,1,8
264,64,39358,2,0,B|316:32|316:32|368:64,1,120,2|8
420,140,40158,1,2
420,140,40558,1,8
364,220,40958,6,0,B|332:272|332:272|272:272,1,120,4|8
180,240,41758,2,0,B|212:188|212:188|272:188,1,120,2|8
276,92,42558,2,0,B|236:40|168:36,1,120,2|8
104,100,43358,2,0,B|84:164|24:200,2,120,2|8|2
176,164,44558,1,8
176,164,44958,1,2
104,340,45758,5,2
296,340,46558,1,2
296,244,46958,1,8
392,244,47358,1,4
444,64,48158,6,0,B|472:120|472:120|444:176,2,120,2|8|2
252,72,49758,2,0,B|228:88|216:124,2,60,2|0|8
304,152,50558,1,2
168,200,51158,1,2
124,64,51758,1,2
256,192,52158,12,4,53758
164,236,54558,6,0,B|116:276|48:280,2,120,2|8|2
192,144,55758,2,0,B|200:112|228:92,2,60,8|0|2
268,204,56558,6,0,B|320:236|380:244,2,120,8|2|8
344,144,57758,1,2
344,144,58158,1,8
436,112,58558,2,0,B|484:88|496:48,2,90,2|0|0
400,80,59358,2,0,B|344:44|284:80,1,120,2|8
196,108,60158,5,6
196,108,60558,1,8
196,108,60958,1,2
72,252,61758,1,2
136,180,62158,1,8
200,252,62558,1,2
392,252,63358,6,0,B|352:300|288:320,2,120,2|8|2
344,168,64558,1,8
344,168,64758,1,0
344,168,64958,2,0,B|394:135|394:135|444:168,1,120,2|8
480,80,65758,1,2
392,40,66158,1,8
304,80,66558,5,4
420,224,67358,2,0,B|299:274|187:222,1,240,2|2
108,168,68558,2,0,B|100:200|76:228,2,60,8|0|2
184,112,69358,1,8
276,88,69758,1,2
460,144,70558,1,2
324,280,71358,2,0,B|265:304|204:280,3,120,2|8|2|8
124,232,72958,6,0,B|80:288|124:344,2,120,2|8|2
304,160,74558,2,0,B|348:104|304:48,2,120,2|8|2
424,312,76158,1,2
424,120,76958,1,2
232,120,77758,1,2
136,120,78158,1,8
136,216,78558,1,2
232,216,78958,1,8
256,192,79358,12,4,82558
160,112,92158,6,0,B|160:236,2,120,4|8|2
332,200,93758,2,0,B|332:324,2,120,2|8|2
456,52,95358,2,0,B|216:52,1,240,2|2
120,52,96558,1,8
120,52,96958,1,2
200,172,97558,2,0,B|200:232,2,60,0|2|0
160,148,98158,6,0,B|36:148,2,120,8|2|8
240,96,99358,2,0,B|304:100|348:140,2,120,2|8|2
276,184,100558,1,8
276,280,100958,1,2
404,136,101758,6,0,B|436:112|448:88,2,60,2|0|8
336,68,102558,2,0,B|304:92|292:116,2,60,2|0|8
248,28,103358,2,0,B|188:16|132:44,1,120,2|8
80,124,104158,2,0,B|140:136|196:108,2,120,2|8|4
92,268,105558,5,0
92,268,105758,1,2
164,208,106158,1,8
236,272,106558,2,0,B|280:288|288:340|328:356,2,120,2|8|2
364,208,107958,6,0,B|428:200|464:148,2,120
320,228,108958,1,2
232,64,109758,1,2
116,148,110358,1,0
116,148,110558,1,2
136,244,110958,2,0,B|96:292|32:312,2,120,8|4|8
216,308,112158,6,0,B|264:348|332:344,2,120,2|8|2
276,232,113358,1,8
288,136,113758,1,2
104,76,114558,6,0,B|164:48|224:76,2,120,2|8|2
164,152,115758,2,0,B|226:174|248:236,2,120,8|2|8
152,248,116958,2,0,B|180:308|152:368,2,120,2|8|4
76,308,118158,5,8
76,308,118358,1,0
76,308,118558,1,2
76,212,118958,1,8
164,168,119358,1,2
236,232,119758,1,8
304,300,120158,1,2
304,300,120358,1,0
304,300,120558,1,8
380,240,120958,6,0,B|436:264|504:264,2,120,2|8|2
416,152,122158,1,8
416,152,122358,1,0
416,152,122558,1,2
344,88,122958,1,8
272,152,123358,1,2
272,152,123758,1,8
176,152,124158,1,4
132,172,124358,6,0,B|104:164|72:168,2,60,0|8|0
176,196,124958,2,0,B|188:248|168:284,2,90,2|0|0
188,100,125958,1,0
188,100,126158,1,8
100,64,126558,2,0,B|72:48|40:64,2,60,2|0|8
72,156,127358,1,2
84,300,127958,6,0,B|112:248|112:248|172:248,1,120
220,248,128558,1,8
268,248,128758,1,0
316,248,128958,1,2
380,124,129558,6,0,B|432:152|432:152|432:212,1,120
432,260,130158,1,8
356,320,130558,5,4
268,356,130958,1,8
180,320,131358,1,2
268,356,131758,1,8
268,260,132158,2,0,B|248:200|196:164,2,120,2|8|2
172,252,133358,6,0,B|144:240|108:252,2,60,8|0|2
124,336,134158,1,8
124,336,134358,1,0
124,336,134558,1,2
36,292,134958,1,8
68,200,135358,2,0,B|56:152|20:120,2,90,2|0|0
116,196,136158,2,0,B|176:184|220:136,1,120,2|8
308,100,136958,5,2
308,196,137358,1,8
404,196,137758,1,2
404,196,137958,1,0
404,196,138158,1,8
364,284,138558,6,0,B|312:312|312:312|256:284,1,120,2|8
168,248,139358,1,2
148,292,139558,1,0
176,332,139758,1,8
80,340,140158,6,0,B|36:288,1,60,2|0
56,248,140558,2,0,B|61:180,1,60,8|0
92,152,140958,2,0,B|144:107,1,60,2|0
184,100,141358,2,0,B|304:120,1,120,8|2
396,96,142158,1,8
444,176,142558,1,2
456,224,142758,1,0
428,264,142958,2,0,B|408:292|380:308,2,60,8|0|4
348,208,143758,6,0,B|288:208,2,60,8|0|2
308,296,144558,2,0,B|265:338,2,60,8|0|2
216,272,145358,2,0,B|156:272,2,60,8|0|2
164,192,146158,5,8
76,156,146558,1,2
76,60,146958,1,8
164,24,147358,1,2
252,60,147758,1,8
252,156,148158,2,0,B|284:192|336:208,2,90,2|0|0
292,128,148958,2,0,B|352:120|412:128,1,120,2|8
460,212,149758,5,2
460,308,150158,1,8
364,336,150558,1,2
364,336,150758,1,0
364,336,150958,1,8
276,296,151358,2,0,B|218:272|160:296,1,120,2|8
64,280,152158,1,2
40,240,152358,1,0
64,200,152558,1,8
112,116,152958,6,0,B|148:108|148:72|196:64,2,90,2|0|0
136,156,153758,2,0,B|192:184|260:180,1,120,2|8
320,112,154558,1,2
416,112,154958,1,8
464,196,155358,1,2
368,196,155758,1,8
256,192,156158,12,4,159358
104,192,168958,6,0,B|80:248|108:308,2,120,4|0|2
168,120,170158,1,0
232,192,170558,2,0,B|356:136|280:40|208:140|332:192,1,240,2|2
396,260,171758,6,0,B|412:288|412:316,2,60,0|0|2
308,300,172558,2,0,B|299:331|279:350,2,60,0|0|2
212,284,173358,1,0
116,300,173758,2,0,B|56:268|44:200,2,120,2|0|2
156,212,174958,1,0
156,212,175358,5,2
236,160,175758,2,0,B|264:140|272:112,2,60,0|0|2
324,196,176558,1,0
416,224,176958,5,2
384,316,177358,2,0,B|400:340|428:356,2,60,0|0|2
292,292,178158,1,0
256,192,178558,12,4,181758
152,188,182558,6,0,B|132:248|80:284,2,120,2|8|2
200,104,183758,1,8
296,120,184158,1,2
352,200,184558,1,8
448,220,184958,6,0,B|456:280|432:344,2,120,2|8|2
448,124,186158,1,8
364,80,186558,2,0,B|296:68|192:136|124:124,1,240,2|2
44,164,187758,1,8
36,212,187958,1,0
68,248,188158,1,2
160,228,188558,5,8
204,248,188758,2,0,B|268:228|320:292|384:276,1,180,0|8
456,332,189758,2,0,B|480:288|476:248|448:212,1,120,2|8
408,204,190358,2,0,B|368:152|436:100|388:32,1,180,0|8
300,72,191358,5,2
284,168,191758,1,8
244,196,191958,2,0,B|220:252|252:316,1,120
292,332,192558,1,8
336,248,192958,5,2
428,272,193358,1,8
453,180,193758,1,2
360,155,194158,1,8
292,88,194558,6,0,B|236:64|168:72|116:108|92:172,1,240,4|2
184,200,195758,1,8
280,184,196158,2,0,B|336:208|404:200|456:164|480:100,1,240,2|2
396,52,197358,5,8
348,44,197558,1,0
300,56,197758,2,0,B|280:115|229:154,1,120,2|8
188,168,198358,1,0
152,200,198558,2,0,B|144:262|174:319,1,120,2|8
268,320,199358,2,0,B|324:292|392:316,3,120,2|8|2|8
440,236,200958,6,0,B|464:176|440:112,1,120,2|8
416,80,201558,1,0
272,68,202158,2,0,B|248:128|272:192,1,120,8|2
316,268,202958,1,8
272,284,203158,2,0,B|216:312|156:292,1,120
116,268,203758,6,0,B|76:316|16:344,2,120,8|2|8
132,220,204758,2,0,B|192:192|256:208,1,120
288,236,205358,1,8
364,176,205758,5,4
364,80,206158,1,8
460,80,206558,1,4
460,176,206958,1,8
256,192,207358,12,4,210558
