osu file format v6

[General]
AudioFilename: 06 - emerald_sun.mp3
AudioLeadIn: 0
PreviewTime: -1
Countdown: 1
SampleSet: None
StackLeniency: 0.7
Mode: 0
LetterboxInBreaks: 1

[Editor]
DistanceSpacing: 0.800000011920929
BeatDivisor: 1
GridSize: 32

[Metadata]
Title:Emerald Sun
Artist:Emerald Sun
Creator:Dariush
Version:Easy
Source:
Tags:

[Difficulty]
HPDrainRate:6
CircleSize:6
OverallDifficulty:6
SliderMultiplier:2
SliderTickRate:1

[Events]
//Background and Video events
0,0,"Безымянный.JPG"
//Break Periods
2,75379,114568
//Storyboard Layer 0 (Background)
//Storyboard Layer 1 (Fail)
//Storyboard Layer 2 (Pass)
//Storyboard Layer 3 (Foreground)
//Storyboard Sound Samples
//Background Colour Transformations
3,100,163,162,255

[TimingPoints]
0,722.880740740741,4,0,0,100,1,0
115000.407997003,618.556701030928,4,0,0,100,1,0
158096.215118141,588.235294117647,4,0,0,100,1,0
200274,618.556701030928,4,0,0,100,1,0

[HitObjects]
96,160,2168,2,0,B|320:160,1,200
352,160,3614,1,0
352,224,5060,5,0
288,224,5783,2,0,B|64:224,1,200
96,224,7228,2,0,B|256:64,1,200
192,160,8674,5,0
320,256,9397,1,0
192,256,10120,1,0
320,160,10843,1,0
128,96,11566,2,0,B|448:352|448:352|448:96,1,600
384,160,14457,5,0
320,160,15180,2,0,B|96:160,1,200
96,224,16626,1,0
160,224,17349,2,0,B|384:224,1,200
256,192,18794,12,0,20240
256,192,20963,5,0
256,128,21686,6,0,B|96:288,1,200
160,320,23132,5,0
224,256,23855,2,0,B|384:96,1,200
384,96,25300,1,0
384,96,26023,2,0,B|224:256,3,200
160,256,28915,5,0
256,128,29638,1,0
352,256,30360,1,0
256,224,31083,1,0
256,192,31806,5,0
256,192,32529,1,0
256,192,33252,1,0
224,160,33975,5,0
288,160,34698,1,0
288,224,35421,1,0
224,224,36144,1,0
256,192,36866,12,0,38312
160,192,39035,6,0,B|384:192,4,200
96,96,42649,6,0,B|448:320|448:320|448:128|448:128|448:64|448:64|96:320|96:320|96:0,1,1400
96,64,48433,1,0
96,64,49155,2,0,B|448:320,1,400,0|0
416,64,51324,2,0,B|64:320,1,400
416,64,53493,1,0
352,128,54216,2,0,B|192:256,1,200
256,192,55661,12,0,57107
160,96,57830,6,0,B|352:160|288:288|96:192,1,200
352,96,59276,6,0,B|160:160|288:256|480:192,1,200
256,64,60721,6,0,B|256:288,1,200
64,224,62167,2,0,B|480:224,1,400
256,192,64336,12,0,65782
96,160,66505,5,0
320,64,67227,1,0
352,288,67950,1,0
160,160,68673,1,0
160,160,69396,2,0,B|256:96|320:192|192:256|64:64,2,200
256,192,71565,12,0,75179
160,192,115618,5,0
256,96,116237,1,0
352,192,116856,1,0
256,288,117474,1,0
256,96,120567,6,0,B|256:384,3,200
256,288,125515,6,0,B|256:0,3,200
256,96,130464,6,0,B|256:384,3,200
160,192,135412,6,0,B|448:192,3,200
352,192,140361,6,0,B|64:192,3,200
160,192,145309,6,0,B|448:192,1,200
256,96,146546,2,0,B|256:384,1,200
352,192,150258,6,0,B|64:192,1,200
256,288,151495,2,0,B|256:0,1,200
128,192,155206,5,0
160,192,155825,1,0
192,192,156443,1,0
224,192,157062,1,0
384,192,158096,5,0
352,192,158714,1,0
320,192,159333,1,0
288,192,159952,1,0
192,128,160449,6,0,B|416:128,3,200
320,224,162802,6,0,B|96:224,3,200
160,96,165155,6,0,B|352:192,3,200
224,256,167507,6,0,B|320:32,3,200
160,192,169860,5,0
224,128,170449,2,0,B|384:256,1,200
384,192,171625,1,0
384,96,172213,5,0
320,96,172802,2,0,B|128:224,1,200
192,256,173978,1,0
288,224,174566,6,0,B|96:96,3,200
224,288,176919,6,0,B|256:64,3,200
160,288,179272,5,0
160,96,179860,1,0
352,96,180449,1,0
352,288,181037,1,0
256,288,181625,2,0,B|224:64,1,200
128,256,182802,2,0,B|288:128,1,200
352,224,183978,6,0,B|128:128,1,200
192,320,185155,2,0,B|160:96,1,200
352,96,186331,6,0,B|128:96,1,200
128,192,187507,2,0,B|320:256,1,200
