osu file format v14

[General]
AudioFilename: Emeli Sand - Next To Me.mp3
AudioLeadIn: 0
PreviewTime: 50581
Countdown: 0
SampleSet: Normal
StackLeniency: 0.7
Mode: 0
LetterboxInBreaks: 0
WidescreenStoryboard: 0

[Editor]
Bookmarks: 9845,30371,50581,70476,80581,90687,112160,121003,131108,151318,171529,181950
DistanceSpacing: 0.6
BeatDivisor: 4
GridSize: 4
TimelineZoom: 2

[Metadata]
Title:Next To Me
TitleUnicode:Next To Me
Artist:Emeli Sande
ArtistUnicode:Emeli Sandé
Creator:Loony
Version:Normal
Source:
Tags:
BeatmapID:703100
BeatmapSetID:315324

[Difficulty]
HPDrainRate:4
CircleSize:3.5
OverallDifficulty:5
ApproachRate:5
SliderMultiplier:1
SliderTickRate:1

[Events]
//Background and Video events
0,0,"maxresdefault.jpg",0,0
//Break Periods
2,112160,119803
//Storyboard Layer 0 (Background)
//Storyboard Layer 1 (Fail)
//Storyboard Layer 2 (Pass)
//Storyboard Layer 3 (Foreground)
//Storyboard Sound Samples

[TimingPoints]
1003,315.789473684211,4,1,0,20,1,0
9845,-100,4,1,0,25,0,0
30371,-100,4,1,0,35,0,0
50581,-100,4,1,0,50,0,1
70476,-100,4,1,0,25,0,0
80581,-100,4,1,0,35,0,0
121003,-100,4,1,0,50,0,1
131108,-100,4,1,0,30,0,0
151318,-100,4,1,0,50,0,1
181950,-100,4,1,0,50,0,0
192687,-100,4,1,0,20,0,0

[HitObjects]
96,320,1003,6,0,P|176:328|280:248,1,200,0|0,0:0|0:0,0:0:0:0:
208,192,1950,2,0,P|264:136|384:128,1,200,0|0,0:0|0:0,0:0:0:0:
448,200,2897,1,8,0:0:0:0:
424,296,3213,1,0,0:0:0:0:
312,328,3529,6,0,B|264:352|160:232|112:304,1,200,8|8,0:0|0:0,0:0:0:0:
128,184,4476,2,0,B|162:241|266:121|309:143,1,200,0|0,0:0|0:0,0:0:0:0:
352,168,5266,1,0,0:0:0:0:
392,208,5424,2,0,P|376:272|336:288,1,100,2|0,0:0|0:0,0:0:0:0:
256,248,6055,6,0,P|192:192|184:80,1,200,2|0,0:0|0:0,0:0:0:0:
264,24,7003,1,0,0:0:0:0:
352,80,7318,2,0,L|448:144,1,100,0|2,0:0|0:0,0:0:0:0:
440,184,7792,1,2,0:0:0:0:
432,232,7950,2,0,L|348:287,1,100,2|0,0:0|0:0,0:0:0:0:
280,192,8581,6,0,B|232:176|192:224|192:224|152:184|88:208,1,200,8|8,0:0|0:0,0:0:0:0:
64,304,9529,1,0,0:0:0:0:
160,352,9845,5,8,0:3:0:0:
160,352,10160,2,0,L|224:320,5,50,8|8|8|8|8|8,0:3|0:3|0:3|0:3|0:3|0:3,0:0:0:0:
248,328,11108,2,0,P|306:315|346:185,1,200,0|8,0:0|0:0,0:0:0:0:
280,136,12055,1,0,0:0:0:0:
312,40,12371,2,0,P|208:64|176:152,1,200,0|8,0:0|0:0,0:0:0:0:
176,240,13318,1,0,0:0:0:0:
232,320,13634,2,0,L|352:344,1,100,0|0,0:0|0:0,0:0:0:0:
416,288,14266,1,8,0:0:0:0:
464,200,14581,6,0,P|480:168|480:144,2,50,0|0|2,0:0|0:0|0:0,0:0:0:0:
360,240,15213,1,2,0:0:0:0:
256,216,15529,2,0,P|200:224|136:216,1,100,2|2,0:0|0:0,0:0:0:0:
56,208,16160,6,0,P|48:152|56:88,1,100,0|0,0:0|0:0,0:0:0:0:
144,64,16792,1,8,0:0:0:0:
248,64,17108,1,0,0:0:0:0:
344,112,17424,6,0,P|400:136|424:176,1,100,0|0,0:0|0:0,0:0:0:0:
336,208,18055,2,0,P|304:264|256:288,1,100,8|0,0:0|0:0,0:0:0:0:
240,192,18687,2,0,P|168:160|80:240,1,200,0|0,0:0|0:0,0:0:0:0:
124,320,19634,6,0,P|92:336|60:336,2,50,2|2|2,0:0|0:0|0:0,0:0:0:0:
228,304,20266,2,0,P|300:320|404:304,1,175,2|0,0:0|0:0,0:0:0:0:
416,288,20897,2,0,L|448:240,1,50,2|0,0:0|0:0,0:0:0:0:
448,200,21213,6,0,B|368:184|344:96|344:96|280:112,1,200,0|8,0:0|0:0,0:0:0:0:
256,192,22160,1,0,0:0:0:0:
210,106,22476,2,0,B|168:96|168:96|144:184|64:200,1,200,0|8,0:0|0:0,0:0:0:0:
88,296,23424,1,0,0:0:0:0:
88,296,23739,2,0,P|168:336|256:272,1,200,0|8,0:0|0:0,0:0:0:0:
292,192,24687,6,0,L|316:144,2,50,2|2|2,0:0|0:0|0:0,0:0:0:0:
252,280,25318,1,0,0:0:0:0:
324,344,25634,1,0,0:0:0:0:
404,296,25950,1,0,0:0:0:0:
380,200,26266,2,0,P|388:144|500:64,1,200,8|8,0:0|0:0,0:0:0:0:
504,224,27529,2,0,P|453:306|358:328,1,200,8|8,0:0|0:0,0:0:0:0:
256,340,28476,5,0,0:0:0:0:
160,304,28792,2,0,L|72:248,1,100,8|0,0:0|0:0,0:0:0:0:
72,152,29424,1,8,0:0:0:0:
160,112,29739,2,0,B|208:112|208:112|248:168,1,100,0|8,0:0|0:3,0:0:0:0:
296,224,30371,6,0,L|344:280,5,50,8|8|8|8|8|8,0:3|0:3|0:3|0:3|0:3|0:3,0:0:0:0:
344,280,31318,2,0,P|416:296|440:184,1,200,0|8,0:0|0:0,0:0:0:0:
400,104,32266,1,0,0:0:0:0:
304,56,32581,2,0,L|192:88,1,100,0|0,0:0|0:0,0:0:0:0:
112,120,33213,1,8,0:0:0:0:
112,120,33529,1,0,0:0:0:0:
96,224,33845,2,0,P|128:264|184:288,1,100,0|0,0:0|0:0,0:0:0:0:
272,328,34476,1,8,0:0:0:0:
272,328,34792,6,0,L|328:344,2,50,2|2|2,0:0|0:0|0:0,0:0:0:0:
192,272,35424,2,0,B|152:240|152:240|144:176,2,100,2|2|2,0:0|0:0|0:0,0:0:0:0:
272,328,36371,6,0,P|336:320|376:280,1,100,0|0,0:0|0:0,0:0:0:0:
384,208,37003,2,0,P|423:157|423:100,1,100,8|0,0:0|0:0,0:0:0:0:
328,128,37634,2,0,P|304:112|216:112,1,100,0|0,0:0|0:0,0:0:0:0:
152,56,38266,1,8,0:0:0:0:
136,156,38581,1,0,0:0:0:0:
36,120,38897,2,0,B|28:168|28:168|52:224,1,100,0|8,0:0|0:0,0:0:0:0:
112,300,39529,1,8,0:0:0:0:
216,348,39845,5,2,0:0:0:0:
312,344,40160,2,0,P|365:312|392:268,1,100,2|2,0:0|0:0,0:0:0:0:
424,192,40792,1,2,0:0:0:0:
424,104,41029,6,0,P|416:72|384:40,1,75,0|8,0:0|0:3,0:0:0:0:
336,32,41424,2,0,B|232:64|320:144|216:184,1,200,8|8,0:3|0:0,0:0:0:0:
144,232,42371,1,0,0:0:0:0:
56,184,42687,2,0,B|40:136|40:136|64:72,1,100,2|0,0:0|0:0,0:0:0:0:
142,137,43318,2,0,B|159:183|159:183|143:231,1,100,8|0,0:0|0:0,0:0:0:0:
72,288,43950,2,0,P|136:336|264:328,1,200,2|0,0:0|0:0,0:0:0:0:
376,288,44897,6,0,B|416:256|416:256|432:200,1,100,0|2,0:0|0:0,0:0:0:0:
408,112,45529,1,0,0:0:0:0:
312,64,45845,1,8,0:0:0:0:
208,80,46160,2,0,P|152:96|120:128,1,100,2|8,0:0|0:0,0:0:0:0:
64,200,46792,1,8,0:0:0:0:
120,272,47108,6,0,P|157:304|205:316,1,100,8|0,0:0|0:0,0:0:0:0:
296,344,47739,2,0,L|416:328,1,100,8|2,0:0|0:0,0:0:0:0:
371,242,48371,2,0,L|272:256,1,100,8|2,0:0|0:0,0:0:0:0:
256,192,48845,12,2,49950,0:0:0:0:
480,256,50581,5,0,0:0:0:0:
424,160,50897,1,0,0:0:0:0:
336,104,51213,1,0,0:0:0:0:
232,96,51529,2,0,P|140:136|124:248,1,200,2|2,0:0|0:0,0:0:0:0:
216,200,52476,2,0,B|304:224|288:312|376:320,1,200,2|0,0:0|0:0,0:0:0:0:
432,240,53424,6,0,P|464:184|448:144,1,100,2|0,0:0|0:0,0:0:0:0:
400,72,54055,2,0,P|344:40|304:56,1,100,2|0,0:0|0:0,0:0:0:0:
224,96,54687,2,0,P|192:152|208:192,1,100,2|0,0:0|0:0,0:0:0:0:
256,272,55318,1,0,0:0:0:0:
192,336,55634,6,0,B|144:352|144:352|96:328,1,100,0|0,0:0|0:0,0:0:0:0:
56,240,56266,1,0,0:0:0:0:
64,136,56581,2,0,B|88:88|88:88|136:64,1,100,8|0,0:0|0:0,0:0:0:0:
232,56,57213,1,8,0:0:0:0:
336,80,57529,2,0,P|432:128|472:224,1,200,0|0,0:0|0:0,0:0:0:0:
464,312,58476,6,0,P|416:344|352:344,1,100,2|0,0:0|0:0,0:0:0:0:
272,336,59108,2,0,P|224:312|208:168,1,200,2|8,0:0|0:0,0:0:0:0:
240,88,60055,1,8,0:0:0:0:
192,8,60371,1,8,0:0:0:0:
97,34,60687,6,0,B|64:72|64:72|65:130,1,100,0|0,0:0|0:0,0:0:0:0:
80,224,61318,2,0,P|112:280|160:312,1,100,0|2,0:0|0:0,0:0:0:0:
240,336,61950,1,2,0:0:0:0:
240,336,62266,1,2,0:0:0:0:
344,304,62581,2,0,B|392:280|392:280|408:216,2,100,2|0|2,0:0|0:0|0:0,0:0:0:0:
240,336,63529,6,0,P|184:288|184:208,1,150,8|0,0:0|0:0,0:0:0:0:
192,168,64160,2,0,P|132:92|32:92,2,200,8|0|0,0:0|0:0|0:0,0:0:0:0:
84,192,65739,5,0,0:0:0:0:
84,296,66055,1,0,0:0:0:0:
176,344,66371,1,0,0:0:0:0:
272,304,66687,2,0,P|328:264|352:216,1,100,8|2,0:0|0:0,0:0:0:0:
240,200,67318,1,0,0:0:0:0:
256,96,67634,1,0,0:0:0:0:
360,80,67950,2,0,P|416:96|448:136,1,100,8|2,0:0|0:0,0:0:0:0:
440,224,68581,2,0,L|424:336,1,100,0|0,0:0|0:0,0:0:0:0:
256,192,69055,12,0,70476,0:0:0:0:
272,304,70792,6,0,L|216:320,5,50,8|8|8|8|8|8,0:3|0:3|0:3|0:3|0:3|0:3,0:0:0:0:
176,312,71739,2,0,P|128:280|104:192,1,150,0|0,0:0|0:0,0:0:0:0:
104,144,72371,1,0,0:0:0:0:
120,48,72687,1,0,0:0:0:0:
216,64,73003,6,0,B|264:68|264:68|312:96,1,100,0|0,0:0|0:0,0:0:0:0:
400,152,73634,1,2,0:0:0:0:
436,252,73950,1,0,0:0:0:0:
392,344,74266,6,0,P|320:344|296:312,1,100,0|0,0:0|0:0,0:0:0:0:
208,328,74897,2,0,P|167:354|119:344,1,100,0|0,0:0|0:0,0:0:0:0:
64,248,75529,2,0,L|72:136,1,100,0|0,0:0|0:0,0:0:0:0:
168,80,76160,2,0,L|160:184,1,100,8|0,0:0|0:0,0:0:0:0:
168,280,76792,6,0,P|208:320|344:336,1,200,8|8,0:0|0:0,0:0:0:0:
432,272,77739,1,8,0:0:0:0:
412,168,78055,2,0,P|400:144|280:80,1,150,0|0,0:0|0:0,0:0:0:0:
252,68,78687,2,0,P|184:68|140:88,1,100,2|2,0:0|0:0,0:0:0:0:
256,192,79160,12,8,80581,0:3:0:0:
332,256,80897,6,0,P|307:254|288:240,5,50,8|8|8|8|8|8,0:3|0:3|0:3|0:3|0:3|0:3,0:0:0:0:
264,192,81845,2,0,P|224:144|176:144,1,100,0|8,0:0|0:0,0:0:0:0:
184,240,82476,1,8,0:0:0:0:
96,184,82792,1,8,0:0:0:0:
189,140,83108,2,0,P|229:116|293:84,1,100,8|0,0:0|0:0,0:0:0:0:
360,32,83739,2,0,P|384:72|416:136,1,100,8|0,0:0|0:0,0:0:0:0:
464,200,84371,2,0,P|424:224|360:256,1,100,2|2,0:0|0:0,0:0:0:0:
304,184,85003,5,2,0:0:0:0:
216,240,85318,1,2,0:0:0:0:
120,200,85634,1,2,0:0:0:0:
56,272,85950,6,0,P|88:312|152:328,1,100,0|8,0:0|0:0,0:0:0:0:
224,336,86581,2,0,P|280:328|368:256,1,150,0|0,0:0|0:0,0:0:0:0:
376,232,87213,1,8,0:0:0:0:
416,136,87529,6,0,P|424:88|400:40,1,100,2|8,0:0|0:0,0:0:0:0:
328,104,88160,2,0,L|216:144,1,100,2|8,0:0|0:0,0:0:0:0:
128,136,88792,2,0,L|64:232,1,100,8|8,0:0|0:0,0:0:0:0:
256,192,89266,12,8,90687,0:3:0:0:
88,264,91003,6,0,L|136:248,5,50,8|8|8|8|8|8,0:3|0:3|0:3|0:3|0:3|0:3,0:0:0:0:
176,272,91950,2,0,P|232:304|328:320,1,150,0|0,0:0|0:0,0:0:0:0:
368,320,92581,2,0,P|400:280|440:248,1,100,8|0,0:0|0:0,0:0:0:0:
424,144,93213,6,0,P|408:80|320:48,1,150,0|0,0:0|0:0,0:0:0:0:
296,72,93845,2,0,P|240:96|200:80,1,100,8|0,0:0|0:0,0:0:0:0:
120,144,94476,1,0,0:0:0:0:
112,248,94792,1,0,0:0:0:0:
176,336,95108,1,8,0:0:0:0:
176,336,95424,6,0,L|120:368,2,50,0|2|2,0:0|0:0|0:0,0:0:0:0:
288,336,96055,2,0,L|376:384,2,100,2|2|2,0:0|0:0|0:0,0:0:0:0:
184,264,97003,6,0,P|139:235|104:176,1,100,0|0,0:0|0:0,0:0:0:0:
96,100,97634,2,0,B|128:60|128:60|192:52,1,100,8|0,0:0|0:0,0:0:0:0:
288,56,98266,6,0,B|336:62|336:62|368:102,1,100,0|0,0:0|0:0,0:0:0:0:
284,148,98897,2,0,L|212:228,1,100,8|0,0:0|0:0,0:0:0:0:
260,304,99529,2,0,L|332:224,1,100,0|0,0:0|0:0,0:0:0:0:
412,260,100160,2,0,L|348:340,1,100,8|0,0:0|0:0,0:0:0:0:
232,352,100792,5,2,0:0:0:0:
136,304,101108,1,2,0:0:0:0:
108,204,101424,1,8,0:0:0:0:
160,120,101739,1,2,0:0:0:0:
160,120,102055,6,0,P|222:80|341:120,1,200,0|8,0:0|0:0,0:0:0:0:
408,196,103003,1,0,0:0:0:0:
384,288,103318,2,0,P|308:348|213:331,1,200,0|0,0:0|0:0,0:0:0:0:
128,288,104266,5,0,0:0:0:0:
201,229,104581,2,0,B|254:162|319:256|387:179,1,200,0|8,0:0|0:0,0:0:0:0:
384,96,105529,6,0,P|408:64|424:56,2,50,0|2|2,0:0|0:0|0:0,0:0:0:0:
384,184,106160,1,0,0:0:0:0:
448,256,106476,1,8,0:0:0:0:
416,344,106792,2,0,P|352:384|272:360,1,150,0|0,0:0|0:0,0:0:0:0:
236,340,107424,1,0,0:0:0:0:
172,264,107739,5,0,0:0:0:0:
72,248,108055,2,0,P|40:184|56:96,1,150,0|0,0:0|0:0,0:0:0:0:
80,68,108687,1,0,0:0:0:0:
176,44,109003,1,8,0:0:0:0:
272,84,109318,1,0,0:0:0:0:
256,192,109476,12,0,110581,0:0:0:0:
88,304,121003,5,8,0:3:0:0:
72,208,121318,2,0,L|64:152,4,50,8|8|8|8|8,0:3|0:3|0:3|0:3|0:3,0:0:0:0:
88,304,122266,2,0,P|128:352|176:360,1,100,2|2,0:0|0:0,0:0:0:0:
168,272,122897,2,0,P|192:216|280:184,1,150,2|0,0:0|0:0,0:0:0:0:
304,168,123529,2,0,P|352:128|360:88,1,100,2|0,0:0|0:0,0:0:0:0:
272,88,124160,6,0,B|248:40|248:40|184:24,1,100,2|0,0:0|0:0,0:0:0:0:
184,120,124792,2,0,B|139:131|139:131|115:179,1,100,0|0,0:0|0:0,0:0:0:0:
208,208,125424,2,0,B|219:252|219:252|267:276,1,100,8|0,0:0|0:0,0:0:0:0:
360,320,126055,1,0,0:0:0:0:
432,256,126371,1,0,0:0:0:0:
432,160,126687,1,0,0:0:0:0:
360,88,127003,2,0,L|264:40,1,100,0|2,0:0|0:0,0:0:0:0:
172,28,127634,1,2,0:0:0:0:
80,72,127950,5,0,0:0:0:0:
48,168,128266,2,0,P|48:224|64:288,1,100,2|2,0:0|0:0,0:0:0:0:
136,216,128897,2,0,P|192:216|256:200,1,100,0|8,0:0|0:0,0:0:0:0:
336,168,129529,1,0,0:0:0:0:
256,192,129845,12,0,131108,0:0:0:0:
376,64,131424,6,0,P|408:48|424:32,4,50,8|8|8|8|8,0:3|0:3|0:3|0:3|0:3,0:0:0:0:
280,96,132371,2,0,P|208:124|164:208,1,175,0|8,0:0|0:3,0:0:0:0:
168,232,133003,2,0,P|144:280|96:312,1,100,8|0,0:3|0:0,0:0:0:0:
64,208,133634,1,0,0:0:0:0:
112,112,133950,1,0,0:0:0:0:
216,104,134266,5,0,0:0:0:0:
280,192,134581,1,0,0:0:0:0:
344,104,134897,2,0,P|384:168|372:248,1,150,0|8,0:0|0:3,0:0:0:0:
336,280,135529,1,8,0:3:0:0:
256,336,135845,1,0,0:0:0:0:
160,336,136160,6,0,P|80:272|64:216,1,150,2|2,0:0|0:0,0:0:0:0:
78,190,136792,2,0,B|88:176|88:176|72:136|88:96,1,100,0|0,0:0|0:0,0:0:0:0:
176,48,137424,6,0,P|225:41|270:60,1,100,0|0,0:0|0:0,0:0:0:0:
212,140,138055,2,0,B|208:182|176:211|176:211|180:240,1,100,0|0,0:0|0:0,0:0:0:0:
280,216,138687,2,0,P|344:224|392:232,1,100,0|0,0:0|0:0,0:0:0:0:
408,320,139318,5,0,0:0:0:0:
312,352,139634,1,0,0:0:0:0:
212,332,139950,2,0,P|121:284|68:180,1,200,0|0,0:0|0:0,0:0:0:0:
144,56,141213,2,0,P|224:110|265:200,1,200,2|2,0:0|0:0,0:0:0:0:
288,304,142081,2,0,P|322:294|349:259,1,75,2|2,0:0|0:0,0:0:0:0:
360,216,142476,6,0,P|388:168|432:144,1,100,0|0,0:0|0:0,0:0:0:0:
356,64,143108,2,0,P|276:20|176:84,2,200,0|0|0,0:0|0:0|0:0,0:0:0:0:
272,128,144687,1,0,0:0:0:0:
188,188,145003,2,0,P|272:233|358:189,2,200,0|0|2,0:0|0:0|0:0,0:0:0:0:
112,112,146581,5,0,0:0:0:0:
40,184,146897,1,0,0:0:0:0:
68,280,147213,2,0,P|153:339|219:336,1,150,0|0,0:3|0:0,0:0:0:0:
244,336,147845,1,0,0:0:0:0:
336,292,148160,5,0,0:0:0:0:
432,320,148476,2,0,B|488:256|464:176,1,150,0|0,0:3|0:0,0:0:0:0:
448,128,149108,1,0,0:0:0:0:
352,72,149424,2,0,B|304:64|304:64|248:88,1,100,8|0,0:3|0:3,0:0:0:0:
256,192,149897,12,0,151318,0:0:0:0:
128,152,151634,6,0,L|64:176,4,50,8|8|8|8|8,0:3|0:3|0:3|0:3|0:3,0:0:0:0:
224,112,152581,2,0,P|272:112|328:152,1,100,2|2,0:0|0:0,0:0:0:0:
412,192,153213,1,8,0:0:0:0:
464,288,153529,2,0,B|416:312|336:304|352:232|280:264|256:272,1,200,2|0,0:0|0:0,0:0:0:0:
240,368,154476,6,0,P|176:320|176:240,1,150,2|0,0:0|0:0,0:0:0:0:
176,224,155108,2,0,P|184:181|164:120,1,100,2|0,0:0|0:0,0:0:0:0:
84,184,155739,1,2,0:0:0:0:
84,284,156055,2,0,B|116:324|116:324|172:340,1,100,0|0,0:0|0:0,0:0:0:0:
268,344,156687,5,0,0:0:0:0:
368,316,157003,1,0,0:0:0:0:
432,232,157318,1,0,0:0:0:0:
432,128,157634,2,0,B|400:88|400:88|336:80,2,100,2|2|2,0:0|0:0|0:0,0:0:0:0:
344,184,158581,2,0,B|320:240|320:240|280:240|280:240|280:304|216:328,1,200,0|2,0:0|0:0,0:0:0:0:
128,288,159529,6,0,P|64:288|136:256,2,200,0|2|8,0:0|0:0|0:0,0:0:0:0:
224,256,161108,2,0,P|272:240|296:184,1,100,0|0,0:0|0:0,0:0:0:0:
200,144,161739,6,0,P|224:101|271:86,1,100,0|0,0:0|0:0,0:0:0:0:
376,120,162371,1,0,0:0:0:0:
424,216,162687,2,0,P|344:288|240:288,1,200,2|8,0:0|0:0,0:0:0:0:
176,336,163634,2,0,B|144:320|152:280|152:280|112:280|112:280|112:216|48:192,1,200,0|0,0:0|0:0,0:0:0:0:
80,96,164581,6,0,P|120:48|144:120,1,150,2|0,0:0|0:0,0:0:0:0:
144,144,165213,2,0,P|133:207|192:148,2,200,2|2|0,0:0|0:0|0:0,0:0:0:0:
200,64,166792,5,0,0:0:0:0:
296,32,167108,1,0,0:0:0:0:
392,64,167424,2,0,P|436:96|448:160,1,100,0|2,0:0|0:0,0:0:0:0:
437,240,168055,1,0,0:0:0:0:
352,328,168371,5,8,0:0:0:0:
248,328,168687,2,0,B|195:315|195:315|158:258,1,100,0|0,0:0|0:0,0:0:0:0:
104,192,169318,1,0,0:0:0:0:
160,96,169634,2,0,P|208:72|272:72,1,100,8|0,0:0|0:0,0:0:0:0:
256,192,170266,12,2,171529,0:0:0:0:
328,280,171845,5,0,0:0:0:0:
400,200,172160,2,0,P|416:136|400:88,1,100,0|0,0:0|0:0,0:0:0:0:
312,144,172792,2,0,P|248:128|200:144,1,100,10|2,0:0|0:0,0:0:0:0:
144,56,173424,1,10,0:0:0:0:
112,160,173739,2,0,B|88:208|88:208|112:272,2,100,0|8|0,0:0|0:0|0:0,0:0:0:0:
200,96,174687,6,0,P|256:88|304:112,1,100,2|0,0:0|0:0,0:0:0:0:
240,192,175318,2,0,P|216:288|296:352,1,200,2|10,0:0|0:0,0:0:0:0:
384,328,176266,1,10,0:0:0:0:
416,232,176581,1,10,0:0:0:0:
385,114,176897,6,0,P|349:80|303:63,1,100,0|0,0:0|0:0,0:0:0:0:
208,48,177529,2,0,P|160:56|112:88,2,100,0|8|0,0:0|0:0|0:0,0:0:0:0:
304,64,178476,1,10,0:0:0:0:
240,136,178792,2,0,B|168:168|240:240|112:280,1,200,0|0,0:0|0:0,0:0:0:0:
104,176,179739,6,0,P|112:96|176:40,1,150,8|0,0:0|0:0,0:0:0:0:
216,32,180371,2,0,P|288:48|328:176,1,200,8|8,0:0|0:0,0:0:0:0:
384,248,181318,1,8,0:0:0:0:
448,168,181634,1,8,0:0:0:0:
496,264,181950,6,0,P|480:312|432:336,1,100,0|0,0:0|0:0,0:0:0:0:
328,336,182581,2,0,P|296:328|224:344,1,100,0|2,0:0|0:0,0:0:0:0:
136,304,183213,1,2,0:0:0:0:
88,208,183529,1,0,0:0:0:0:
112,104,183845,2,0,B|111:53|183:85|175:40,2,100,0|0|0,0:0|0:0|0:0,0:0:0:0:
56,176,184792,6,0,P|96:200|184:144,1,150,2|0,0:0|0:0,0:0:0:0:
192,112,185424,2,0,B|208:56|280:24|328:48|352:88|352:88|400:72|456:80|480:144|472:200,1,400,2|0,0:0|0:0,0:0:0:0:
368,192,187003,5,0,0:0:0:0:
344,296,187318,1,8,0:0:0:0:
240,320,187634,2,0,P|168:304|128:280,1,100,8|0,0:0|0:0,0:0:0:0:
108,196,188266,1,0,0:0:0:0:
112,88,188581,5,8,0:0:0:0:
208,64,188897,2,0,P|264:64|352:168,1,200,8|0,0:0|0:0,0:0:0:0:
248,160,189845,1,8,0:0:0:0:
192,248,190160,1,0,0:0:0:0:
256,192,190318,12,0,192687,0:0:0:0:
