osu file format v5

[General]
AudioFilename: Emanuele inglese.mp3
AudioLeadIn: 0
PreviewTime: -1
Countdown: 1
SampleSet: Normal
StackLeniency: 0.7
Mode: 0
LetterboxInBreaks: 1

[Metadata]
Title:Dj English
Artist:Emanuele Inglese
Creator:lele94
Version:Normal
Source:
Tags:

[Difficulty]
HPDrainRate:2
CircleSize:4
OverallDifficulty:2
SliderMultiplier:1.4
SliderTickRate:2

[Events]
//Background and Video events
0,0,"housemusicfestivallogofm2.png"
//Break Periods
2,47553,47684
//Storyboard Layer 0 (Background)
//Storyboard Layer 1 (Failing)
//Storyboard Layer 2 (Passing)
//Storyboard Layer 3 (Foreground)
//Storyboard Sound Samples
//Background Colour Transformations
3,100,0,0,255

[TimingPoints]
128,472.44094488189,4,1,0,100,1

[Colours]
Combo1 : 0,255,0
Combo2 : 255,0,128
Combo3 : 5,5,240
Combo4 : 255,255,0

[HitObjects]
96,64,2017,1,0
224,64,2490,1,0
96,64,2962,1,0
224,64,3435,1,0
352,64,3907,1,0
352,64,4379,1,0
352,192,4852,5,0
288,192,5088,1,2
224,192,5324,1,2
96,152,5797,5,0
96,280,6269,1,0
96,152,6742,1,0
96,280,7214,1,0
208,216,7687,2,0,B|368:216,1,140
416,264,8513,2,2,B|416:328,9,35
432,152,10049,5,0
352,64,10521,1,0
432,152,10994,1,0
304,152,11466,1,0
168,144,11939,1,0
168,144,12411,2,2,B|72:144|104:48,1,140
232,64,13356,5,0
232,64,13828,1,0
360,64,14301,1,0
360,64,14773,1,0
232,64,15246,1,0
360,64,15718,1,0
432,128,16072,2,2,B|432:192,9,35
376,280,17608,5,0
312,168,18080,1,0
440,168,18553,1,0
312,168,19025,1,0
184,168,19498,2,0,B|88:168|56:232,2,140
184,296,20915,5,0
312,296,21387,1,0
440,296,21860,1,0
312,296,22332,1,0
440,296,22805,1,0
440,296,23277,1,0
440,152,23750,6,4,B|440:96,8,35
296,152,25167,5,0
216,248,25639,1,0
88,248,26112,1,0
144,136,26584,2,0,B|144:40|240:40,1,140
352,40,27529,1,0
352,104,27765,1,0
352,168,28002,1,2
312,288,28474,5,0
200,288,28946,1,0
312,216,29419,1,0
200,216,29891,1,0
312,144,30364,1,0
200,144,30836,1,0
200,80,31072,2,0,B|264:80,7,35
328,80,32253,5,0
456,80,32726,1,0
328,80,33198,1,0
200,80,33671,2,0,B|104:80,4,70
328,80,35088,1,0
328,144,35324,1,0
328,208,35561,1,2
200,208,36033,5,0
200,208,36505,1,0
72,208,36978,1,0
72,208,37450,1,0
128,320,37923,1,0
128,320,38395,1,0
256,320,38868,2,2,B|312:320,8,35
256,192,40285,5,0
384,192,40757,1,0
256,192,41230,1,0
128,192,41702,1,0
256,192,42175,1,0
256,56,42647,1,0
256,192,43120,1,0
368,120,43592,5,0
368,232,44065,1,0
272,152,44537,1,0
272,280,45009,1,0
176,184,45482,1,0
176,312,45954,1,0
272,312,46309,2,2,B|336:312,9,35
128,64,49261,5,0
256,64,49734,1,0
384,64,50206,1,0
384,192,50679,1,0
256,192,51151,1,0
128,192,51624,1,0
128,320,52096,1,0
256,320,52568,2,0,B|352:320|384:256,1,140
384,136,53513,5,0
264,72,53986,1,0
128,64,54458,2,0,B|128:224,1,140
216,104,55403,2,0,B|216:264,1,140
304,144,56348,2,0,B|304:304,1,140
392,184,57293,2,0,B|392:344,1,140
256,192,58238,12,4,61072
