osu file format v14

[General]
AudioFilename: The Doomsday.mp3
AudioLeadIn: 0
PreviewTime: 85735
Countdown: 0
SampleSet: Normal
StackLeniency: 0.4
Mode: 1
LetterboxInBreaks: 1
WidescreenStoryboard: 1

[Editor]
Bookmarks: 45771,65021,75463,85898,106604,131550,136768,147202
DistanceSpacing: 0.5
BeatDivisor: 2
GridSize: 32
TimelineZoom: 1.1

[Metadata]
Title:The Doomsday
TitleUnicode:The Doomsday
Artist:Elzfernomusic
ArtistUnicode:Elzfernomusic
Creator:Willi_Zinger
Version:Futsuu
Source:Sonic 3 & Knuckles
Tags:sonic knuckles eggman heavy metal remix sega 1994 gen
BeatmapID:1456685
BeatmapSetID:688327

[Difficulty]
HPDrainRate:7
CircleSize:4
OverallDifficulty:3
ApproachRate:5
SliderMultiplier:1.4
SliderTickRate:2

[Events]
//Background and Video events
0,0,"The_DoomsDay_Zone_by_Zlydoc.jpg",0,0
//Break Periods
2,59200,61050
//Storyboard Layer 0 (Background)
//Storyboard Layer 1 (Fail)
//Storyboard Layer 2 (Pass)
//Storyboard Layer 3 (Foreground)
//Storyboard Sound Samples

[TimingPoints]
1015,500,4,1,0,30,1,0
6015,500,4,1,0,30,1,0
45750,500,4,1,0,30,1,0
45771,-100,4,1,1,30,0,1
53000,500,4,1,1,30,1,1
59771,-100,4,1,1,30,0,0
65021,-100,4,1,1,25,0,0
65026,326.086956521739,4,1,1,25,1,0
65355,-100,4,1,1,25,0,0
75463,-100,4,1,1,25,0,0
106604,-100,4,1,1,25,0,1
115735,-100,4,1,1,25,0,0
131550,-100,4,1,1,25,0,0
136768,-100,4,1,1,25,0,0
167909,-100,4,1,1,25,0,1
177039,-100,4,1,1,25,0,0
182420,-100,4,1,1,25,0,0
215025,-100,4,1,1,25,0,0

[Colours]
Combo1 : 18,150,58
Combo2 : 235,193,59
Combo3 : 52,51,82
Combo4 : 222,97,62
Combo5 : 16,59,41
Combo6 : 170,225,222

[HitObjects]
256,192,6015,5,0,0:0:0:0:
256,192,7015,1,0,0:0:0:0:
256,192,8015,1,0,0:0:0:0:
256,192,9015,1,0,0:0:0:0:
256,192,10015,1,0,0:0:0:0:
256,192,11015,1,0,0:0:0:0:
256,192,12015,1,0,0:0:0:0:
256,192,13015,1,0,0:0:0:0:
256,192,13515,1,0,0:0:0:0:
256,192,14015,1,8,0:0:0:0:
256,192,14765,1,0,0:0:0:0:
256,192,15515,1,8,0:0:0:0:
256,192,16765,1,0,0:0:0:0:
256,192,17015,1,8,0:0:0:0:
256,192,18015,1,8,0:0:0:0:
256,192,18765,1,0,0:0:0:0:
256,192,19515,1,8,0:0:0:0:
256,192,20765,1,0,0:0:0:0:
256,192,21015,1,8,0:0:0:0:
256,192,22015,1,4,0:0:0:0:
256,192,22765,1,4,0:0:0:0:
256,192,23515,1,12,0:0:0:0:
256,192,24265,1,4,0:0:0:0:
256,192,25015,1,8,0:0:0:0:
256,192,25348,1,8,0:0:0:0:
256,192,25681,1,0,0:0:0:0:
256,192,26015,1,0,0:0:0:0:
256,192,27015,1,0,0:0:0:0:
256,192,28015,1,0,0:0:0:0:
256,192,29015,1,0,0:0:0:0:
256,192,29515,1,0,0:0:0:0:
256,192,30015,1,8,0:0:0:0:
256,192,30765,1,8,0:0:0:0:
256,192,31515,1,0,0:0:0:0:
256,192,32765,1,0,0:0:0:0:
256,192,33015,1,8,0:0:0:0:
256,192,34015,1,8,0:0:0:0:
256,192,34765,1,8,0:0:0:0:
256,192,35515,1,0,0:0:0:0:
256,192,36765,1,0,0:0:0:0:
256,192,37015,1,8,0:0:0:0:
256,192,38015,1,12,0:0:0:0:
256,192,38765,1,12,0:0:0:0:
256,192,39515,1,4,0:0:0:0:
256,192,40265,1,12,0:0:0:0:
256,192,41015,1,8,0:0:0:0:
256,192,41348,1,0,0:0:0:0:
256,192,41681,1,8,0:0:0:0:
256,192,42015,1,0,0:0:0:0:
256,192,43015,1,0,0:0:0:0:
256,192,44015,1,0,0:0:0:0:
256,192,45015,1,0,0:0:0:0:
256,192,45750,1,0,0:0:0:0:
256,192,46250,1,8,0:0:0:0:
256,192,46750,1,0,0:0:0:0:
256,192,47250,1,8,0:0:0:0:
256,192,47750,1,0,0:0:0:0:
256,192,48250,1,8,0:0:0:0:
256,192,48750,1,0,0:0:0:0:
256,192,49250,1,8,0:0:0:0:
256,192,49750,1,8,0:0:0:0:
256,192,50250,1,0,0:0:0:0:
256,192,50750,1,8,0:0:0:0:
256,192,51250,1,0,0:0:0:0:
256,192,51750,1,8,0:0:0:0:
256,192,52250,1,8,0:0:0:0:
256,192,52500,1,8,0:0:0:0:
256,192,52750,1,0,0:0:0:0:
256,192,53000,1,8,0:0:0:0:
256,192,54000,1,0,0:0:0:0:
256,192,54750,1,0,0:0:0:0:
256,192,55250,1,0,0:0:0:0:
256,192,55500,1,0,0:0:0:0:
256,192,55750,1,0,0:0:0:0:
256,192,56000,1,8,0:0:0:0:
256,192,56375,1,8,0:0:0:0:
256,192,56750,1,8,0:0:0:0:
256,192,57000,1,0,0:0:0:0:
256,192,58000,1,8,0:0:0:0:
256,192,58375,1,8,0:0:0:0:
256,192,58750,1,0,0:0:0:0:
256,192,59000,1,0,0:0:0:0:
256,192,62250,12,0,64500,0:0:0:0:
256,192,65026,5,4,0:0:0:0:
256,192,65678,1,4,0:0:0:0:
256,192,66330,1,4,0:0:0:0:
256,192,66982,1,4,0:0:0:0:
256,192,67634,1,4,0:0:0:0:
256,192,68286,1,4,0:0:0:0:
256,192,68939,2,0,B|352:288|480:192|96:64|96:64|96:224,1,560
256,192,70569,1,0,0:0:0:0:
256,192,70895,1,0,0:0:0:0:
256,192,71221,1,0,0:0:0:0:
256,192,71547,1,8,0:0:0:0:
256,192,71710,1,8,0:0:0:0:
256,192,71873,1,0,0:0:0:0:
256,192,72199,1,0,0:0:0:0:
256,192,72852,1,8,0:0:0:0:
256,192,73178,1,0,0:0:0:0:
256,192,73341,1,8,0:0:0:0:
256,192,73667,1,0,0:0:0:0:
256,192,73830,1,8,0:0:0:0:
256,192,74482,1,0,0:0:0:0:
256,192,74808,1,8,0:0:0:0:
256,192,75134,1,0,0:0:0:0:
256,192,75460,1,12,0:0:0:0:
256,192,75786,1,0,0:0:0:0:
256,192,75949,1,8,0:0:0:0:
256,192,76276,1,0,0:0:0:0:
256,192,76439,1,8,0:0:0:0:
256,192,76928,1,0,0:0:0:0:
256,192,77091,1,8,0:0:0:0:
256,192,77417,1,8,0:0:0:0:
256,192,77580,1,8,0:0:0:0:
256,192,77743,1,0,0:0:0:0:
256,192,78069,1,12,0:0:0:0:
256,192,78395,1,8,0:0:0:0:
256,192,78558,1,0,0:0:0:0:
256,192,78884,1,8,0:0:0:0:
256,192,79047,1,0,0:0:0:0:
256,192,79536,1,0,0:0:0:0:
256,192,79699,1,8,0:0:0:0:
256,192,80026,1,8,0:0:0:0:
256,192,80189,1,0,0:0:0:0:
256,192,80352,1,8,0:0:0:0:
256,192,80678,1,12,0:0:0:0:
256,192,81004,1,0,0:0:0:0:
256,192,81167,1,8,0:0:0:0:
256,192,81494,1,0,0:0:0:0:
256,192,81657,1,8,0:0:0:0:
256,192,82146,1,0,0:0:0:0:
256,192,82309,1,8,0:0:0:0:
256,192,82635,1,8,0:0:0:0:
256,192,82798,1,8,0:0:0:0:
256,192,82961,1,0,0:0:0:0:
256,192,83287,1,12,0:0:0:0:
256,192,83613,1,8,0:0:0:0:
256,192,83776,1,0,0:0:0:0:
256,192,84102,1,8,0:0:0:0:
256,192,84265,1,0,0:0:0:0:
256,192,84754,1,0,0:0:0:0:
256,192,84917,1,8,0:0:0:0:
256,192,85080,1,8,0:0:0:0:
256,192,85244,1,8,0:0:0:0:
256,192,85569,1,4,0:0:0:0:
256,192,85895,1,8,0:0:0:0:
256,192,86058,1,0,0:0:0:0:
256,192,86384,1,0,0:0:0:0:
256,192,86710,1,8,0:0:0:0:
256,192,86873,1,0,0:0:0:0:
256,192,87526,1,0,0:0:0:0:
256,192,87852,1,0,0:0:0:0:
256,192,88015,1,8,0:0:0:0:
256,192,88178,1,8,0:0:0:0:
256,192,88504,1,8,0:0:0:0:
256,192,88667,1,0,0:0:0:0:
256,192,88993,1,0,0:0:0:0:
256,192,89319,1,8,0:0:0:0:
256,192,89482,1,0,0:0:0:0:
256,192,90134,1,0,0:0:0:0:
256,192,90460,1,0,0:0:0:0:
256,192,90623,1,8,0:0:0:0:
256,192,90949,1,8,0:0:0:0:
256,192,91112,1,8,0:0:0:0:
256,192,91275,1,8,0:0:0:0:
256,192,91602,1,0,0:0:0:0:
256,192,91928,1,8,0:0:0:0:
256,192,92091,1,8,0:0:0:0:
256,192,92254,1,8,0:0:0:0:
256,192,92580,1,0,0:0:0:0:
256,192,93069,1,8,0:0:0:0:
256,192,93395,1,8,0:0:0:0:
256,192,93558,1,0,0:0:0:0:
256,192,93884,1,0,0:0:0:0:
256,192,94047,1,8,0:0:0:0:
256,192,94373,1,8,0:0:0:0:
256,192,94699,1,8,0:0:0:0:
256,192,95025,1,8,0:0:0:0:
256,192,95189,1,0,0:0:0:0:
256,192,95352,1,0,0:0:0:0:
256,192,95515,1,0,0:0:0:0:
256,192,95678,1,0,0:0:0:0:
256,192,96330,1,8,0:0:0:0:
256,192,96493,1,0,0:0:0:0:
256,192,96819,1,0,0:0:0:0:
256,192,97145,1,8,0:0:0:0:
256,192,97308,1,0,0:0:0:0:
256,192,97961,1,0,0:0:0:0:
256,192,98287,1,0,0:0:0:0:
256,192,98450,1,8,0:0:0:0:
256,192,98613,1,8,0:0:0:0:
256,192,98939,1,8,0:0:0:0:
256,192,99102,1,0,0:0:0:0:
256,192,99428,1,0,0:0:0:0:
256,192,99754,1,8,0:0:0:0:
256,192,99917,1,0,0:0:0:0:
256,192,100569,1,0,0:0:0:0:
256,192,100895,1,0,0:0:0:0:
256,192,101058,1,8,0:0:0:0:
256,192,101547,1,0,0:0:0:0:
256,192,101710,1,0,0:0:0:0:
256,192,102036,1,8,0:0:0:0:
256,192,102525,1,0,0:0:0:0:
256,192,102689,1,0,0:0:0:0:
256,192,103015,1,8,0:0:0:0:
256,192,103504,1,8,0:0:0:0:
256,192,103667,1,8,0:0:0:0:
256,192,103830,1,8,0:0:0:0:
256,192,103993,1,0,0:0:0:0:
256,192,104482,1,0,0:0:0:0:
256,192,104808,1,0,0:0:0:0:
256,192,105134,1,0,0:0:0:0:
256,192,105460,1,0,0:0:0:0:
256,192,105623,1,0,0:0:0:0:
256,192,105786,1,8,0:0:0:0:
256,192,105949,1,8,0:0:0:0:
256,192,106112,1,8,0:0:0:0:
256,192,106602,1,0,0:0:0:0:
256,192,106928,1,0,0:0:0:0:
256,192,107091,1,8,0:0:0:0:
256,192,107417,1,8,0:0:0:0:
256,192,107743,1,8,0:0:0:0:
256,192,107906,1,0,0:0:0:0:
256,192,108232,1,0,0:0:0:0:
256,192,108395,1,8,0:0:0:0:
256,192,108721,1,8,0:0:0:0:
256,192,109210,1,0,0:0:0:0:
256,192,109536,1,0,0:0:0:0:
256,192,109699,1,8,0:0:0:0:
256,192,110025,1,8,0:0:0:0:
256,192,110352,1,8,0:0:0:0:
256,192,110515,1,0,0:0:0:0:
256,192,110841,1,0,0:0:0:0:
256,192,111004,1,8,0:0:0:0:
256,192,111330,1,8,0:0:0:0:
256,192,111819,1,0,0:0:0:0:
256,192,112145,1,8,0:0:0:0:
256,192,112308,1,8,0:0:0:0:
256,192,112634,1,8,0:0:0:0:
256,192,112960,1,8,0:0:0:0:
256,192,113123,1,0,0:0:0:0:
256,192,113449,1,0,0:0:0:0:
256,192,113612,1,8,0:0:0:0:
256,192,113939,1,8,0:0:0:0:
256,192,114428,1,0,0:0:0:0:
256,192,114754,1,8,0:0:0:0:
256,192,114917,1,8,0:0:0:0:
256,192,115080,1,8,0:0:0:0:
256,192,115243,1,8,0:0:0:0:
256,192,115732,1,0,0:0:0:0:
256,192,116221,1,0,0:0:0:0:
256,192,116547,1,8,0:0:0:0:
256,192,116873,1,8,0:0:0:0:
256,192,117199,1,0,0:0:0:0:
256,192,117525,1,0,0:0:0:0:
256,192,117852,1,8,0:0:0:0:
256,192,118178,1,8,0:0:0:0:
256,192,118341,1,0,0:0:0:0:
256,192,118830,1,0,0:0:0:0:
256,192,119156,1,8,0:0:0:0:
256,192,119482,1,8,0:0:0:0:
256,192,119808,1,0,0:0:0:0:
256,192,120134,1,0,0:0:0:0:
256,192,120460,1,8,0:0:0:0:
256,192,120786,1,8,0:0:0:0:
256,192,120949,1,8,0:0:0:0:
256,192,121112,1,0,0:0:0:0:
256,192,121765,1,8,0:0:0:0:
256,192,122091,1,0,0:0:0:0:
256,192,122417,1,8,0:0:0:0:
256,192,122743,1,0,0:0:0:0:
256,192,123069,1,8,0:0:0:0:
256,192,123395,1,8,0:0:0:0:
256,192,123558,1,8,0:0:0:0:
256,192,123721,1,0,0:0:0:0:
256,192,124047,1,0,0:0:0:0:
256,192,124373,1,8,0:0:0:0:
256,192,124699,1,8,0:0:0:0:
256,192,125025,1,0,0:0:0:0:
256,192,125352,1,0,0:0:0:0:
256,192,125678,1,0,0:0:0:0:
256,192,125841,1,8,0:0:0:0:
256,192,126330,1,0,0:0:0:0:
256,192,127634,1,0,0:0:0:0:
256,192,128939,1,0,0:0:0:0:
256,192,130243,1,0,0:0:0:0:
256,192,131547,1,8,0:0:0:0:
256,192,131873,1,0,0:0:0:0:
256,192,132199,1,0,0:0:0:0:
256,192,132525,1,0,0:0:0:0:
256,192,132852,1,8,0:0:0:0:
256,192,133015,1,8,0:0:0:0:
256,192,133178,1,0,0:0:0:0:
256,192,133504,1,0,0:0:0:0:
256,192,133830,1,0,0:0:0:0:
256,192,134156,1,8,0:0:0:0:
256,192,134482,1,0,0:0:0:0:
256,192,134645,1,8,0:0:0:0:
256,192,134971,1,0,0:0:0:0:
256,192,135134,1,8,0:0:0:0:
256,192,135623,1,0,0:0:0:0:
256,192,135786,1,0,0:0:0:0:
256,192,135949,1,0,0:0:0:0:
256,192,136112,1,0,0:0:0:0:
256,192,136439,1,0,0:0:0:0:
256,192,136765,1,8,0:0:0:0:
256,192,136928,1,0,0:0:0:0:
256,192,137254,1,0,0:0:0:0:
256,192,137580,1,0,0:0:0:0:
256,192,137743,1,8,0:0:0:0:
256,192,137906,1,0,0:0:0:0:
256,192,138232,1,0,0:0:0:0:
256,192,138721,1,8,0:0:0:0:
256,192,138884,1,0,0:0:0:0:
256,192,139047,1,8,0:0:0:0:
256,192,139373,1,8,0:0:0:0:
256,192,139536,1,0,0:0:0:0:
256,192,139862,1,0,0:0:0:0:
256,192,140189,1,8,0:0:0:0:
256,192,140352,1,0,0:0:0:0:
256,192,140515,1,0,0:0:0:0:
256,192,140841,1,0,0:0:0:0:
256,192,141330,1,8,0:0:0:0:
256,192,141493,1,0,0:0:0:0:
256,192,141656,1,8,0:0:0:0:
256,192,141982,1,8,0:0:0:0:
256,192,142145,1,8,0:0:0:0:
256,192,142471,1,0,0:0:0:0:
256,192,142797,1,0,0:0:0:0:
256,192,142960,1,8,0:0:0:0:
256,192,143123,1,8,0:0:0:0:
256,192,143449,1,0,0:0:0:0:
256,192,143939,1,8,0:0:0:0:
256,192,144102,1,8,0:0:0:0:
256,192,144265,1,8,0:0:0:0:
256,192,144591,1,8,0:0:0:0:
256,192,144754,1,0,0:0:0:0:
256,192,145080,1,0,0:0:0:0:
256,192,145569,1,8,0:0:0:0:
256,192,145732,1,0,0:0:0:0:
256,192,146058,1,0,0:0:0:0:
256,192,146221,1,0,0:0:0:0:
256,192,146547,1,0,0:0:0:0:
256,192,146710,1,8,0:0:0:0:
256,192,146873,1,8,0:0:0:0:
256,192,147199,1,0,0:0:0:0:
256,192,147525,1,8,0:0:0:0:
256,192,147852,1,0,0:0:0:0:
256,192,148178,1,8,0:0:0:0:
256,192,148504,1,0,0:0:0:0:
256,192,148667,1,8,0:0:0:0:
256,192,148830,1,8,0:0:0:0:
256,192,149156,1,8,0:0:0:0:
256,192,149482,1,8,0:0:0:0:
256,192,149645,1,8,0:0:0:0:
256,192,149808,1,0,0:0:0:0:
256,192,150134,1,8,0:0:0:0:
256,192,150297,1,8,0:0:0:0:
256,192,150460,1,8,0:0:0:0:
256,192,150623,1,0,0:0:0:0:
256,192,150786,1,0,0:0:0:0:
256,192,151439,1,0,0:0:0:0:
256,192,151602,1,8,0:0:0:0:
256,192,151765,1,8,0:0:0:0:
256,192,152091,1,8,0:0:0:0:
256,192,152417,1,4,0:0:0:0:
256,192,152906,1,12,0:0:0:0:
256,192,153395,1,4,0:0:0:0:
256,192,153884,1,12,0:0:0:0:
256,192,154373,1,8,0:0:0:0:
256,192,154536,1,8,0:0:0:0:
256,192,154699,1,0,0:0:0:0:
256,192,154862,1,8,0:0:0:0:
256,192,155189,1,0,0:0:0:0:
256,192,155352,1,8,0:0:0:0:
256,192,155678,1,8,0:0:0:0:
256,192,156004,1,8,0:0:0:0:
256,192,156656,1,8,0:0:0:0:
256,192,156819,1,8,0:0:0:0:
256,192,156982,1,0,0:0:0:0:
256,192,157308,1,0,0:0:0:0:
256,192,157634,1,0,0:0:0:0:
256,192,157960,1,0,0:0:0:0:
256,192,158123,1,8,0:0:0:0:
256,192,158286,1,0,0:0:0:0:
256,192,158612,1,8,0:0:0:0:
256,192,158939,1,0,0:0:0:0:
256,192,159102,1,0,0:0:0:0:
256,192,159265,1,8,0:0:0:0:
256,192,159428,1,0,0:0:0:0:
256,192,159591,1,8,0:0:0:0:
256,192,159917,1,8,0:0:0:0:
256,192,160243,1,8,0:0:0:0:
256,192,160732,1,8,0:0:0:0:
256,192,161221,1,0,0:0:0:0:
256,192,161547,1,0,0:0:0:0:
256,192,161710,1,8,0:0:0:0:
256,192,161873,1,8,0:0:0:0:
256,192,162199,1,0,0:0:0:0:
256,192,162525,1,0,0:0:0:0:
256,192,162852,1,12,0:0:0:0:
256,192,163341,1,12,0:0:0:0:
256,192,163830,1,4,0:0:0:0:
256,192,164319,1,4,0:0:0:0:
256,192,164808,1,8,0:0:0:0:
256,192,164971,1,0,0:0:0:0:
256,192,165134,1,0,0:0:0:0:
256,192,165297,1,8,0:0:0:0:
256,192,165786,1,8,0:0:0:0:
256,192,166112,1,8,0:0:0:0:
256,192,166439,1,8,0:0:0:0:
256,192,166765,1,0,0:0:0:0:
256,192,166928,1,8,0:0:0:0:
256,192,167091,1,8,0:0:0:0:
256,192,167417,1,8,0:0:0:0:
256,192,167580,1,8,0:0:0:0:
256,192,167743,1,0,0:0:0:0:
256,192,167906,1,8,0:0:0:0:
256,192,168395,1,8,0:0:0:0:
256,192,168721,1,8,0:0:0:0:
256,192,169047,1,0,0:0:0:0:
256,192,169210,1,8,0:0:0:0:
256,192,169699,1,8,0:0:0:0:
256,192,169862,1,0,0:0:0:0:
256,192,170025,1,8,0:0:0:0:
256,192,170188,1,8,0:0:0:0:
256,192,170352,1,8,0:0:0:0:
256,192,170515,1,0,0:0:0:0:
256,192,171004,1,8,0:0:0:0:
256,192,171330,1,8,0:0:0:0:
256,192,171656,1,0,0:0:0:0:
256,192,171819,1,8,0:0:0:0:
256,192,172308,1,8,0:0:0:0:
256,192,172471,1,8,0:0:0:0:
256,192,172634,1,8,0:0:0:0:
256,192,172797,1,0,0:0:0:0:
256,192,172960,1,0,0:0:0:0:
256,192,173123,1,8,0:0:0:0:
256,192,173612,1,8,0:0:0:0:
256,192,173939,1,8,0:0:0:0:
256,192,174102,1,8,0:0:0:0:
256,192,174265,1,0,0:0:0:0:
256,192,174428,1,8,0:0:0:0:
256,192,174917,1,8,0:0:0:0:
256,192,175080,1,0,0:0:0:0:
256,192,175243,1,8,0:0:0:0:
256,192,175406,1,8,0:0:0:0:
256,192,175569,1,8,0:0:0:0:
256,192,175732,1,0,0:0:0:0:
256,192,176221,1,8,0:0:0:0:
256,192,176547,1,8,0:0:0:0:
256,192,176873,1,8,0:0:0:0:
256,192,177036,1,0,0:0:0:0:
256,192,177852,1,8,0:0:0:0:
256,192,178178,1,0,0:0:0:0:
256,192,178341,1,0,0:0:0:0:
256,192,178504,1,0,0:0:0:0:
256,192,178830,1,0,0:0:0:0:
256,192,179156,1,8,0:0:0:0:
256,192,179482,1,8,0:0:0:0:
256,192,179645,1,0,0:0:0:0:
256,192,180460,1,8,0:0:0:0:
256,192,180786,1,8,0:0:0:0:
256,192,180949,1,8,0:0:0:0:
256,192,181112,1,0,0:0:0:0:
256,192,181439,1,0,0:0:0:0:
256,192,181765,1,8,0:0:0:0:
256,192,182091,1,0,0:0:0:0:
256,192,182417,1,0,0:0:0:0:
256,192,182743,1,0,0:0:0:0:
256,192,183069,1,8,0:0:0:0:
256,192,183558,1,8,0:0:0:0:
256,192,183721,1,0,0:0:0:0:
256,192,184047,1,0,0:0:0:0:
256,192,184373,1,8,0:0:0:0:
256,192,184699,1,8,0:0:0:0:
256,192,184862,1,0,0:0:0:0:
256,192,185352,1,0,0:0:0:0:
256,192,185678,1,8,0:0:0:0:
256,192,186004,1,8,0:0:0:0:
256,192,186167,1,8,0:0:0:0:
256,192,186330,1,0,0:0:0:0:
256,192,186656,1,0,0:0:0:0:
256,192,186982,1,8,0:0:0:0:
256,192,187145,1,8,0:0:0:0:
256,192,187308,1,8,0:0:0:0:
256,192,187634,1,4,0:0:0:0:
256,192,188123,1,4,0:0:0:0:
256,192,188612,1,12,0:0:0:0:
256,192,189102,1,12,0:0:0:0:
256,192,189591,1,4,0:0:0:0:
256,192,190080,1,4,0:0:0:0:
256,192,190569,1,12,0:0:0:0:
256,192,191058,1,12,0:0:0:0:
256,192,191547,1,8,0:0:0:0:
256,192,191873,1,0,0:0:0:0:
256,192,192036,1,0,0:0:0:0:
256,192,192199,1,0,0:0:0:0:
256,192,192689,1,8,0:0:0:0:
256,192,193015,1,0,0:0:0:0:
256,192,193178,1,8,0:0:0:0:
256,192,193504,1,0,0:0:0:0:
256,192,193830,1,0,0:0:0:0:
256,192,194156,1,4,0:0:0:0:
256,192,194645,1,4,0:0:0:0:
256,192,195134,1,12,0:0:0:0:
256,192,195623,1,12,0:0:0:0:
256,192,196112,1,4,0:0:0:0:
256,192,196602,1,4,0:0:0:0:
256,192,197091,1,12,0:0:0:0:
256,192,197580,1,12,0:0:0:0:
256,192,198069,1,8,0:0:0:0:
256,192,198395,1,0,0:0:0:0:
256,192,198558,1,0,0:0:0:0:
256,192,198721,1,0,0:0:0:0:
256,192,199210,1,0,0:0:0:0:
256,192,199536,1,0,0:0:0:0:
256,192,199699,1,8,0:0:0:0:
256,192,200025,1,0,0:0:0:0:
256,192,200352,1,0,0:0:0:0:
256,192,200678,1,12,0:0:0:0:
256,192,201167,1,12,0:0:0:0:
256,192,201656,1,4,0:0:0:0:
256,192,202145,1,4,0:0:0:0:
256,192,202634,1,12,0:0:0:0:
256,192,203123,1,12,0:0:0:0:
256,192,203612,1,4,0:0:0:0:
256,192,204102,1,4,0:0:0:0:
256,192,204591,1,12,0:0:0:0:
256,192,204917,1,0,0:0:0:0:
256,192,205080,1,8,0:0:0:0:
256,192,205407,1,0,0:0:0:0:
256,192,205570,1,8,0:0:0:0:
256,192,206059,1,0,0:0:0:0:
256,192,206222,1,8,0:0:0:0:
256,192,206548,1,8,0:0:0:0:
256,192,206711,1,8,0:0:0:0:
256,192,206874,1,0,0:0:0:0:
256,192,207200,1,12,0:0:0:0:
256,192,207526,1,8,0:0:0:0:
256,192,207689,1,0,0:0:0:0:
256,192,208015,1,8,0:0:0:0:
256,192,208178,1,0,0:0:0:0:
256,192,208667,1,0,0:0:0:0:
256,192,208830,1,8,0:0:0:0:
256,192,209157,1,8,0:0:0:0:
256,192,209320,1,0,0:0:0:0:
256,192,209483,1,8,0:0:0:0:
256,192,209809,1,12,0:0:0:0:
256,192,210135,1,0,0:0:0:0:
256,192,210298,1,8,0:0:0:0:
256,192,210625,1,0,0:0:0:0:
256,192,210788,1,8,0:0:0:0:
256,192,211277,1,0,0:0:0:0:
256,192,211440,1,8,0:0:0:0:
256,192,211766,1,8,0:0:0:0:
256,192,211929,1,8,0:0:0:0:
256,192,212092,1,0,0:0:0:0:
256,192,212418,1,12,0:0:0:0:
256,192,212744,1,8,0:0:0:0:
256,192,212907,1,0,0:0:0:0:
256,192,213233,1,8,0:0:0:0:
256,192,213396,1,0,0:0:0:0:
256,192,213884,1,0,0:0:0:0:
256,192,214047,1,8,0:0:0:0:
256,192,214210,1,8,0:0:0:0:
256,192,214373,1,8,0:0:0:0:
256,192,214536,1,0,0:0:0:0:
256,192,214699,1,8,0:0:0:0:
