osu file format v9

[General]
AudioFilename: The Winter Wake.mp3
AudioLeadIn: 0
PreviewTime: 14819
Countdown: 0
SampleSet: Normal
StackLeniency: 0.7
Mode: 0
LetterboxInBreaks: 1

[Editor]
DistanceSpacing: 0.9
BeatDivisor: 2
GridSize: 4

[Metadata]
Title:The Winter Wake
Artist:Elvenking
Creator:Snepif
Version:Normal
Source:
Tags:Folk Power Melodic Metal AlrdyExists

[Difficulty]
HPDrainRate:3
CircleSize:4
OverallDifficulty:3
ApproachRate:5
SliderMultiplier:1.2
SliderTickRate:2

[Events]
//Background and Video events
0,0,"BG.jpg"
//Break Periods
2,98332,104539
2,194086,205629
//Storyboard Layer 0 (Background)
//Storyboard Layer 1 (Fail)
//Storyboard Layer 2 (Pass)
//Storyboard Layer 3 (Foreground)
//Storyboard Sound Samples
//Background Colour Transformations
3,100,163,162,255

[TimingPoints]
74,461.538461538462,4,2,0,25,1,0
14812,461.538461538462,4,1,0,50,1,1
29581,-100,4,1,0,50,0,0
36981,461.538461538462,4,2,0,66,1,0
38820,461.538461538462,4,1,0,50,1,0
45500,461.538461538462,4,1,0,50,1,0
46199,461.538461538462,4,1,0,50,1,0
60745,461.538461538462,4,1,0,50,1,0
64658,461.538461538462,4,1,0,50,1,0
79435,461.538461538462,4,1,0,50,1,1
94204,-100,4,1,0,50,0,0
96973,-100,4,2,0,5,0,0
97902,461.644994998846,4,1,0,50,1,0
105278,461.538461538462,4,1,0,50,1,0
128136,461.538461538462,4,1,0,50,1,0
129268,461.538461538462,4,1,0,50,1,0
134811,461.538461538462,4,1,0,50,1,0
139195,-100,4,2,0,70,0,0
140349,-100,4,1,0,50,0,1
155118,-100,4,1,0,50,0,0
155580,-100,4,2,0,35,0,0
158828,461.538461538462,4,2,0,35,1,0
160672,461.538461538462,4,2,0,35,1,0
166198,461.538461538462,4,2,0,35,1,0
180964,461.538461538462,4,1,0,50,1,1
181195,-100,4,1,0,50,0,0
206829,461.538461538462,4,1,0,50,1,0
208690,458.015267175573,4,1,0,50,1,0
210518,461.538461538462,4,1,0,50,1,0
212362,461.538461538462,4,1,0,50,1,1
226888,-100,4,1,0,50,0,0
227130,461.538461538462,4,1,0,50,1,1
241899,-100,4,1,0,50,0,0

[Colours]
Combo1 : 131,219,237
Combo2 : 18,179,207
Combo3 : 71,135,254

[HitObjects]
124,96,7458,1,2
76,192,7920,1,0
124,288,8381,1,2
232,288,8843,1,2
256,240,9074,1,0
280,288,9304,5,2
388,288,9766,1,0
436,192,10227,1,2
388,96,10689,1,0
336,192,11150,6,0,B|280:160,1,60
228,162,11612,2,0,B|176:192,1,60
144,148,12074,1,2
196,52,12535,2,0,B|316:52,1,120,0|2
368,148,13458,1,0
420,132,13689,1,2
160,64,14812,6,0,B|80:64|64:176,1,120,4|8
64,240,15735,2,0,B|192:240,1,120
240,244,16427,1,8
288,256,16658,2,0,B|368:256|384:352,1,120,4|8
464,272,17581,1,0
464,160,18042,5,0
416,128,18273,2,0,B|352:128,1,60,8|4
256,80,18965,1,8
144,80,19427,1,0
96,176,19888,2,0,B|160:208,1,60,0|8
192,240,20350,5,0
240,256,20581,1,8
292,240,20811,1,0
344,256,21042,1,8
316,152,21504,2,0,B|300:72,2,60,0|8|0
368,144,22196,6,0,B|448:144|464:256,1,120,4|8
448,320,23119,2,0,B|320:320,1,120
272,320,23811,1,8
228,292,24042,2,0,B|148:292|148:196,1,120,4|8
44,252,24965,1,0
52,144,25427,5,0
96,112,25658,2,0,B|160:112,1,60,8|4
260,80,26350,1,8
368,76,26811,1,0
384,184,27273,1,0
336,208,27504,2,0,B|272:224,1,60,8|0
224,240,27965,5,8
184,204,28196,1,0
132,196,28427,1,8
64,112,28888,2,0,B|112:112|128:80,1,60,0|8
172,84,29350,1,0
224,96,29581,6,0,B|384:96,2,120,4|0|0
204,148,30735,1,8
236,192,30965,1,0
292,192,31196,2,0,B|416:192,2,120,4|0|8
284,244,32350,2,0,B|224:264|164:244,2,120,0|0|4
232,152,33735,5,0
160,72,34196,1,8
60,112,34658,1,0
256,192,35119,12,2,36981
176,80,37442,5,2
256,152,37904,1,2
336,80,38365,1,2
256,152,38820,1,4
256,208,39050,1,0
96,200,39743,6,0,B|64:136|112:72,1,120,0|8
212,76,40666,1,0
304,132,41127,1,8
396,76,41589,1,0
420,124,41820,1,8
420,232,42281,5,8
400,280,42512,1,4
352,304,42743,1,8
300,296,42973,1,0
344,196,43435,6,0,B|344:116|344:116|296:68,1,120,0|8
208,80,44358,1,4
116,136,44820,1,8
96,244,45281,1,0
148,244,45500,1,8
244,292,45961,5,8
300,292,46199,1,4
356,292,46429,1,8
408,292,46660,1,0
392,184,47122,6,0,B|392:104|392:104|360:56,1,120,0|8
316,68,47814,1,0
208,64,48275,1,0
156,64,48506,1,8
140,172,48968,2,0,B|200:180,2,60,0|0|8
176,272,49891,6,0,B|240:272|304:224,1,120,4|8
344,232,50583,2,0,B|376:248|408:232,1,60
404,180,51045,2,0,B|404:116,1,60
452,96,51506,2,0,B|424:40,1,60
316,56,52199,5,8
208,56,52660,2,0,B|208:200,1,120,0|8
132,100,53583,2,0,B|132:260,1,120,0|8
196,308,54506,2,0,B|260:308,1,60,0|8
364,304,55199,6,0,B|364:272|364:240,1,60,8|4
408,212,55660,1,8
364,180,55891,1,0
432,96,56352,5,0
324,96,56814,2,0,B|260:64|196:80,1,120,8|4
100,84,57737,2,0,B|68:164|116:228,1,120,8|0
132,244,58429,1,8
236,276,58891,1,8
284,248,59122,1,0
340,248,59352,1,8
388,220,59583,1,0
348,120,60045,5,0
252,68,60506,1,8
200,64,60745,2,0,B|104:112|104:224,1,180,0|8
92,312,61898,2,0,B|124:312|140:280,1,60
192,280,62360,1,8
300,280,62821,6,0,B|428:300,1,120,0|8
432,192,63745,2,0,B|464:128,1,60,0|8
408,124,64206,2,0,B|392:60,1,60,8|0
340,64,64658,1,4
188,120,65350,5,0
136,120,65581,1,4
56,260,66273,1,0
80,308,66504,1,4
136,308,66734,2,0,B|256:308,3,120,8|0|0|8
304,280,68350,1,4
336,100,69042,5,0
280,100,69273,1,4
124,148,69965,1,0
108,200,70196,1,0
124,252,70427,2,0,B|168:240|168:240|252:240,1,120,8|0
204,340,71350,1,8
312,356,71811,1,0
316,304,72042,6,0,B|396:208|396:208|396:144,1,180
440,120,72965,1,4
348,64,73427,2,0,B|252:64,1,60,8|0
236,80,73888,6,0,B|188:208|188:208|124:224,1,180,4|0
112,256,74811,1,4
196,324,75273,2,0,B|260:324,1,60,8|0
308,304,75734,6,0,B|388:304|404:224,1,120,0|8
436,200,76427,2,0,B|468:136,1,60,0|8
408,140,76888,2,0,B|360:76,1,60,0|8
328,120,77350,1,0
276,132,77581,5,12
224,116,77811,1,0
148,192,78273,1,0
252,224,78734,1,0
252,224,78965,1,4
288,324,79435,6,0,B|224:276|144:308,1,120,4|8
120,300,80127,1,8
76,268,80358,1,0
64,160,80819,1,8
124,68,81281,6,0,B|188:68|268:100,1,120,4|8
296,96,81973,1,8
344,124,82204,2,0,B|344:252,2,120,0|8|4
268,204,83588,1,8
352,272,84050,5,0
304,288,84281,1,8
256,304,84511,1,0
208,288,84742,1,8
160,272,84973,1,4
76,204,85435,2,0,B|76:140,1,60,8|0
144,60,86127,1,0
144,60,86588,6,0,B|208:60,1,60,8|4
212,168,87281,1,8
264,168,87511,1,8
320,168,87742,2,0,B|448:168,1,120,0|8
472,272,88665,2,0,B|408:320|328:288,1,120,4|8
324,256,89358,1,0
164,248,90050,6,0,B|140:312|68:344,2,120,0|4|8
180,196,91204,1,0
180,88,91665,1,8
256,192,92358,12,4,94204
256,192,94896,12,0,97204
226,192,97902,6,0,B|298:192,1,60
336,160,105739,6,0,B|208:160,2,120,0|0|8
336,216,106893,1,4
252,284,107354,2,0,B|220:300|188:268,1,60,0|8
108,216,108047,2,0,B|76:152,2,60,0|0|8
208,172,108970,5,0
316,172,109431,1,8
360,200,109662,1,0
360,256,109893,2,0,B|360:320,2,60,0|0|8
260,300,110816,6,0,B|228:236,3,60,12|0|8|0
180,240,111739,1,8
136,208,111970,1,0
116,156,112201,1,8
152,56,112662,6,0,B|232:56,3,60,12|0|8|0
264,64,113585,1,8
312,44,113816,1,0
364,64,114047,1,8
436,144,114508,6,0,B|468:168|452:208,3,60,12|0|8|0
416,236,115431,2,0,B|384:300,1,60,8|0
336,304,115893,1,8
228,324,116354,6,0,B|196:308|148:324,1,60,12|0
120,292,116816,2,0,B|56:244,1,60,8|0
40,212,117278,2,0,B|40:176|72:156,1,60,8|0
68,108,117739,1,8
168,144,118201,6,0,B|196:116|168:68,3,60,0|12|0|8
212,48,119124,1,8
252,148,119585,1,0
252,148,119816,1,8
332,76,120278,2,0,B|396:120|360:200,3,120,8|0|8|8
416,200,121893,1,4
376,300,122354,5,8
268,320,122816,2,0,B|204:320,1,60,0|8
156,304,123278,2,0,B|108:256,2,60,0|0|8
256,256,124201,5,8
308,240,124431,1,0
360,256,124662,1,4
436,176,125124,5,8
436,120,125354,1,0
436,68,125585,1,4
380,68,125816,2,0,B|348:68|348:68|316:52,1,60,0|8
272,68,126278,1,0
220,52,126508,2,0,B|156:60,1,60,4|0
108,80,126970,6,0,B|76:144,1,60,8|0
80,188,127431,1,4
116,288,127893,1,8
172,288,128136,1,0
228,288,128366,1,4
312,220,128828,5,8
364,204,129059,1,0
416,220,129268,2,0,B|432:156,3,60,0|0|8|0
360,80,130421,1,8
252,76,130883,1,0
200,80,131114,6,0,B|120:176|120:176|120:240,1,180,4|0
84,272,132037,1,4
112,316,132267,1,0
164,316,132498,2,0,B|260:316,1,60,8|0
276,304,132960,6,0,B|324:176|324:176|388:160,1,180,4|0
404,128,133883,1,4
368,88,134114,1,0
316,80,134344,2,0,B|252:80,1,60,8|0
200,80,134811,6,0,B|120:80|104:160,1,120,0|8
76,184,135503,2,0,B|44:248,1,60,0|8
104,248,135964,2,0,B|152:312,1,60,0|8
188,268,136426,1,0
240,264,136657,6,0,B|256:328,1,60,4|0
328,244,137349,1,4
408,172,137810,1,0
432,124,138041,1,4
324,104,138503,6,4,B|264:80|204:104,1,120
116,160,139426,1,4
132,268,139887,1,4
224,324,140349,6,0,B|288:276|368:308,1,120,4|8
392,300,141041,1,8
436,268,141272,1,0
448,160,141734,1,8
388,68,142195,6,0,B|324:68|244:100,1,120,4|8
216,96,142887,1,8
168,124,143118,2,0,B|168:252,2,120,0|8|4
244,204,144503,1,8
160,272,144964,5,0
208,288,145195,1,8
256,304,145426,1,0
304,288,145657,1,8
352,272,145887,1,4
436,204,146349,2,0,B|436:140,1,60,8|0
364,64,147041,1,0
364,64,147503,6,0,B|300:64,1,60,0|4
248,64,147964,1,0
264,116,148195,5,8
248,168,148426,1,8
192,168,148657,2,0,B|64:168,1,120,0|8
40,272,149580,2,0,B|104:320|184:288,1,120,4|8
188,256,150272,1,0
348,248,150964,6,0,B|372:312|444:344,2,120,0|4|8
332,196,152118,1,0
332,88,152580,1,8
256,192,153272,12,4,155118
180,140,155810,5,0
180,196,156041,1,0
288,196,156503,1,0
340,204,156734,1,0
360,152,156964,6,0,B|408:88,1,60
356,68,157426,2,0,B|324:52|276:68,1,60,0|2
244,64,157887,2,0,B|164:96,4,60,0|2|0|2|4
192,160,159289,5,0
84,160,159751,1,2
84,268,160212,1,0
184,308,160672,5,0
184,308,160902,1,2
284,268,161364,1,2
284,268,161595,1,0
284,268,161825,1,2
384,308,162287,1,2
384,308,162518,2,0,B|460:196|384:80,1,240,4|2
300,148,163902,5,0
232,64,164364,2,0,B|164:96,3,60,0|2|0|2
72,108,165518,2,0,B|72:172,1,60,2|0
120,188,165979,1,2
172,204,166198,2,0,B|300:232|364:344,2,240,4|2|2
320,136,168736,5,2
244,280,169428,1,2
296,184,169890,1,4
112,68,170813,6,0,B|112:316,1,240
164,296,171967,2,0,B|220:336,1,60,2|0
256,296,172428,2,0,B|292:296|324:264,1,60,2|0
356,304,172890,2,0,B|432:312,1,60,2|0
456,272,173351,1,2
428,228,173582,2,0,B|436:160|376:120,2,120,4|0|0
244,116,175428,6,0,B|204:172,1,60,0|2
156,168,175890,1,0
128,212,176121,2,0,B|180:300|292:280,1,180,2|0
384,312,177274,6,0,B|444:200|392:76,2,240,4|2|2
224,312,179813,1,4
68,264,180505,1,4
100,160,180964,6,0,B|164:128|228:128,1,120,4|8
268,128,181656,1,0
312,100,181887,1,0
420,112,182348,1,4
420,272,183040,5,0
312,272,183502,1,8
216,324,183963,1,0
112,304,184425,1,8
112,304,184656,1,4
96,144,185348,5,8
96,144,185579,1,8
200,108,186040,1,4
360,96,186733,5,0
360,204,187194,1,8
252,204,187656,1,0
360,204,188117,1,8
368,256,188348,2,0,B|256:304|132:256,4,240,4|0|4|0|4
452,188,192502,6,0,B|452:124,1,60,8|0
408,96,192963,2,0,B|376:80|328:96,1,60,8|0
296,96,193425,2,0,B|216:64,2,60,8|0|4
160,112,206829,5,4
160,112,207059,1,0
160,224,207521,1,0
272,224,207982,1,0
272,224,208213,1,0
256,192,208690,12,0,211902
320,304,212362,6,0,B|192:304,2,120,4|8|0
420,268,213746,1,8
432,160,214208,6,0,B|368:160|288:192,1,120,4|8
264,200,214900,1,8
252,148,215131,2,0,B|124:148,1,120,0|8
112,252,216054,1,4
112,252,216515,1,8
200,316,216977,5,0
244,288,217208,1,0
292,316,217438,1,8
340,288,217669,1,0
388,316,217900,1,4
416,212,218361,1,8
416,212,218592,1,0
412,104,219054,1,8
304,100,219515,1,4
256,256,220208,6,0,B|192:212,1,60,0|8
160,196,220669,2,0,B|128:68,2,120,4|8|4
260,240,222054,1,8
260,240,222285,1,8
392,144,222977,6,0,B|392:304,2,120,0|4|8
428,104,224131,1,0
324,72,224592,1,8
256,192,225285,12,4,227130
320,304,227591,6,0,B|192:304,1,120,8|0
96,272,228514,1,8
152,180,228976,6,0,B|216:180|296:132,1,120,4|8
316,124,229668,1,8
276,88,229899,2,0,B|148:88,1,120,0|8
56,128,230822,1,4
56,236,231283,1,8
128,316,231745,5,0
176,288,231976,1,0
224,316,232206,1,8
272,288,232437,1,0
320,316,232668,1,4
428,320,233129,1,8
428,320,233360,1,0
428,212,233822,1,8
428,104,234283,1,4
292,192,234976,6,0,B|224:192,1,60,0|8
176,192,235437,2,0,B|144:64,2,120,8|8|4
256,264,236822,1,8
256,264,237053,1,0
360,240,237514,1,4
256,192,238206,12,4,241899
