osu file format v9

[General]
AudioFilename: The Winter Wake.mp3
AudioLeadIn: 0
PreviewTime: 14819
Countdown: 0
SampleSet: Soft
StackLeniency: 0.7
Mode: 0
LetterboxInBreaks: 1

[Editor]
DistanceSpacing: 0.8
BeatDivisor: 4
GridSize: 4

[Metadata]
Title:The Winter Wake
Artist:Elvenking
Creator:Snepif
Version:Hard
Source:
Tags:Folk Power Melodic Metal AlrdyExists

[Difficulty]
HPDrainRate:6
CircleSize:4
OverallDifficulty:5
ApproachRate:7
SliderMultiplier:2.1
SliderTickRate:2

[Events]
//Background and Video events
0,0,"BG.jpg"
//Break Periods
2,98332,104378
2,194087,205929
//Storyboard Layer 0 (Background)
//Storyboard Layer 1 (Fail)
//Storyboard Layer 2 (Pass)
//Storyboard Layer 3 (Foreground)
//Storyboard Sound Samples
//Background Colour Transformations
3,100,163,162,255

[TimingPoints]
74,461.538461538462,4,2,0,20,1,0
14812,461.538461538462,4,1,0,50,1,1
29580,-100,4,1,0,50,0,0
36981,461.538461538462,4,2,0,20,1,0
38820,461.538461538462,4,1,0,50,1,0
45500,461.538461538462,4,1,0,50,1,0
46199,461.538461538462,4,1,0,50,1,0
60745,461.538461538462,4,1,0,50,1,0
64658,461.538461538462,4,1,0,50,1,0
79435,461.538461538462,4,1,0,50,1,1
94204,-100,4,1,0,50,0,0
97088,-100,4,2,0,5,0,0
97902,461.644994998846,4,1,0,50,1,0
105278,461.538461538462,4,1,0,50,1,0
128136,461.538461538462,4,1,0,50,1,0
129268,461.538461538462,4,1,0,50,1,0
134811,461.538461538462,4,1,0,50,1,0
140349,-100,4,1,0,50,0,1
155118,-100,4,1,0,50,0,0
156849,-153.846153846154,4,2,0,35,0,0
158828,461.538461538462,4,2,0,35,1,0
160672,461.538461538462,4,2,0,35,1,0
160787,-153.846153846154,4,2,0,35,0,0
166198,461.538461538462,4,2,0,35,1,0
166198,-153.846153846154,4,2,0,35,0,0
180964,461.538461538462,4,1,0,50,1,1
181195,-100,4,1,0,50,0,0
206829,461.538461538462,4,1,0,50,1,0
208690,458.015267175573,4,1,0,50,1,0
210518,461.538461538462,4,1,0,50,1,0
212362,461.538461538462,4,1,0,50,1,1
226888,-100,4,1,0,50,0,0
227130,461.538461538462,4,1,0,50,1,1
241899,-100,4,1,0,50,0,0

[Colours]
Combo1 : 131,219,237
Combo2 : 18,179,207
Combo3 : 71,135,254

[HitObjects]
152,140,7458,1,2
100,204,7689,1,0
204,204,7920,2,0,B|176:256|204:304,1,105,2|0
360,140,8381,1,2
412,204,8612,1,0
308,204,8843,2,0,B|336:256|308:304,2,105,2|2|2
240,144,9535,5,0
156,144,9766,1,2
84,104,9997,1,0
100,184,10227,1,2
84,264,10458,1,0
84,264,10689,1,2
84,264,10920,1,0
256,300,11150,6,0,B|288:316|328:284|360:300,1,105,2|2
428,252,11612,1,2
392,176,11843,2,0,B|340:152|288:176,1,105,0|2
208,156,12304,1,0
128,184,12535,2,0,B|152:236|128:288,1,105,2|0
208,312,12997,1,2
284,280,13227,1,0
360,312,13458,1,2
360,312,13689,1,2
352,48,14812,5,4
336,152,15042,1,0
440,176,15273,1,8
440,176,15504,2,0,B|412:232|440:280,1,105,0|8
336,304,15965,1,0
232,336,16196,1,8
136,304,16427,1,8
136,304,16658,5,8
136,304,16888,1,0
80,216,17119,1,8
120,120,17350,1,0
48,44,17581,1,8
120,120,17812,1,0
220,88,18042,1,8
220,88,18273,1,0
220,88,18504,6,0,B|232:120|200:160|220:192,1,105,12|8
300,260,18965,1,8
216,324,19196,2,0,B|164:316|164:316|104:324,1,105,0|8
84,224,19658,1,0
156,148,19888,1,8
228,224,20119,1,0
332,224,20350,6,0,B|396:224|416:168,1,105,4|8
324,120,20812,2,0,B|296:72|268:32,2,105,0|8|0
312,224,21504,1,0
292,228,21619,1,0
272,232,21735,2,0,B|224:248|224:248|160:248,1,105,12|8
64,244,22196,5,12
72,140,22427,2,0,B|124:144|176:140,1,105,0|8
204,40,22888,2,0,B|256:36|312:40,1,105,0|8
335,139,23350,2,0,B|388:144|440:140,1,105,0|8
440,140,23812,1,8
440,140,24042,1,8
472,244,24273,6,0,B|424:248|368:244,1,105,0|8
272,288,24735,1,0
172,320,24965,1,8
228,232,25196,1,0
128,268,25427,1,8
184,180,25658,1,0
152,80,25888,5,8
256,104,26119,1,8
360,80,26350,1,8
256,104,26581,1,0
328,180,26812,2,0,B|348:232|328:284,1,105,8|0
228,308,27273,2,0,B|172:300|128:352,1,105,8|0
64,268,27735,2,0,B|80:212|52:148,1,105,0|8
152,116,28196,2,0,B|200:144|256:144,1,105,0|8
252,144,28658,1,0
252,248,28888,5,0
252,248,29004,1,0
252,248,29119,1,8
356,264,29350,1,8
356,264,29465,1,0
356,264,29581,2,0,B|436:248|468:184|468:184|420:104,1,210,8|0
332,88,30273,1,0
332,88,30388,1,0
332,88,30504,1,8
228,92,30735,6,0,B|216:128|240:160|228:200,1,105,8|0
144,132,31196,2,0,B|184:196|108:276|144:344,1,210,8|0
236,292,31888,1,8
236,292,32119,1,0
340,292,32350,1,8
340,292,32581,1,0
396,204,32812,1,8
396,204,33042,1,0
356,108,33273,6,0,B|252:112|144:108,1,210,8|0
256,192,33965,1,0
256,192,34081,1,0
256,192,34196,1,8
256,192,34658,1,0
256,192,35119,1,4
256,192,35235,12,2,36981
416,64,37211,5,0
464,128,37442,1,2
416,192,37673,1,0
464,256,37904,1,2
416,320,38134,1,0
464,256,38365,1,2
416,192,38596,1,2
312,160,38820,5,4
280,64,39050,1,4
176,80,39281,2,0,B|156:144|208:184,1,105,0|8
168,276,39743,1,0
72,320,39973,1,8
256,64,40435,5,4
256,320,40896,1,4
256,64,41358,1,4
344,256,41820,6,0,B|300:224|236:232,1,105,8|0
152,280,42281,1,8
88,200,42512,1,4
184,160,42743,1,12
88,200,42973,5,0
184,160,43204,1,0
248,76,43435,2,0,B|268:192|392:228,1,210,8|0
484,208,44127,1,0
484,208,44358,1,4
460,308,44589,2,0,B|364:360|236:336,1,210,8|0
320,140,45500,5,8
112,120,45961,2,0,B|176:120|176:120|224:152,1,105,8|4
304,96,46429,1,8
408,96,46660,1,0
464,184,46891,1,0
464,288,47122,2,0,B|408:276|356:288,1,105,0|8
260,248,47583,1,8
260,248,47699,1,0
260,248,47814,1,4
64,320,48275,5,0
96,220,48506,1,12
304,184,48968,1,0
292,80,49199,1,0
188,68,49429,1,12
432,320,49891,6,0,B|432:256|432:256|400:224|400:224|400:96,1,210,0|12
256,72,50699,2,0,B|256:104|272:120,1,52.5
320,216,51045,1,0
420,244,51275,1,12
484,164,51506,1,0
444,68,51737,1,4
341,53,51968,1,0
289,141,52199,1,8
80,64,52660,6,0,B|0:164|80:272,1,210,0|8
164,304,53352,1,8
232,224,53583,2,0,B|296:224|328:272,1,105,0|8
448,96,54275,5,0
384,296,54737,1,8
320,96,55199,2,0,B|240:96|240:96|192:128,1,105,8|4
116,112,55660,5,8
60,200,55891,1,0
112,288,56122,2,0,B|160:320|212:288,1,105,0|8
296,228,56583,1,8
452,88,57045,6,0,B|408:196|452:296,1,210
348,316,57737,1,8
348,316,57968,2,0,B|284:220|172:220,1,210
104,300,58660,1,8
172,220,58891,1,0
104,300,59122,1,4
104,300,59352,5,8
208,304,59583,2,0,B|288:304|288:304|336:288,1,105,0|0
416,264,60045,2,0,B|416:200|448:152|448:152|432:104|368:88,1,210,0|8
352,192,60745,2,0,B|320:240|352:320,1,105,4|0
256,236,61206,5,0
264,184,61321,1,0
256,132,61437,2,0,B|128:132,1,105,8|0
56,176,61898,1,0
72,280,62129,1,0
168,312,62360,1,12
56,176,62821,5,4
168,312,63283,1,12
356,216,63745,5,0
256,192,63975,1,8
256,88,64206,1,8
256,192,64437,1,0
152,216,64658,1,12
256,312,65119,5,4
168,296,65350,1,0
168,264,65465,1,0
168,232,65581,1,8
376,208,66042,5,8
376,104,66273,1,0
376,104,66388,1,0
376,104,66504,1,8
272,104,66734,2,0,B|272:135|272:135|256:168,2,52.5,0|0|8
180,156,67196,2,0,B|148:156|148:156|116:140,2,52.5,0|0|8
144,56,67657,1,0
144,56,67888,1,8
248,64,68119,1,0
248,64,68350,1,8
388,220,68811,5,8
352,320,69042,1,0
352,320,69157,1,0
352,320,69273,2,0,B|320:272|320:272|208:272|160:272,1,210,8|8
72,224,69965,1,0
56,176,70081,1,0
72,128,70196,1,8
152,56,70427,5,8
256,240,70888,1,4
360,56,71350,1,8
64,144,71811,1,0
168,144,72042,6,0,B|328:144|328:144|376:176,1,210,12|0
280,224,72734,1,0
280,224,72850,1,0
280,224,72965,1,0
344,304,73196,1,0
448,304,73427,2,0,B|449:226|449:226|432:192,1,105,0|8
424,96,73888,6,0,B|264:96|264:96|232:48,1,210,4|8
168,136,74581,2,0,B|88:136,2,52.5,0|0|8
128,240,75042,1,0
232,240,75273,2,0,B|312:320,1,105,0|8
408,336,75734,1,4
336,192,76196,5,8
256,128,76427,1,0
176,192,76657,1,8
256,256,76888,1,0
400,192,77119,5,8
256,64,77350,1,0
112,192,77581,1,12
256,320,77811,1,4
416,64,78273,5,0
352,256,78734,1,0
440,320,78965,1,12
120,56,79435,5,4
224,80,79665,1,0
328,48,79896,1,8
432,80,80127,2,0,B|400:132|432:180,1,105,0|0
460,280,80588,2,0,B|408:308|356:280,1,105,0|8
256,312,81050,1,4
152,288,81281,6,0,B|152:176,3,105,4|0|8|0
184,80,82204,2,0,B|248:96|264:160,1,105,0|0
368,136,82665,1,8
368,136,82781,1,0
368,136,82896,1,0
448,208,83127,1,4
360,264,83358,1,0
256,264,83588,2,0,B|236:320|176:336,1,105,8|0
172,228,84050,6,0,B|172:168|172:112,2,105,0|0|8
68,232,84742,1,4
48,128,84973,2,0,B|128:48|240:32,1,210,4|8
336,48,85665,2,0,B|392:68|424:136,1,105,0|4
428,220,86127,1,0
328,192,86358,1,8
328,192,86473,1,0
328,192,86588,1,0
224,224,86819,5,4
160,304,87050,1,0
224,224,87281,1,8
160,304,87511,1,0
64,256,87742,2,0,B|64:144|64:144|128:48,1,210,4|8
224,48,88434,1,8
192,148,88665,2,0,B|276:148|276:148|380:64,1,210,4|12
460,128,89358,1,0
376,192,89588,1,0
464,256,89819,1,0
376,312,90050,5,8
376,312,90165,1,0
376,312,90281,2,0,B|328:264|248:312,1,105,0|4
176,320,90742,1,0
196,216,90973,1,8
96,248,91204,2,0,B|32:152|96:40,1,210,0|4
172,116,91896,2,0,B|412:116,2,210,12|12|12
384,32,93281,5,4
448,112,93511,1,8
384,192,93742,1,0
448,272,93973,1,8
384,352,94204,1,4
384,352,94319,1,0
384,352,94434,1,8
256,192,95819,12,0,97204
256,192,97902,5,0
256,192,98132,1,0
96,64,105278,5,0
200,64,105508,2,0,B|248:96|312:64,1,105,0|8
408,64,105970,2,0,B|440:112|408:192,1,105,0|8
416,272,106431,1,0
208,304,106893,6,0,B|208:272|224:240|224:240|224:176,1,105,4|8
120,224,107354,2,8,B|120:192|136:160|136:160|136:96,1,105,0|8
240,144,107816,1,8
240,144,107931,1,0
240,144,108047,1,0
336,104,108277,1,0
336,104,108508,1,8
440,288,108970,6,0,B|440:224|472:176|472:176|456:128|392:112,1,210,4|8
348,264,109777,1,0
348,264,109893,1,0
252,308,110124,1,0
164,116,110585,1,8
256,64,110816,1,4
256,64,111047,1,0
360,64,111277,6,0,B|392:116|360:164,1,105,8|0
360,162,111739,1,8
284,236,111970,2,0,B|252:184|284:136,1,105,0|8
484,320,112431,2,0,B|431:321|376:320,1,105,0|8
308,244,112893,2,0,B|256:240|204:244,1,105,0|8
132,320,113354,2,0,B|80:324|28:320,1,105,0|8
27,319,113816,1,0
164,160,114277,6,0,B|108:160|56:160,1,105,8|4
140,92,114739,2,0,B|244:92,1,105,0|8
328,160,115201,2,0,B|272:160|220:160,2,105,0|8|0
432,160,115893,1,8
432,160,116124,1,0
400,260,116354,5,12
432,160,116585,1,0
332,192,116816,1,8
284,100,117047,2,0,B|232:128|184:100,1,105,0|8
88,56,117508,2,0,B|60:108|88:156,1,105
87,155,117970,1,0
60,256,118201,5,12
160,232,118431,1,0
88,156,118662,1,8
60,256,118893,1,0
136,328,119124,2,0,B|236:348|236:348|344:348,1,210,8|0
380,248,119816,6,0,B|428:360,2,105,8|0|0
432,156,120508,2,0,B|480:268,2,105,8|0|0
328,140,121201,2,0,B|384:116|384:44,1,105,0|8
280,68,121662,2,0,B|248:36|184:36,1,105,0|4
280,68,122354,1,8
136,128,122701,6,0,B|120:144|120:144|120:176,1,52.5,0|8
216,224,123047,1,0
128,280,123277,1,8
216,224,123508,1,0
128,280,123739,1,12
256,112,124201,5,8
256,216,124431,1,0
256,216,124547,1,0
256,216,124662,1,8
44,220,125124,5,8
92,128,125354,1,0
92,128,125470,1,0
92,128,125585,1,12
192,100,125816,1,0
192,100,125931,1,0
192,100,126047,1,8
288,144,126277,1,0
288,144,126393,1,0
288,144,126508,2,0,B|340:136|340:136|392:136,1,105,8|0
440,232,126970,5,8
440,232,127201,1,0
440,232,127431,1,12
256,128,127893,5,8
416,192,128136,1,0
416,200,128251,1,0
416,208,128366,2,0,B|320:224|320:224|256:352,1,210,8|8
168,336,129059,5,0
168,336,129174,1,0
168,336,129268,2,0,B|120:288|168:224,1,105,12|8
336,128,129960,1,4
424,320,130421,1,8
216,280,130883,1,4
184,184,131114,6,0,B|264:184|264:184|408:232,1,210,12|0
384,120,131806,2,0,B|432:136,2,52.5,0|0|8
280,96,132268,1,0
176,96,132498,2,0,B|112:112|112:192,1,105,8|0
136,272,132960,6,0,B|216:272|216:272|360:320,1,210,12|0
424,248,133652,2,0,B|480:248,2,52.5,0|0|8
456,144,134114,1,0
360,96,134344,2,0,B|344:160|264:160,1,105,8|0
256,56,134811,1,12
176,192,135272,5,8
256,128,135503,1,0
336,192,135734,1,8
256,256,135964,1,0
112,192,136195,5,8
256,64,136426,1,0
400,192,136657,1,12
256,320,136887,1,0
184,124,137349,5,0
184,124,137811,1,0
100,64,138041,1,12
384,288,138503,6,0,B|352:192|416:80,1,210,4|8
304,64,139195,1,8
304,64,139311,1,0
304,64,139426,1,0
304,168,139657,1,0
392,224,139887,1,8
392,224,140118,1,8
392,328,140349,5,4
288,304,140580,1,0
184,336,140811,1,8
80,304,141041,2,0,B|112:252|80:204,1,105,0|0
52,104,141503,2,0,B|104:76|156:104,1,105,0|8
256,72,141964,1,4
360,96,142195,6,0,B|360:208,3,105,4|0|8|0
328,304,143118,2,0,B|264:288|248:224,1,105,0|0
144,248,143580,1,8
144,248,143695,1,0
144,248,143811,1,0
64,176,144041,1,4
152,120,144272,1,0
256,120,144503,2,0,B|276:64|336:48,1,105,8|0
340,156,144964,6,0,B|340:216|340:272,2,105,8|0|8
444,152,145657,1,4
464,256,145887,2,0,B|384:336|272:352,1,210,4|8
176,336,146580,2,0,B|120:316|88:248,1,105,0|4
84,164,147041,1,0
184,192,147272,1,8
184,192,147387,1,0
184,192,147503,1,0
288,160,147734,5,4
352,80,147964,1,0
288,160,148195,1,8
352,80,148426,1,0
448,128,148657,2,0,B|448:240|448:240|384:336,1,210,4|8
288,336,149349,1,8
320,236,149580,2,0,B|236:236|236:236|132:320,1,210,4|12
52,256,150272,1,0
136,192,150503,1,0
48,128,150734,1,0
136,72,150964,5,8
136,72,151080,1,0
136,72,151195,2,0,B|184:120|264:72,1,105,0|4
336,64,151657,1,0
316,168,151887,1,8
416,136,152118,2,0,B|480:232|416:344,1,210,0|4
340,268,152811,2,0,B|100:268,2,210,12|12|12
128,352,154195,5,4
64,272,154426,1,8
128,192,154657,1,0
64,112,154887,1,8
128,32,155118,1,4
128,32,155234,1,0
128,32,155349,1,8
96,64,156964,6,0,B|112:144,1,68.2499987795949,2|0
136,192,157426,2,0,B|216:192,1,68.2499987795949,2|0
256,152,157887,2,0,B|336:184,1,68.2499987795949,2|0
344,240,158349,2,0,B|280:288,2,68.2499987795949,2|2|6
96,64,159289,5,0
96,200,159751,1,2
232,200,160212,1,0
368,200,160672,1,2
300,176,160902,2,0,B|300:240,2,34.1249993897975,0|0|2
304,104,161364,5,0
252,56,161595,1,2
184,76,161825,2,0,B|136:140|184:220,1,136.49999755919,0|2
228,252,162518,2,0,B|308:220|372:300,3,136.49999755919,6|0|2|2
368,144,164364,5,2
320,200,164595,1,0
248,200,164825,1,2
200,256,165056,1,0
152,128,165518,5,0
112,184,165748,1,2
136,248,165979,1,0
200,280,166198,2,0,B|328:280|376:152,1,204.749996338785,6|0
368,144,167005,1,0
368,112,167121,1,2
240,64,167582,1,0
104,64,168044,6,0,B|120:96|120:144,1,68.2499987795949,0|2
112,200,168505,1,0
184,208,168736,2,0,B|168:240|168:288,1,68.2499987795949,2|0
200,336,169198,1,2
272,336,169428,2,0,B|352:336,2,68.2499987795949,0|2|4
256,200,170351,1,2
272,336,170813,5,4
392,272,171274,1,0
432,216,171505,1,0
392,160,171736,5,2
432,104,171967,1,0
376,64,172198,1,0
320,104,172428,1,0
264,64,172659,1,2
208,104,172890,1,0
140,104,173121,2,0,B|44:104,1,68.2499987795949
44,168,173582,6,0,B|44:344|236:344,1,272.99999511838,6|2
248,212,174967,1,2
116,248,175428,2,0,B|116:200|148:184,1,68.2499987795949,2|0
192,144,175890,1,2
256,124,176121,2,0,B|328:104|400:132|440:204,1,204.749996338785,0|2
472,324,177274,6,0,B|376:276|264:324,1,204.749996338785,4|0
240,324,178082,1,0
204,320,178198,2,0,B|76:304|44:176,1,204.749996338785,2|0
60,168,179005,1,0
80,140,179121,5,0
136,104,179351,1,0
204,92,179582,1,2
244,36,179813,1,0
304,68,180044,1,0
372,72,180274,1,2
304,68,180505,1,0
372,72,180736,1,2
448,144,180964,6,0,B|400:176|400:176|400:336,1,210,4|8
296,336,181656,1,0
248,320,181771,1,0
200,336,181887,1,8
120,264,182117,5,0
160,168,182348,1,0
120,264,182579,1,8
160,168,182810,1,0
264,200,183040,1,8
160,168,183271,1,0
264,200,183502,1,8
416,320,183964,6,0,B|464:208|416:96,1,210,8|0
320,128,184656,1,12
288,224,184887,1,0
184,192,185117,1,8
80,176,185348,5,0
64,152,185464,1,0
48,128,185579,2,0,B|80:80|80:80|240:80,1,210,8|4
416,80,186502,5,4
400,112,186617,1,0
416,144,186733,1,8
400,176,186848,1,0
416,208,186964,2,0,B|416:272,3,52.5,0|0|0|0
400,288,187425,2,0,B|400:352,3,52.5,0|0|0|0
352,344,187887,2,0,B|240:344|128:344,1,210,8|4
64,272,188579,5,0
96,216,188810,1,8
64,160,189040,1,0
96,104,189271,1,0
160,104,189502,1,0
216,72,189733,1,8
272,104,189964,1,0
296,248,190194,5,12
352,216,190425,1,0
416,216,190656,1,8
448,160,190887,1,0
416,104,191117,1,0
352,104,191348,1,0
296,72,191579,1,8
240,104,191810,1,0
136,72,192040,6,0,B|88:168,2,105,8|8|8
208,152,192733,2,0,B|200:272,2,105,0|8|8
304,200,193425,2,0,B|328:312,1,105,8|0
408,232,193887,1,12
256,256,206829,5,4
384,280,207059,1,0
256,64,207521,1,0
256,256,207982,1,0
128,280,208213,1,4
256,64,208690,1,4
256,192,208919,12,0,210518
112,184,210748,5,8
136,188,210864,1,0
160,184,210979,1,0
256,140,211210,1,8
256,140,211325,1,0
256,140,211441,1,0
256,244,211671,5,8
344,188,211902,1,0
368,192,212018,1,0
392,188,212133,1,8
416,288,212362,5,4
312,312,212592,1,0
208,288,212823,1,8
128,216,213054,1,0
224,168,213285,1,0
128,216,213515,1,0
224,168,213746,1,4
184,72,213977,1,8
80,80,214208,6,0,B|80:144|112:208|112:208|80:288,2,210,4|8|0
184,96,215362,2,0,B|200:176|232:208,1,105,0|4
264,292,215823,1,8
264,292,216054,1,0
368,272,216285,1,0
452,208,216515,2,0,B|448:152|400:112,1,105,8|0
320,56,216977,5,0
220,84,217208,1,0
260,180,217438,1,8
160,208,217669,1,4
240,276,217900,6,0,B|368:276|368:276|400:244|416:164,1,210,4|8
300,192,218592,2,0,B|172:192,1,105
88,192,219054,1,0
64,92,219285,1,8
64,92,219400,1,0
64,92,219515,1,0
164,64,219746,5,4
268,64,219977,1,0
368,92,220208,2,0,B|416:204|320:300,1,210,8|0
228,304,220900,1,0
200,204,221131,2,0,B|160:240|104:236,1,105,8|4
44,152,221592,2,0,B|112:56|240:64,1,210,4|8
328,60,222285,1,0
416,116,222515,1,0
328,172,222746,1,0
416,232,222977,5,8
416,232,223092,1,0
416,232,223208,2,0,B|412:284|416:336,1,105
316,308,223669,1,0
216,276,223900,2,0,B|164:272|112:276,2,105,8|0|0
176,176,224592,1,0
280,200,224823,2,0,B|384:202|520:200,2,210,8|12|8
104,316,226208,5,0
184,248,226438,1,8
184,144,226669,1,0
104,76,226900,1,8
208,64,227130,5,4
224,60,227245,1,0
240,64,227360,1,0
256,60,227476,1,0
272,64,227591,1,8
288,60,227706,1,0
304,64,227822,1,0
320,60,227937,1,0
336,64,228053,2,0,B|348:168|336:288,3,210,0|4|4|8
236,296,229668,5,0
236,296,229783,1,0
236,296,229899,2,0,B|188:323|132:300,1,105,0|0
52,224,230360,1,8
76,124,230591,2,0,B|140:140|224:108|288:124,1,210,4|0
392,120,231283,6,0,B|420:172|392:220,1,105,8|0
388,324,231745,1,0
288,288,231976,1,0
388,324,232206,1,8
288,288,232437,1,0
188,324,232668,2,0,B|124:228|188:84,1,210,4|0
244,44,233360,6,0,B|296:40|352:44,1,105,8|0
256,192,233822,1,8
256,192,233937,1,0
256,192,234053,1,0
256,192,234283,1,8
256,192,234399,1,0
256,192,234514,1,0
256,296,234745,1,8
256,296,234976,6,0,B|384:296,1,105,8|0
452,240,235437,1,8
424,140,235668,2,0,B|376:160|320:140,2,105,0|8|0
352,60,236360,2,0,B|248:48|140:60,1,210,12|8
132,164,237053,1,0
236,164,237283,1,8
256,268,237514,5,8
272,264,237630,1,0
288,268,237745,1,8
304,264,237860,1,0
320,268,237976,1,0
336,264,238091,1,0
352,268,238206,1,8
256,192,238322,12,4,240053
256,192,240168,12,4,241899
256,192,242130,5,4
