osu file format v12

[General]
AudioFilename: 11 - The Uprising.mp3
AudioLeadIn: 2018
PreviewTime: 43921
Countdown: 0
SampleSet: Normal
StackLeniency: 0.7
Mode: 0
LetterboxInBreaks: 1

[Editor]
Bookmarks: 43921,174830
DistanceSpacing: 0.7
BeatDivisor: 4
GridSize: 4

[Metadata]
Title:The Uprising
TitleUnicode:The Uprising
Artist:Eluveitie
ArtistUnicode:Eluveitie
Creator:Dwargkiller
Version:Normal
Source:
Tags:folk metal
BeatmapID:237749
BeatmapSetID:86948

[Difficulty]
HPDrainRate:4
CircleSize:3
OverallDifficulty:2
ApproachRate:3
SliderMultiplier:0.999999904632566
SliderTickRate:2

[Events]
//Background and Video events
0,0,"ab33e50eb382f42315a84c26e288a4dd.jpg",1,1
//Break Periods
2,8939,16299
2,26666,33754
2,61576,68663
2,96485,99208
2,127030,134117
2,140121,142845
2,153212,155936
//Storyboard Layer 0 (Background)
//Storyboard Layer 1 (Fail)
//Storyboard Layer 2 (Pass)
//Storyboard Layer 3 (Foreground)
//Storyboard Sound Samples
//Background Colour Transformations
3,100,163,162,255

[TimingPoints]
285.16535030991,545.454545454546,4,1,0,100,1,0
43921,-100,4,1,0,100,0,0
61376,-100,4,1,0,100,0,0
174830,-100,4,1,0,100,0,0
192285,-100,4,1,0,100,0,1
209739,-100,4,1,0,100,0,0

[HitObjects]
256,192,557,1,0,0:0:0:0:
220,132,1102,1,0,0:0:0:0:
292,132,1648,1,0,0:0:0:0:
328,132,1921,2,0,L|388:132,1,49.9999952316283
256,192,2739,5,0,0:0:0:0:
220,252,3284,1,0,0:0:0:0:
292,252,3830,1,0,0:0:0:0:
328,252,4103,2,0,L|388:252,1,49.9999952316283
256,192,4921,5,0,0:0:0:0:
292,132,5466,1,0,0:0:0:0:
220,132,6012,1,0,0:0:0:0:
184,132,6285,2,0,L|124:132,1,49.9999952316283
256,192,7103,5,0,0:0:0:0:
292,252,7648,1,0,0:0:0:0:
220,252,8194,1,0,0:0:0:0:
184,252,8467,2,0,L|124:252,1,49.9999952316283
104,80,17739,5,0,0:0:0:0:
164,48,18285,1,0,0:0:0:0:
232,48,18830,1,0,0:0:0:0:
292,84,19376,1,0,0:0:0:0:
332,140,19921,5,0,0:0:0:0:
276,184,20466,1,0,0:0:0:0:
204,184,21012,1,0,0:0:0:0:
148,224,21557,1,0,0:0:0:0:
116,288,22103,1,0,0:0:0:0:
164,340,22648,5,0,0:0:0:0:
236,344,23194,1,0,0:0:0:0:
300,316,23739,1,0,0:0:0:0:
356,276,24285,6,0,L|392:248,1,24.9999976158142
428,276,24830,2,0,L|456:244,3,24.9999976158142
420,172,25921,1,0,0:0:0:0:
376,116,26466,1,0,0:0:0:0:
104,80,35194,5,0,0:0:0:0:
244,80,36285,2,0,L|308:80,1,49.9999952316283
400,76,37376,2,0,L|464:76,1,49.9999952316283
432,180,38466,5,0,0:0:0:0:
400,244,39012,1,0,0:0:0:0:
352,296,39557,2,0,B|240:380|120:368|96:280,1,299.99997138977
88,164,41739,6,0,B|88:20|256:20|256:156,1,299.99997138977
256,276,43921,5,0,0:0:0:0:
376,276,44466,1,0,0:0:0:0:
440,172,45012,1,0,0:0:0:0:
416,56,45557,1,0,0:0:0:0:
296,44,46103,5,0,0:0:0:0:
176,44,46648,1,0,0:0:0:0:
84,112,47194,1,0,0:0:0:0:
56,228,47739,5,0,0:0:0:0:
72,288,48012,1,0,0:0:0:0:
112,332,48285,1,4,0:0:0:0:
232,344,48830,5,0,0:0:0:0:
352,328,49376,1,0,0:0:0:0:
432,240,49921,1,0,0:0:0:0:
448,120,50466,1,0,0:0:0:0:
344,56,51012,5,0,0:0:0:0:
256,136,51557,1,0,0:0:0:0:
336,224,52103,1,0,0:0:0:0:
224,272,52648,1,0,0:0:0:0:
152,176,53194,5,0,0:0:0:0:
248,104,53739,1,0,0:0:0:0:
132,76,54285,1,0,0:0:0:0:
44,156,54830,1,0,0:0:0:0:
144,220,55376,5,0,0:0:0:0:
52,300,55921,1,0,0:0:0:0:
172,300,56466,1,0,0:0:0:0:
292,288,57012,1,0,0:0:0:0:
320,172,57557,5,0,0:0:0:0:
436,196,58103,1,0,0:0:0:0:
440,76,58648,1,0,0:0:0:0:
328,36,59194,1,0,0:0:0:0:
224,92,59739,5,0,0:0:0:0:
152,188,60285,1,0,0:0:0:0:
224,284,60830,1,0,0:0:0:0:
340,308,61376,1,4,0:0:0:0:
132,92,70103,5,2,0:0:0:0:
236,32,70648,1,0,0:0:0:0:
356,32,71194,1,0,0:0:0:0:
444,116,71739,1,0,0:0:0:0:
380,216,72285,5,0,0:0:0:0:
332,104,72830,1,0,0:0:0:0:
252,192,73376,1,0,0:0:0:0:
196,84,73921,1,0,0:0:0:0:
136,188,74466,5,2,0:0:0:0:
188,296,75012,1,0,0:0:0:0:
304,260,75557,1,0,0:0:0:0:
380,352,76103,1,0,0:0:0:0:
444,252,76648,5,0,0:0:0:0:
388,144,77194,1,0,0:0:0:0:
276,100,77739,1,0,0:0:0:0:
164,60,78285,1,0,0:0:0:0:
104,80,78830,5,2,0:0:0:0:
244,80,79921,2,0,L|308:80,1,49.9999952316283
400,76,81012,2,0,L|464:76,1,49.9999952316283
432,180,82102,5,0,0:0:0:0:
400,244,82648,1,0,0:0:0:0:
104,80,83194,5,2,0:0:0:0:
244,68,84285,2,0,L|308:68,1,49.9999952316283
328,68,84830,2,0,P|386:69|436:140,1,149.999985694885
432,180,86466,5,0,0:0:0:0:
400,244,87012,1,0,0:0:0:0:
352,296,87557,2,0,B|240:380|120:368|96:280,1,299.99997138977
88,164,89739,6,0,B|88:20|256:20|256:156,1,299.99997138977
256,192,91921,12,0,96285,0:0:0:0:
200,92,100648,6,0,L|320:92,2,99.9999904632566
256,200,102285,1,0,0:0:0:0:
168,332,102830,2,0,L|280:332,2,99.9999904632566
256,200,104466,1,0,0:0:0:0:
344,52,105012,2,0,L|232:52,2,99.9999904632566
256,200,106648,1,0,0:0:0:0:
344,332,107194,2,0,L|232:332,2,99.9999904632566
256,200,108830,1,0,0:0:0:0:
156,248,109376,6,0,L|156:128,2,99.9999904632566
264,192,111013,1,0,0:0:0:0:
396,280,111558,2,0,L|396:168,2,99.9999904632566
264,192,113194,1,0,0:0:0:0:
116,104,113740,2,0,L|116:216,2,99.9999904632566
264,192,115376,1,0,0:0:0:0:
396,104,115922,2,0,L|396:216,2,99.9999904632566
356,248,118103,6,0,L|356:128,2,99.9999904632566
248,192,119740,1,0,0:0:0:0:
116,280,120285,2,0,L|116:168,2,99.9999904632566
248,192,121921,1,0,0:0:0:0:
396,104,122467,2,0,L|396:216,2,99.9999904632566
280,72,124103,1,0,0:0:0:0:
160,72,124648,2,0,L|128:88,1,24.9999976158142
84,156,125194,1,0,0:0:0:0:
176,236,125739,2,0,L|220:260,1,49.9999952316283
276,280,126285,2,0,L|320:292,4,24.9999976158142,0|0|0|0|4,0:0|0:0|0:0|0:0|0:0,0:0:0:0:
204,80,135557,6,0,L|320:80,2,99.9999904632566
256,188,137194,1,0,0:0:0:0:
308,304,137739,6,0,L|192:304,2,99.9999904632566
368,304,139103,1,0,0:0:0:0:
428,304,139376,2,0,L|468:304,4,24.9999976158142
120,280,144285,5,0,0:0:0:0:
240,280,144830,1,0,0:0:0:0:
312,184,145376,1,0,0:0:0:0:
448,328,146466,5,0,0:0:0:0:
328,316,147012,1,0,0:0:0:0:
224,260,147557,2,0,L|176:204,2,49.9999952316283
256,192,148648,12,0,153012,0:0:0:0:
132,92,157376,5,0,0:0:0:0:
236,32,157921,1,0,0:0:0:0:
356,32,158467,1,0,0:0:0:0:
444,116,159012,1,0,0:0:0:0:
380,216,159558,5,0,0:0:0:0:
332,104,160103,1,0,0:0:0:0:
252,192,160649,1,0,0:0:0:0:
196,84,161194,1,0,0:0:0:0:
136,188,161739,5,0,0:0:0:0:
188,296,162285,1,0,0:0:0:0:
304,260,162830,1,0,0:0:0:0:
380,352,163376,1,0,0:0:0:0:
444,252,163921,5,0,0:0:0:0:
388,144,164467,1,0,0:0:0:0:
276,100,165012,1,0,0:0:0:0:
164,60,165558,1,0,0:0:0:0:
104,80,166103,5,0,0:0:0:0:
244,80,167194,2,0,L|308:80,1,49.9999952316283
400,76,168285,2,0,L|464:76,1,49.9999952316283
292,164,169375,5,0,0:0:0:0:
176,136,169921,1,0,0:0:0:0:
92,52,170467,5,0,0:0:0:0:
224,24,171012,1,0,0:0:0:0:
344,32,171557,1,0,0:0:0:0:
440,104,172103,1,0,0:0:0:0:
412,216,172648,5,0,0:0:0:0:
292,216,173194,1,0,0:0:0:0:
172,220,173739,1,0,0:0:0:0:
52,220,174285,1,0,0:0:0:0:
164,264,174830,5,0,0:0:0:0:
284,276,175375,1,0,0:0:0:0:
376,200,175921,1,0,0:0:0:0:
388,80,176466,1,0,0:0:0:0:
272,44,177012,5,0,0:0:0:0:
152,48,177557,1,0,0:0:0:0:
68,132,178103,1,0,0:0:0:0:
48,248,178648,5,0,0:0:0:0:
84,296,178921,1,0,0:0:0:0:
128,336,179194,1,4,0:0:0:0:
232,344,179739,5,0,0:0:0:0:
352,328,180285,1,0,0:0:0:0:
432,240,180830,1,0,0:0:0:0:
448,120,181375,1,0,0:0:0:0:
344,56,181921,5,0,0:0:0:0:
256,136,182466,1,0,0:0:0:0:
336,224,183012,1,0,0:0:0:0:
224,272,183557,1,0,0:0:0:0:
152,176,184103,5,0,0:0:0:0:
248,104,184648,1,0,0:0:0:0:
132,76,185194,1,0,0:0:0:0:
44,156,185739,1,0,0:0:0:0:
144,220,186285,5,0,0:0:0:0:
52,300,186830,1,0,0:0:0:0:
172,300,187375,1,0,0:0:0:0:
292,288,187921,1,0,0:0:0:0:
320,172,188466,1,0,0:0:0:0:
436,196,189012,1,0,0:0:0:0:
440,76,189557,1,0,0:0:0:0:
328,36,190103,1,0,0:0:0:0:
224,92,190648,1,0,0:0:0:0:
152,188,191194,1,0,0:0:0:0:
224,284,191739,1,0,0:0:0:0:
248,168,192285,5,0,0:0:0:0:
148,100,192830,1,0,0:0:0:0:
64,188,193376,1,0,0:0:0:0:
96,328,193921,1,0,0:0:0:0:
216,340,194467,5,0,0:0:0:0:
336,340,195012,1,0,0:0:0:0:
428,272,195558,1,0,0:0:0:0:
456,156,196103,5,0,0:0:0:0:
440,96,196376,1,0,0:0:0:0:
400,52,196649,1,4,0:0:0:0:
280,40,197194,5,0,0:0:0:0:
160,56,197740,1,0,0:0:0:0:
80,144,198285,1,0,0:0:0:0:
64,264,198830,1,0,0:0:0:0:
168,328,199376,5,0,0:0:0:0:
256,248,199921,1,0,0:0:0:0:
176,160,200467,1,0,0:0:0:0:
288,112,201012,1,0,0:0:0:0:
360,208,201558,5,0,0:0:0:0:
264,280,202103,1,0,0:0:0:0:
380,308,202649,1,0,0:0:0:0:
468,228,203194,1,0,0:0:0:0:
368,164,203740,5,0,0:0:0:0:
460,84,204285,1,0,0:0:0:0:
340,84,204830,1,0,0:0:0:0:
220,96,205376,1,0,0:0:0:0:
192,212,205921,1,0,0:0:0:0:
76,188,206467,1,0,0:0:0:0:
72,308,207012,1,0,0:0:0:0:
184,348,207558,1,0,0:0:0:0:
288,292,208103,1,0,0:0:0:0:
360,196,208649,1,0,0:0:0:0:
288,100,209194,1,0,0:0:0:0:
172,76,209740,1,0,0:0:0:0:
