osu file format v12

[General]
AudioFilename: 11 - The Uprising.mp3
AudioLeadIn: 2018
PreviewTime: 43921
Countdown: 0
SampleSet: Normal
StackLeniency: 0.7
Mode: 0
LetterboxInBreaks: 1

[Editor]
Bookmarks: 12,11194,16785,26194,38194,43512,70103,91921,126830,157512,170603,174830,209739
DistanceSpacing: 1
BeatDivisor: 4
GridSize: 4

[Metadata]
Title:The Uprising
TitleUnicode:The Uprising
Artist:Eluveitie
ArtistUnicode:Eluveitie
Creator:Dwargkiller
Version:Insane
Source:
Tags:folk metal
BeatmapID:237751
BeatmapSetID:86948

[Difficulty]
HPDrainRate:8
CircleSize:5
OverallDifficulty:8
ApproachRate:7
SliderMultiplier:1.99999990463257
SliderTickRate:2

[Events]
//Background and Video events
0,0,"ab33e50eb382f42315a84c26e288a4dd.jpg",1,1
//Break Periods
2,91985,99748
//Storyboard Layer 0 (Background)
//Storyboard Layer 1 (Fail)
//Storyboard Layer 2 (Pass)
//Storyboard Layer 3 (Foreground)
//Storyboard Sound Samples
//Background Colour Transformations
3,100,163,162,255

[TimingPoints]
285.16535030991,545.454545454546,4,1,0,100,1,0
192285,-100,4,1,0,100,0,1
209739,-100,4,1,0,100,0,0

[Colours]
Combo1 : 255,255,0
Combo2 : 0,255,64
Combo3 : 0,255,255
Combo4 : 240,5,5

[HitObjects]
56,192,285,5,0,0:0:0:0:
140,140,557,1,0,0:0:0:0:
236,164,830,1,0,0:0:0:0:
312,228,1103,1,0,0:0:0:0:
400,184,1376,5,0,0:0:0:0:
492,224,1648,1,0,0:0:0:0:
480,324,1921,1,0,0:0:0:0:
388,360,2194,1,0,0:0:0:0:
148,344,2739,5,0,0:0:0:0:
100,232,3012,1,0,0:0:0:0:
192,152,3285,1,0,0:0:0:0:
104,72,3557,1,0,0:0:0:0:
216,32,3830,5,0,0:0:0:0:
300,120,4103,1,0,0:0:0:0:
384,32,4376,2,0,L|440:68,1,49.9999976158143
456,192,4921,5,0,0:0:0:0:
372,140,5194,1,0,0:0:0:0:
276,164,5466,1,0,0:0:0:0:
200,228,5739,1,0,0:0:0:0:
116,172,6012,5,0,0:0:0:0:
20,144,6285,1,0,0:0:0:0:
24,244,6557,1,0,0:0:0:0:
56,192,7103,5,0,0:0:0:0:
140,140,7376,1,0,0:0:0:0:
236,164,7648,1,0,0:0:0:0:
312,228,7921,1,0,0:0:0:0:
412,228,8194,5,0,0:0:0:0:
500,184,8466,1,0,0:0:0:0:
496,284,8739,1,0,0:0:0:0:
412,332,9012,5,0,0:0:0:0:
364,332,9148,1,0,0:0:0:0:
312,332,9285,1,8,0:0:0:0:
212,332,9557,1,0,0:0:0:0:
112,332,9830,1,8,0:0:0:0:
108,232,10103,5,0,0:0:0:0:
208,236,10376,1,8,0:0:0:0:
308,236,10648,1,0,0:0:0:0:
344,204,10785,5,0,0:0:0:0:
340,156,10921,1,8,0:0:0:0:
292,140,11057,1,0,0:0:0:0:
244,132,11194,5,0,0:0:0:0:
144,124,11466,1,8,0:0:0:0:
56,76,11739,1,0,0:0:0:0:
148,36,12012,5,8,0:0:0:0:
248,36,12285,1,0,0:0:0:0:
396,32,12694,2,0,P|436:64|440:72,1,49.9999976158143,8|0,0:0|0:0,0:0:0:0:
480,108,13103,5,0,0:0:0:0:
456,152,13239,1,0,0:0:0:0:
416,180,13376,5,0,0:0:0:0:
424,228,13512,1,0,0:0:0:0:
452,268,13648,1,8,0:0:0:0:
436,328,13921,5,0,0:0:0:0:
352,276,14194,1,8,0:0:0:0:
272,332,14466,1,0,0:0:0:0:
212,252,14739,1,8,0:0:0:0:
144,180,15012,1,0,0:0:0:0:
204,100,15285,5,8,0:0:0:0:
252,100,15421,1,0,0:0:0:0:
288,64,15557,1,0,0:0:0:0:
288,20,15694,1,0,0:0:0:0:
256,0,15830,1,8,0:0:0:0:
160,20,16103,5,0,0:0:0:0:
80,80,16376,1,0,0:0:0:0:
88,172,16648,5,8,0:0:0:0:
140,172,16785,1,8,0:0:0:0:
188,172,16921,1,8,0:0:0:0:
288,176,17194,5,0,0:0:0:0:
336,176,17330,1,0,0:0:0:0:
384,176,17466,1,8,0:0:0:0:
436,176,17603,1,8,0:0:0:0:
440,224,17739,6,0,L|440:276,3,49.9999976158143,0|0|0|8,0:0|0:0|0:0|0:0,0:0:0:0:
440,274,18285,2,0,L|389:274|388:274,3,49.9999976158143,0|0|0|8,0:0|0:0|0:0|0:0,0:0:0:0:
390,274,18830,2,0,L|339:274,3,49.9999976158143,0|0|0|8,0:0|0:0|0:0|0:0,0:0:0:0:
340,272,19376,2,0,L|304:236,3,49.9999976158143,0|0|0|8,0:0|0:0|0:0|0:0,0:0:0:0:
304,236,19921,6,0,L|304:180|304:136,4,99.9999952316285,0|8|0|8|0,0:0|0:0|0:0|0:0|0:0,0:0:0:0:
236,120,21421,2,0,L|268:72,1,49.9999976158143,8|0,0:0|0:0,0:0:0:0:
328,68,21830,2,0,L|384:68,1,49.9999976158143,0|8,0:0|0:0,0:0:0:0:
272,176,22376,5,8,0:0:0:0:
364,216,22648,1,0,0:0:0:0:
360,316,22921,1,8,0:0:0:0:
260,332,23194,1,0,0:0:0:0:
184,280,23466,5,8,0:0:0:0:
216,184,23739,1,0,0:0:0:0:
284,144,24012,2,0,P|304:96|300:92,1,49.9999976158143,8|0,0:0|0:0,0:0:0:0:
276,56,24285,5,0,0:0:0:0:
240,88,24421,1,0,0:0:0:0:
192,96,24557,1,8,0:0:0:0:
92,100,24830,5,0,0:0:0:0:
104,200,25103,2,0,P|148:240|156:232,1,49.9999976158143,8|0,0:0|0:0,0:0:0:0:
212,292,25512,5,0,0:0:0:0:
312,296,25785,1,8,0:0:0:0:
352,268,25921,1,0,0:0:0:0:
388,300,26057,1,0,0:0:0:0:
444,216,26330,6,0,P|396:172|376:172,1,49.9999976158143
328,124,26739,5,0,0:0:0:0:
232,96,27012,1,0,0:0:0:0:
136,120,27285,1,8,0:0:0:0:
96,200,27557,1,0,0:0:0:0:
140,288,27830,1,8,0:0:0:0:
236,264,28103,1,0,0:0:0:0:
260,220,28239,1,0,0:0:0:0:
248,172,28376,1,0,0:0:0:0:
200,160,28512,1,0,0:0:0:0:
152,164,28648,1,4,0:0:0:0:
16,68,29057,1,0,0:0:0:0:
132,40,29466,1,0,0:0:0:0:
220,92,29739,1,0,0:0:0:0:
256,56,29876,1,0,0:0:0:0:
304,48,30012,1,8,0:0:0:0:
340,84,30148,1,0,0:0:0:0:
336,132,30285,5,0,0:0:0:0:
380,156,30421,1,0,0:0:0:0:
428,152,30557,1,8,0:0:0:0:
476,136,30694,1,0,0:0:0:0:
472,204,30830,5,4,0:0:0:0:
380,248,31103,1,0,0:0:0:0:
280,252,31376,1,0,0:0:0:0:
184,220,31648,1,0,0:0:0:0:
112,148,31921,5,0,0:0:0:0:
88,52,32194,1,0,0:0:0:0:
184,20,32466,1,0,0:0:0:0:
196,68,32603,1,0,0:0:0:0:
220,112,32739,1,0,0:0:0:0:
244,156,32876,1,0,0:0:0:0:
280,192,33012,5,0,0:0:0:0:
300,148,33148,1,0,0:0:0:0:
312,100,33285,1,8,0:0:0:0:
336,56,33421,1,0,0:0:0:0:
364,16,33557,5,0,0:0:0:0:
396,56,33694,1,0,0:0:0:0:
416,100,33830,1,8,0:0:0:0:
436,144,33966,1,0,0:0:0:0:
436,196,34103,5,0,0:0:0:0:
388,180,34239,1,0,0:0:0:0:
344,152,34376,1,0,0:0:0:0:
304,124,34512,5,0,0:0:0:0:
248,208,34785,1,0,0:0:0:0:
160,252,35057,1,0,0:0:0:0:
112,240,35194,5,4,0:0:0:0:
48,164,35466,1,8,0:0:0:0:
132,108,35739,1,0,0:0:0:0:
52,52,36012,1,8,0:0:0:0:
140,24,36285,5,0,0:0:0:0:
240,16,36557,1,8,0:0:0:0:
252,116,36830,5,0,0:0:0:0:
292,80,36966,1,0,0:0:0:0:
324,44,37103,1,0,0:0:0:0:
364,72,37239,1,0,0:0:0:0:
400,36,37376,1,4,0:0:0:0:
496,12,37648,1,8,0:0:0:0:
468,108,37921,5,0,0:0:0:0:
372,140,38194,1,8,0:0:0:0:
256,100,38466,5,0,0:0:0:0:
296,128,38603,1,0,0:0:0:0:
304,176,38739,1,8,0:0:0:0:
276,220,38876,1,0,0:0:0:0:
228,220,39012,5,0,0:0:0:0:
184,196,39148,1,0,0:0:0:0:
168,148,39285,1,8,0:0:0:0:
184,100,39421,1,0,0:0:0:0:
212,60,39557,5,0,0:0:0:0:
308,28,39830,1,8,0:0:0:0:
384,92,40103,1,0,0:0:0:0:
420,184,40376,1,8,0:0:0:0:
396,280,40648,1,0,0:0:0:0:
304,316,40921,1,8,0:0:0:0:
208,284,41194,1,0,0:0:0:0:
148,204,41466,1,8,0:0:0:0:
164,116,41739,5,8,0:0:0:0:
212,116,41876,1,8,0:0:0:0:
336,116,42148,5,8,0:0:0:0:
336,160,42285,1,8,0:0:0:0:
336,264,42557,5,8,0:0:0:0:
292,264,42694,1,8,0:0:0:0:
200,268,42966,5,8,0:0:0:0:
200,228,43103,1,8,0:0:0:0:
256,192,43376,5,12,0:0:0:0:
256,192,43921,5,4,0:0:0:0:
256,92,44330,1,0,0:0:0:0:
356,88,44603,5,0,0:0:0:0:
408,88,44739,1,0,0:0:0:0:
408,140,44876,1,0,0:0:0:0:
360,140,45012,1,0,0:0:0:0:
212,144,45421,5,0,0:0:0:0:
172,236,45694,5,0,0:0:0:0:
184,284,45830,1,0,0:0:0:0:
216,324,45966,1,8,0:0:0:0:
260,348,46103,1,0,0:0:0:0:
360,340,46376,5,0,0:0:0:0:
404,320,46512,1,0,0:0:0:0:
436,280,46648,1,0,0:0:0:0:
432,228,46785,1,0,0:0:0:0:
392,200,46921,5,0,0:0:0:0:
344,204,47057,1,8,0:0:0:0:
304,232,47194,1,0,0:0:0:0:
236,284,47466,5,0,0:0:0:0:
196,316,47603,1,8,0:0:0:0:
148,328,47739,1,0,0:0:0:0:
64,272,48012,5,0,0:0:0:0:
28,240,48148,1,8,0:0:0:0:
28,188,48285,1,0,0:0:0:0:
40,40,48694,5,0,0:0:0:0:
140,40,48966,5,0,0:0:0:0:
188,60,49103,1,0,0:0:0:0:
236,40,49239,1,8,0:0:0:0:
276,68,49376,1,0,0:0:0:0:
324,48,49512,1,8,0:0:0:0:
416,88,49785,5,8,0:0:0:0:
420,236,50194,5,0,0:0:0:0:
320,236,50466,1,0,0:0:0:0:
260,156,50739,5,0,0:0:0:0:
220,128,50876,1,0,0:0:0:0:
172,136,51012,1,0,0:0:0:0:
140,176,51148,1,0,0:0:0:0:
128,224,51285,1,8,0:0:0:0:
136,272,51421,1,0,0:0:0:0:
264,348,51830,5,0,0:0:0:0:
300,316,51966,1,0,0:0:0:0:
328,276,52103,1,8,0:0:0:0:
336,228,52239,1,0,0:0:0:0:
308,184,52376,5,0,0:0:0:0:
276,144,52512,1,8,0:0:0:0:
228,144,52648,1,0,0:0:0:0:
228,244,52921,5,0,0:0:0:0:
180,232,53057,1,0,0:0:0:0:
136,204,53194,1,0,0:0:0:0:
104,164,53330,1,8,0:0:0:0:
112,116,53466,5,0,0:0:0:0:
152,72,53603,1,8,0:0:0:0:
196,52,53739,1,0,0:0:0:0:
296,48,54012,5,0,0:0:0:0:
344,44,54148,1,0,0:0:0:0:
396,48,54285,1,0,0:0:0:0:
444,64,54421,1,8,0:0:0:0:
452,112,54557,5,0,0:0:0:0:
452,164,54694,1,8,0:0:0:0:
424,204,54830,1,0,0:0:0:0:
324,208,55103,5,0,0:0:0:0:
300,252,55239,1,8,0:0:0:0:
280,296,55376,1,0,0:0:0:0:
244,260,55512,5,0,0:0:0:0:
216,300,55648,1,8,0:0:0:0:
168,284,55785,1,0,0:0:0:0:
136,324,55921,1,0,0:0:0:0:
88,320,56057,5,0,0:0:0:0:
68,272,56194,1,8,0:0:0:0:
76,224,56330,1,0,0:0:0:0:
116,192,56466,1,0,0:0:0:0:
168,196,56603,5,0,0:0:0:0:
216,196,56739,1,8,0:0:0:0:
256,168,56876,1,0,0:0:0:0:
284,124,57012,1,0,0:0:0:0:
312,272,57421,5,8,0:0:0:0:
440,192,57830,1,8,0:0:0:0:
468,288,58103,1,0,0:0:0:0:
384,340,58376,5,8,0:0:0:0:
356,300,58512,1,0,0:0:0:0:
360,252,58648,1,0,0:0:0:0:
396,216,58785,1,0,0:0:0:0:
400,168,58921,5,8,0:0:0:0:
360,140,59057,1,0,0:0:0:0:
336,96,59194,1,0,0:0:0:0:
248,48,59466,5,0,0:0:0:0:
204,72,59603,1,8,0:0:0:0:
168,108,59739,1,0,0:0:0:0:
128,140,59876,1,0,0:0:0:0:
92,176,60012,5,0,0:0:0:0:
52,208,60148,1,8,0:0:0:0:
84,244,60285,5,0,0:0:0:0:
124,216,60421,1,8,0:0:0:0:
164,184,60557,1,0,0:0:0:0:
204,152,60694,1,0,0:0:0:0:
240,116,60830,5,0,0:0:0:0:
280,88,60966,1,8,0:0:0:0:
328,80,61103,1,0,0:0:0:0:
376,96,61239,1,0,0:0:0:0:
460,220,61648,5,0,0:0:0:0:
376,168,61921,1,0,0:0:0:0:
308,240,62194,1,0,0:0:0:0:
240,168,62466,1,0,0:0:0:0:
192,256,62739,5,0,0:0:0:0:
128,180,63012,1,0,0:0:0:0:
72,264,63285,1,0,0:0:0:0:
44,64,63830,5,0,0:0:0:0:
132,112,64103,1,0,0:0:0:0:
188,28,64376,1,0,0:0:0:0:
256,100,64648,1,0,0:0:0:0:
292,8,64921,5,0,0:0:0:0:
368,72,65194,1,0,0:0:0:0:
416,8,65466,1,0,0:0:0:0:
452,44,65603,1,0,0:0:0:0:
464,192,66012,5,0,0:0:0:0:
436,288,66285,1,0,0:0:0:0:
336,272,66557,1,0,0:0:0:0:
268,344,66830,1,0,0:0:0:0:
196,272,67103,5,0,0:0:0:0:
120,340,67376,1,0,0:0:0:0:
68,256,67648,1,0,0:0:0:0:
56,56,68194,5,0,0:0:0:0:
108,140,68466,1,0,0:0:0:0:
160,56,68739,2,0,B|232:112|208:96,1,49.9999976158143
288,152,69148,5,0,0:0:0:0:
368,92,69421,1,0,0:0:0:0:
416,104,69557,1,0,0:0:0:0:
444,148,69694,1,0,0:0:0:0:
424,248,69966,6,0,P|384:280|380:276,1,49.9999976158143
316,336,70376,5,0,0:0:0:0:
344,240,70648,1,0,0:0:0:0:
296,152,70921,1,0,0:0:0:0:
200,188,71194,1,0,0:0:0:0:
236,280,71466,1,0,0:0:0:0:
168,320,71739,5,0,0:0:0:0:
116,320,71876,1,0,0:0:0:0:
72,300,72012,1,8,0:0:0:0:
40,264,72148,1,0,0:0:0:0:
32,216,72285,5,8,0:0:0:0:
36,116,72557,1,8,0:0:0:0:
104,44,72830,1,0,0:0:0:0:
204,28,73103,1,8,0:0:0:0:
168,124,73376,5,0,0:0:0:0:
132,160,73512,1,0,0:0:0:0:
164,200,73648,1,0,0:0:0:0:
132,240,73785,1,8,0:0:0:0:
172,268,73921,5,0,0:0:0:0:
208,232,74057,1,0,0:0:0:0:
208,180,74194,1,0,0:0:0:0:
232,136,74330,1,8,0:0:0:0:
296,112,74466,5,0,0:0:0:0:
384,160,74739,1,8,0:0:0:0:
304,220,75012,1,0,0:0:0:0:
400,252,75285,1,8,0:0:0:0:
356,340,75557,5,0,0:0:0:0:
256,348,75830,1,8,0:0:0:0:
164,312,76103,5,0,0:0:0:0:
128,280,76239,1,0,0:0:0:0:
88,312,76376,1,0,0:0:0:0:
40,296,76512,1,0,0:0:0:0:
68,256,76648,5,0,0:0:0:0:
40,216,76785,1,0,0:0:0:0:
68,176,76921,1,8,0:0:0:0:
36,136,77057,1,0,0:0:0:0:
72,100,77194,5,0,0:0:0:0:
116,120,77330,1,0,0:0:0:0:
160,100,77466,1,8,0:0:0:0:
176,52,77603,1,0,0:0:0:0:
220,76,77739,5,0,0:0:0:0:
264,52,77876,1,0,0:0:0:0:
300,20,78012,1,8,0:0:0:0:
332,56,78148,5,0,0:0:0:0:
384,140,78421,1,0,0:0:0:0:
364,236,78694,1,0,0:0:0:0:
324,264,78830,1,0,0:0:0:0:
256,316,79103,5,8,0:0:0:0:
156,336,79376,1,0,0:0:0:0:
72,284,79648,1,8,0:0:0:0:
64,184,79921,5,0,0:0:0:0:
144,124,80194,1,8,0:0:0:0:
92,60,80466,1,0,0:0:0:0:
140,48,80603,1,0,0:0:0:0:
188,48,80739,1,8,0:0:0:0:
236,68,80876,1,0,0:0:0:0:
280,92,81012,1,0,0:0:0:0:
356,156,81285,5,8,0:0:0:0:
452,136,81557,1,0,0:0:0:0:
472,236,81830,1,8,0:0:0:0:
392,268,82103,5,0,0:0:0:0:
428,304,82239,1,0,0:0:0:0:
380,320,82376,1,8,0:0:0:0:
332,308,82512,1,0,0:0:0:0:
300,272,82648,5,0,0:0:0:0:
332,232,82785,1,0,0:0:0:0:
288,208,82921,1,8,0:0:0:0:
240,212,83057,1,0,0:0:0:0:
188,212,83194,5,0,0:0:0:0:
64,320,83466,5,8,0:0:0:0:
116,324,83603,1,0,0:0:0:0:
164,324,83739,1,0,0:0:0:0:
264,324,84012,1,8,0:0:0:0:
364,320,84285,1,0,0:0:0:0:
464,332,84557,2,0,L|480:284,1,49.9999976158143,8|0,0:0|0:0,0:0:0:0:
408,216,84966,5,0,0:0:0:0:
444,72,85376,5,8,0:0:0:0:
348,48,85648,1,0,0:0:0:0:
248,44,85921,1,0,0:0:0:0:
148,44,86194,1,0,0:0:0:0:
52,68,86466,6,0,P|52:120|84:120,1,49.9999976158143,8|0,0:0|0:0,0:0:0:0:
88,200,86876,2,0,P|141:201|141:193,1,49.9999976158143,8|0,0:0|0:0,0:0:0:0:
208,164,87285,1,8,0:0:0:0:
288,108,87557,5,8,0:0:0:0:
336,196,87830,1,0,0:0:0:0:
380,108,88103,1,0,0:0:0:0:
444,184,88376,1,0,0:0:0:0:
416,280,88648,1,0,0:0:0:0:
340,344,88921,1,0,0:0:0:0:
280,264,89194,1,0,0:0:0:0:
200,324,89466,1,0,0:0:0:0:
124,260,89739,5,8,0:0:0:0:
96,216,89876,1,0,0:0:0:0:
96,116,90148,1,8,0:0:0:0:
124,72,90285,1,0,0:0:0:0:
220,52,90557,1,8,0:0:0:0:
256,84,90694,1,0,0:0:0:0:
320,160,90966,5,8,0:0:0:0:
344,204,91103,1,0,0:0:0:0:
344,304,91376,5,8,2:0:0:0:
308,340,91512,1,8,2:0:0:0:
260,352,91648,1,8,2:0:0:0:
212,340,91785,1,8,2:0:0:0:
256,192,100648,6,0,L|256:140,1,49.9999976158143
256,80,101057,2,0,L|256:28,1,49.9999976158143
180,28,101466,2,0,L|128:28,1,49.9999976158143
128,96,101876,2,0,L|128:148,1,49.9999976158143,0|0,0:0|0:0,0:0:0:0:
128,208,102285,6,0,L|128:260,1,49.9999976158143
196,264,102694,2,0,L|248:264,2,49.9999976158143
128,276,103239,2,0,L|128:328,1,49.9999976158143
192,336,103648,2,0,L|248:336,1,49.9999976158143
312,336,104057,6,0,L|372:336,1,49.9999976158143
432,336,104466,2,0,L|488:336,5,49.9999976158143
484,272,105421,2,0,L|484:220,1,49.9999976158143
384,216,105830,2,0,L|384:164,1,49.9999976158143
476,128,106239,6,0,L|476:76,1,49.9999976158143
384,36,106648,2,0,L|344:68,1,49.9999976158143
324,164,107057,2,0,L|288:204,2,49.9999976158143
424,144,107603,2,0,L|388:188,1,49.9999976158143
460,256,108012,6,0,L|424:292,1,49.9999976158143
372,208,108421,2,0,L|336:248,1,49.9999976158143
340,328,108830,2,0,L|276:328,5,49.9999976158143
220,324,109785,2,0,L|168:324,1,49.9999976158143
108,320,110194,6,0,L|56:320,1,49.9999976158143
60,260,110603,2,0,L|60:208,1,49.9999976158143
124,208,111012,2,0,L|124:264,1,49.9999976158143
184,264,111421,2,0,L|184:200,1,49.9999976158143
248,208,111830,6,0,L|248:272,1,49.9999976158143
312,260,112239,2,0,L|312:192,1,49.9999976158143
376,204,112648,2,0,L|376:268,1,49.9999976158143
468,256,113194,2,0,L|468:192,5,49.9999976158143
448,148,114148,6,0,L|448:92,1,49.9999976158143
448,36,114557,2,0,L|396:36,1,49.9999976158143
336,36,114966,2,0,L|272:36,1,49.9999976158143
220,36,115376,2,0,L|144:36,1,49.9999976158143
136,36,115785,6,0,L|80:36,2,49.9999976158143
136,104,116330,2,0,L|200:104,1,49.9999976158143
192,168,116739,2,0,L|140:168,1,49.9999976158143
144,232,117148,2,0,L|200:232,1,49.9999976158143
200,296,117557,6,0,L|288:296,5,49.9999976158143
312,296,118512,2,0,L|364:296,1,49.9999976158143
424,296,118921,2,0,L|480:296,1,49.9999976158143
480,236,119330,2,0,L|480:184,1,49.9999976158143
444,120,119739,2,0,L|416:72,1,49.9999976158143
356,28,120148,2,0,L|288:16,1,49.9999976158143
160,44,120694,2,0,L|112:100,1,49.9999976158143
88,176,121103,2,0,L|132:224,1,49.9999976158143
120,312,121512,2,0,L|208:312,1,49.9999976158143
296,332,121921,2,0,P|356:332|364:316,5,49.9999976158143
380,312,122876,2,0,L|436:296,1,49.9999976158143
444,232,123285,2,0,L|444:176,1,49.9999976158143
424,112,123694,6,0,L|376:72,1,49.9999976158143
320,48,124103,2,0,P|252:56|244:72,1,49.9999976158143
124,68,124648,2,0,L|176:100,1,49.9999976158143
260,128,125057,2,0,L|200:160,1,49.9999976158143
76,200,125603,5,0,0:0:0:0:
224,232,126012,1,0,0:0:0:0:
320,212,126285,1,0,0:0:0:0:
364,236,126421,1,0,0:0:0:0:
388,280,126557,1,8,0:0:0:0:
364,324,126694,1,0,0:0:0:0:
316,328,126830,5,0,0:0:0:0:
272,304,126966,1,8,0:0:0:0:
168,328,127239,1,0,0:0:0:0:
116,324,127376,1,0,0:0:0:0:
56,224,127648,5,0,0:0:0:0:
96,252,127785,1,0,0:0:0:0:
128,212,127921,1,8,0:0:0:0:
176,224,128057,1,0,0:0:0:0:
264,268,128330,5,8,0:0:0:0:
400,336,128739,1,0,0:0:0:0:
456,252,129012,1,8,0:0:0:0:
420,220,129148,1,0,0:0:0:0:
360,140,129421,5,0,0:0:0:0:
316,164,129557,1,0,0:0:0:0:
316,64,129830,5,0,0:0:0:0:
272,92,129966,1,0,0:0:0:0:
236,56,130103,1,8,0:0:0:0:
192,76,130239,1,0,0:0:0:0:
116,140,130512,5,8,0:0:0:0:
84,44,130921,1,0,0:0:0:0:
184,28,131194,1,8,0:0:0:0:
228,52,131330,1,0,0:0:0:0:
324,28,131603,5,0,0:0:0:0:
364,56,131739,1,0,0:0:0:0:
452,104,132012,1,0,0:0:0:0:
412,136,132148,1,0,0:0:0:0:
364,132,132285,5,8,0:0:0:0:
320,156,132421,1,0,0:0:0:0:
240,156,132694,1,8,0:0:0:0:
152,104,132966,5,0,0:0:0:0:
116,72,133103,1,0,0:0:0:0:
52,148,133376,1,0,0:0:0:0:
88,184,133512,1,0,0:0:0:0:
40,272,133785,5,8,0:0:0:0:
84,296,133921,1,0,0:0:0:0:
180,292,134194,5,0,0:0:0:0:
256,352,134330,1,0,0:0:0:0:
336,292,134466,1,0,0:0:0:0:
256,208,134876,1,0,0:0:0:0:
256,160,135012,5,0,0:0:0:0:
256,112,135148,1,0,0:0:0:0:
256,60,135285,1,0,0:0:0:0:
256,12,135421,1,0,0:0:0:0:
304,12,135557,5,0,0:0:0:0:
416,108,135966,2,0,B|348:248,1,149.999992847443
268,300,136648,1,0,0:0:0:0:
84,220,137194,1,0,0:0:0:0:
284,196,137739,5,0,0:0:0:0:
412,116,138148,1,0,0:0:0:0:
280,48,138557,1,0,0:0:0:0:
28,108,139103,5,0,0:0:0:0:
52,64,139239,1,8,0:0:0:0:
100,48,139376,1,0,0:0:0:0:
188,92,139648,5,0,0:0:0:0:
216,132,139785,1,0,0:0:0:0:
216,180,139921,5,8,0:0:0:0:
200,228,140057,1,0,0:0:0:0:
136,304,140330,1,0,0:0:0:0:
84,308,140466,1,0,0:0:0:0:
32,224,140739,5,0,0:0:0:0:
68,192,140876,1,0,0:0:0:0:
116,184,141012,1,8,0:0:0:0:
160,204,141148,1,0,0:0:0:0:
244,260,141421,5,8,0:0:0:0:
392,292,141830,1,0,0:0:0:0:
444,208,142103,1,0,0:0:0:0:
448,160,142239,1,0,0:0:0:0:
424,64,142512,5,0,0:0:0:0:
384,36,142648,1,0,0:0:0:0:
316,64,142921,5,0,0:0:0:0:
272,92,143057,1,0,0:0:0:0:
236,56,143194,1,8,0:0:0:0:
192,76,143330,1,0,0:0:0:0:
116,140,143603,5,0,0:0:0:0:
72,116,143739,1,0,0:0:0:0:
40,156,143876,1,0,0:0:0:0:
40,204,144012,1,0,0:0:0:0:
68,244,144148,1,0,0:0:0:0:
116,252,144285,6,0,L|280:252,2,149.999992847443
32,308,145376,2,0,L|344:308,1,299.999985694885
512,252,146466,2,0,L|364:172,2,149.999992847443
504,252,147557,2,0,L|404:352,2,99.9999952316285
504,252,148648,1,0,0:0:0:0:
256,192,149194,12,0,153012,0:0:0:0:
52,196,155194,6,0,L|116:196,1,49.9999976158143
152,196,155466,1,0,0:0:0:0:
204,196,155603,2,0,L|260:196,1,49.9999976158143
304,196,155876,1,0,0:0:0:0:
352,200,156012,2,0,L|404:204,1,49.9999976158143
392,156,156285,5,0,0:0:0:0:
324,84,156557,1,0,0:0:0:0:
276,76,156694,1,0,0:0:0:0:
248,116,156830,1,0,0:0:0:0:
220,156,156966,5,0,0:0:0:0:
172,136,157103,1,0,0:0:0:0:
144,96,157239,1,0,0:0:0:0:
140,44,157376,1,8,0:0:0:0:
300,232,158466,5,8,0:0:0:0:
224,268,158739,1,8,0:0:0:0:
168,320,159012,5,0,0:0:0:0:
116,320,159148,1,0,0:0:0:0:
72,300,159285,1,0,0:0:0:0:
40,264,159421,1,0,0:0:0:0:
32,216,159557,5,8,0:0:0:0:
36,116,159830,1,0,0:0:0:0:
104,44,160103,1,0,0:0:0:0:
204,28,160376,1,0,0:0:0:0:
168,124,160648,5,0,0:0:0:0:
132,160,160785,1,0,0:0:0:0:
164,200,160921,1,0,0:0:0:0:
132,240,161057,1,8,0:0:0:0:
172,268,161194,5,0,0:0:0:0:
208,232,161330,1,0,0:0:0:0:
208,180,161466,1,0,0:0:0:0:
232,136,161603,1,8,0:0:0:0:
296,112,161739,5,8,0:0:0:0:
384,160,162012,1,0,0:0:0:0:
304,220,162285,1,0,0:0:0:0:
400,252,162557,1,0,0:0:0:0:
328,320,162830,5,0,0:0:0:0:
276,320,163103,1,0,0:0:0:0:
177,316,163376,5,0,0:0:0:0:
136,288,163512,1,0,0:0:0:0:
100,324,163648,1,0,0:0:0:0:
56,296,163785,1,0,0:0:0:0:
92,260,163921,5,0,0:0:0:0:
52,232,164057,1,0,0:0:0:0:
76,188,164194,1,8,0:0:0:0:
40,152,164330,1,0,0:0:0:0:
76,120,164466,5,0,0:0:0:0:
116,152,164603,1,0,0:0:0:0:
156,124,164739,1,8,0:0:0:0:
176,168,164876,1,0,0:0:0:0:
220,148,165012,5,0,0:0:0:0:
248,108,165148,1,0,0:0:0:0:
272,64,165285,1,0,0:0:0:0:
316,92,165421,5,0,0:0:0:0:
380,168,165694,1,0,0:0:0:0:
380,248,165966,1,0,0:0:0:0:
332,248,166103,1,0,0:0:0:0:
256,316,166376,5,8,0:0:0:0:
156,336,166648,1,0,0:0:0:0:
72,284,166921,1,8,0:0:0:0:
72,184,167194,5,0,0:0:0:0:
156,132,167466,1,8,0:0:0:0:
92,60,167739,1,0,0:0:0:0:
140,48,167876,1,0,0:0:0:0:
188,48,168012,1,8,0:0:0:0:
236,68,168148,1,0,0:0:0:0:
280,92,168285,1,0,0:0:0:0:
340,172,168557,1,8,0:0:0:0:
396,92,168830,1,0,0:0:0:0:
452,176,169103,1,8,0:0:0:0:
388,268,169376,5,0,0:0:0:0:
436,264,169512,1,0,0:0:0:0:
460,308,169648,1,8,0:0:0:0:
432,348,169785,1,0,0:0:0:0:
384,352,169921,5,0,0:0:0:0:
336,352,170057,1,0,0:0:0:0:
292,324,170194,1,8,0:0:0:0:
288,276,170330,1,0,0:0:0:0:
248,244,170466,5,0,0:0:0:0:
60,328,171148,5,8,0:0:0:0:
256,332,171557,1,0,0:0:0:0:
460,332,172239,1,8,0:0:0:0:
256,192,172648,1,0,0:0:0:0:
132,248,173330,5,8,0:0:0:0:
256,268,173739,1,0,0:0:0:0:
296,264,173876,1,0,0:0:0:0:
328,240,174012,1,0,0:0:0:0:
352,212,174148,1,0,0:0:0:0:
368,164,174285,5,0,0:0:0:0:
344,136,174421,1,0,0:0:0:0:
304,128,174557,1,0,0:0:0:0:
272,144,174694,1,0,0:0:0:0:
256,192,174830,5,0,0:0:0:0:
256,92,175239,1,8,0:0:0:0:
356,88,175512,5,0,0:0:0:0:
408,88,175648,1,0,0:0:0:0:
408,140,175785,1,0,0:0:0:0:
360,140,175921,1,0,0:0:0:0:
212,144,176330,5,0,0:0:0:0:
172,236,176603,5,0,0:0:0:0:
184,284,176739,1,0,0:0:0:0:
216,324,176876,1,0,0:0:0:0:
260,348,177012,1,0,0:0:0:0:
360,340,177285,5,8,0:0:0:0:
404,320,177421,1,0,0:0:0:0:
436,280,177557,1,0,0:0:0:0:
432,228,177694,1,0,0:0:0:0:
392,200,177830,5,8,0:0:0:0:
344,204,177966,1,0,0:0:0:0:
304,232,178103,1,0,0:0:0:0:
236,284,178376,5,8,0:0:0:0:
196,316,178512,1,0,0:0:0:0:
148,328,178648,1,0,0:0:0:0:
64,272,178921,5,8,0:0:0:0:
28,240,179057,1,0,0:0:0:0:
28,188,179194,1,0,0:0:0:0:
40,40,179603,5,8,0:0:0:0:
140,40,179876,5,0,0:0:0:0:
188,60,180012,1,0,0:0:0:0:
236,40,180148,1,8,0:0:0:0:
276,68,180285,1,0,0:0:0:0:
324,48,180421,1,0,0:0:0:0:
416,88,180694,5,8,0:0:0:0:
420,236,181103,5,8,0:0:0:0:
320,236,181376,1,0,0:0:0:0:
260,156,181648,5,8,0:0:0:0:
220,128,181785,1,0,0:0:0:0:
172,136,181921,1,0,0:0:0:0:
140,176,182057,1,0,0:0:0:0:
128,224,182194,1,8,0:0:0:0:
136,272,182330,1,0,0:0:0:0:
264,348,182739,5,8,0:0:0:0:
300,316,182876,1,0,0:0:0:0:
328,276,183012,1,0,0:0:0:0:
336,228,183148,1,0,0:0:0:0:
308,184,183285,5,8,0:0:0:0:
276,144,183421,1,0,0:0:0:0:
228,144,183557,1,0,0:0:0:0:
228,244,183830,5,8,0:0:0:0:
180,232,183966,1,0,0:0:0:0:
136,204,184103,1,0,0:0:0:0:
104,164,184239,1,0,0:0:0:0:
112,116,184376,5,8,0:0:0:0:
152,72,184512,1,0,0:0:0:0:
196,52,184648,1,0,0:0:0:0:
296,48,184921,5,8,0:0:0:0:
344,44,185057,1,0,0:0:0:0:
396,48,185194,1,0,0:0:0:0:
444,64,185330,1,0,0:0:0:0:
452,112,185466,5,8,0:0:0:0:
452,164,185603,1,0,0:0:0:0:
424,204,185739,1,0,0:0:0:0:
324,208,186012,5,0,0:0:0:0:
300,252,186148,1,0,0:0:0:0:
280,296,186285,1,0,0:0:0:0:
244,260,186421,5,0,0:0:0:0:
216,300,186557,1,0,0:0:0:0:
168,284,186694,1,8,0:0:0:0:
136,324,186830,1,0,0:0:0:0:
88,320,186966,5,0,0:0:0:0:
68,272,187103,1,0,0:0:0:0:
76,224,187239,1,8,0:0:0:0:
116,192,187376,1,0,0:0:0:0:
168,196,187512,5,0,0:0:0:0:
216,196,187648,1,0,0:0:0:0:
256,168,187785,1,8,0:0:0:0:
284,124,187921,1,0,0:0:0:0:
312,272,188330,5,8,0:0:0:0:
440,192,188739,1,8,0:0:0:0:
468,288,189012,1,0,0:0:0:0:
384,340,189285,5,8,0:0:0:0:
356,300,189421,1,0,0:0:0:0:
360,252,189557,1,0,0:0:0:0:
396,216,189694,1,0,0:0:0:0:
400,168,189830,5,8,0:0:0:0:
360,140,189966,1,0,0:0:0:0:
336,96,190103,1,0,0:0:0:0:
248,48,190376,5,8,0:0:0:0:
204,72,190512,1,0,0:0:0:0:
168,108,190648,1,0,0:0:0:0:
128,140,190785,1,0,0:0:0:0:
92,176,190921,5,8,0:0:0:0:
52,208,191057,1,0,0:0:0:0:
84,244,191194,5,8,0:0:0:0:
124,216,191330,1,0,0:0:0:0:
164,184,191466,1,0,0:0:0:0:
204,152,191603,1,0,0:0:0:0:
240,116,191739,5,8,0:0:0:0:
280,88,191876,1,0,0:0:0:0:
328,80,192012,1,0,0:0:0:0:
376,96,192148,1,0,0:0:0:0:
376,148,192285,5,8,0:0:0:0:
376,296,192694,1,8,0:0:0:0:
300,232,192966,5,0,0:0:0:0:
248,228,193103,1,0,0:0:0:0:
208,200,193239,1,8,0:0:0:0:
200,152,193376,1,0,0:0:0:0:
300,144,193785,5,8,0:0:0:0:
340,236,194057,5,0,0:0:0:0:
328,284,194194,1,0,0:0:0:0:
296,324,194330,1,8,0:0:0:0:
252,348,194466,1,0,0:0:0:0:
152,340,194739,5,8,0:0:0:0:
108,320,194876,1,0,0:0:0:0:
76,280,195012,1,8,0:0:0:0:
80,228,195148,1,0,0:0:0:0:
120,200,195285,5,8,0:0:0:0:
168,204,195421,1,0,0:0:0:0:
208,232,195557,1,8,0:0:0:0:
276,284,195830,5,8,0:0:0:0:
316,316,195966,1,0,0:0:0:0:
364,328,196103,1,8,0:0:0:0:
448,272,196376,5,8,0:0:0:0:
484,240,196512,1,0,0:0:0:0:
484,188,196648,1,8,0:0:0:0:
472,40,197057,5,8,0:0:0:0:
372,40,197330,5,0,0:0:0:0:
324,60,197466,1,0,0:0:0:0:
276,40,197603,1,8,0:0:0:0:
236,68,197739,1,0,0:0:0:0:
188,48,197876,1,0,0:0:0:0:
96,88,198148,5,8,0:0:0:0:
92,236,198557,5,0,0:0:0:0:
192,236,198830,1,8,0:0:0:0:
252,156,199103,5,0,0:0:0:0:
292,128,199239,1,0,0:0:0:0:
340,136,199376,1,8,0:0:0:0:
372,176,199512,1,0,0:0:0:0:
384,224,199648,1,0,0:0:0:0:
376,272,199785,1,8,0:0:0:0:
248,348,200194,5,0,0:0:0:0:
212,316,200330,1,0,0:0:0:0:
184,276,200466,1,8,0:0:0:0:
176,228,200603,1,0,0:0:0:0:
204,184,200739,5,0,0:0:0:0:
236,144,200876,1,0,0:0:0:0:
284,144,201012,1,8,0:0:0:0:
284,244,201285,5,0,0:0:0:0:
332,232,201421,1,0,0:0:0:0:
376,204,201557,1,8,0:0:0:0:
408,164,201694,1,0,0:0:0:0:
400,116,201830,5,0,0:0:0:0:
360,72,201966,1,0,0:0:0:0:
316,52,202103,1,8,0:0:0:0:
216,48,202376,5,0,0:0:0:0:
168,44,202512,1,0,0:0:0:0:
116,48,202648,1,8,0:0:0:0:
68,64,202785,1,0,0:0:0:0:
60,112,202921,5,0,0:0:0:0:
60,164,203057,1,0,0:0:0:0:
88,204,203194,1,8,0:0:0:0:
188,208,203466,5,0,0:0:0:0:
212,252,203603,1,0,0:0:0:0:
232,296,203739,1,0,0:0:0:0:
268,260,203876,5,0,0:0:0:0:
296,300,204012,1,0,0:0:0:0:
344,284,204148,1,8,0:0:0:0:
376,324,204285,1,0,0:0:0:0:
424,320,204421,5,0,0:0:0:0:
444,272,204557,1,0,0:0:0:0:
436,224,204694,1,8,0:0:0:0:
396,192,204830,1,0,0:0:0:0:
344,196,204966,5,0,0:0:0:0:
296,196,205103,1,0,0:0:0:0:
256,168,205239,1,8,0:0:0:0:
228,124,205376,1,0,0:0:0:0:
200,272,205785,5,8,0:0:0:0:
72,192,206194,1,8,0:0:0:0:
44,288,206466,1,0,0:0:0:0:
128,340,206739,5,8,0:0:0:0:
156,300,206876,1,0,0:0:0:0:
152,252,207012,1,0,0:0:0:0:
116,216,207148,1,0,0:0:0:0:
112,168,207285,5,8,0:0:0:0:
152,140,207421,1,0,0:0:0:0:
176,96,207557,1,0,0:0:0:0:
264,48,207830,5,8,0:0:0:0:
308,72,207966,1,0,0:0:0:0:
344,108,208103,1,0,0:0:0:0:
384,140,208239,1,0,0:0:0:0:
420,176,208376,5,8,0:0:0:0:
460,208,208512,1,0,0:0:0:0:
428,244,208648,5,8,0:0:0:0:
388,216,208785,1,0,0:0:0:0:
348,184,208921,1,0,0:0:0:0:
308,152,209057,1,0,0:0:0:0:
272,116,209194,5,8,0:0:0:0:
232,88,209330,1,0,0:0:0:0:
184,80,209466,1,0,0:0:0:0:
136,96,209603,1,0,0:0:0:0:
52,220,210012,5,0,0:0:0:0:
136,168,210285,1,0,0:0:0:0:
204,240,210557,1,0,0:0:0:0:
272,168,210830,1,0,0:0:0:0:
320,256,211103,5,0,0:0:0:0:
384,180,211376,1,0,0:0:0:0:
440,264,211648,1,0,0:0:0:0:
468,64,212194,5,0,0:0:0:0:
380,112,212466,1,0,0:0:0:0:
324,28,212739,1,0,0:0:0:0:
256,100,213012,1,0,0:0:0:0:
220,8,213285,5,0,0:0:0:0:
144,72,213557,1,0,0:0:0:0:
96,8,213830,1,0,0:0:0:0:
60,44,213966,1,0,0:0:0:0:
48,192,214376,5,0,0:0:0:0:
76,288,214648,1,0,0:0:0:0:
176,272,214921,1,0,0:0:0:0:
244,344,215194,1,0,0:0:0:0:
316,272,215466,5,0,0:0:0:0:
392,340,215739,1,0,0:0:0:0:
444,256,216012,1,0,0:0:0:0:
256,192,216285,12,0,218466,0:0:0:0:
