osu file format v12

[General]
AudioFilename: 11 - The Uprising.mp3
AudioLeadIn: 2018
PreviewTime: 43921
Countdown: 0
SampleSet: Normal
StackLeniency: 0.7
Mode: 0
LetterboxInBreaks: 1

[Editor]
Bookmarks: 43921,55103,174830
DistanceSpacing: 1
BeatDivisor: 4
GridSize: 4

[Metadata]
Title:The Uprising
TitleUnicode:The Uprising
Artist:Eluveitie
ArtistUnicode:Eluveitie
Creator:Dwargkiller
Version:Hard
Source:
Tags:folk metal
BeatmapID:237750
BeatmapSetID:86948

[Difficulty]
HPDrainRate:4
CircleSize:4
OverallDifficulty:5
ApproachRate:4
SliderMultiplier:1.99999990463257
SliderTickRate:2

[Events]
//Background and Video events
0,0,"ab33e50eb382f42315a84c26e288a4dd.jpg",1,1
//Break Periods
2,92121,99328
2,153212,153874
//Storyboard Layer 0 (Background)
//Storyboard Layer 1 (Fail)
//Storyboard Layer 2 (Pass)
//Storyboard Layer 3 (Foreground)
//Storyboard Sound Samples
//Background Colour Transformations
3,100,163,162,255

[TimingPoints]
285.16535030991,545.454545454546,4,1,0,100,1,0
192285,-100,4,1,0,100,0,1
209739,-100,4,1,0,100,0,0

[HitObjects]
68,188,285,5,0,0:0:0:0:
148,128,557,1,0,0:0:0:0:
216,200,830,1,0,0:0:0:0:
288,128,1103,1,0,0:0:0:0:
380,172,1376,5,0,0:0:0:0:
464,228,1648,1,0,0:0:0:0:
464,328,1921,1,0,0:0:0:0:
368,352,2194,1,0,0:0:0:0:
172,348,2739,5,0,0:0:0:0:
112,268,3012,1,0,0:0:0:0:
184,200,3285,1,0,0:0:0:0:
140,104,3557,1,0,0:0:0:0:
280,120,3830,5,0,0:0:0:0:
244,28,4103,1,0,0:0:0:0:
344,32,4376,2,0,L|400:68,1,49.9999976158143
456,192,4921,5,0,0:0:0:0:
372,140,5194,1,0,0:0:0:0:
276,164,5466,1,0,0:0:0:0:
200,228,5739,1,0,0:0:0:0:
116,172,6012,5,0,0:0:0:0:
20,144,6285,1,0,0:0:0:0:
24,244,6557,1,0,0:0:0:0:
56,192,7103,5,0,0:0:0:0:
140,140,7376,1,0,0:0:0:0:
236,164,7648,1,0,0:0:0:0:
312,228,7921,1,0,0:0:0:0:
412,228,8194,5,0,0:0:0:0:
500,184,8466,1,0,0:0:0:0:
496,284,8739,1,0,0:0:0:0:
404,328,9012,6,0,L|352:328,1,49.9999976158143
304,328,9285,1,0,0:0:0:0:
204,340,9557,1,0,0:0:0:0:
120,284,9830,1,0,0:0:0:0:
96,188,10103,5,0,0:0:0:0:
76,88,10376,1,0,0:0:0:0:
168,52,10648,2,0,P|216:28|220:28,1,49.9999976158143
252,56,10921,2,0,P|284:96|280:100,1,49.9999976158143
228,212,11466,5,0,0:0:0:0:
320,248,11739,1,0,0:0:0:0:
404,192,12012,1,0,0:0:0:0:
324,132,12285,1,0,0:0:0:0:
436,32,12694,2,0,P|476:64|480:72,1,49.9999976158143
460,112,13103,6,0,L|380:156,1,49.9999976158143
436,176,13376,6,0,L|460:232,2,49.9999976158143
444,276,13921,5,0,0:0:0:0:
368,344,14194,1,0,0:0:0:0:
280,296,14466,1,0,0:0:0:0:
240,204,14739,1,0,0:0:0:0:
144,180,15012,1,0,0:0:0:0:
216,108,15285,6,0,L|264:120,1,49.9999976158143
300,84,15557,2,0,L|312:36,1,49.9999976158143
260,32,15830,1,0,0:0:0:0:
172,36,16103,5,0,0:0:0:0:
88,88,16376,1,0,0:0:0:0:
112,180,16648,6,0,L|184:180,2,49.9999976158143
212,180,17194,2,0,L|268:180,3,49.9999976158143
412,176,18012,1,0,0:0:0:0:
416,276,18285,1,0,0:0:0:0:
328,224,18557,5,0,0:0:0:0:
328,324,18830,1,0,0:0:0:0:
240,276,19103,1,0,0:0:0:0:
172,348,19376,2,0,L|124:288,1,49.9999976158143
112,268,19648,2,0,L|136:208,1,49.9999976158143
108,72,20194,5,0,0:0:0:0:
200,32,20466,1,0,0:0:0:0:
256,116,20739,1,0,0:0:0:0:
292,208,21012,1,0,0:0:0:0:
384,88,21421,2,0,L|416:40,1,49.9999976158143
444,168,21830,2,0,L|500:168,1,49.9999976158143
396,280,22376,5,0,0:0:0:0:
336,360,22648,1,0,0:0:0:0:
236,368,22921,1,0,0:0:0:0:
140,340,23194,1,0,0:0:0:0:
64,276,23466,5,0,0:0:0:0:
148,220,23739,1,0,0:0:0:0:
240,176,24012,2,0,P|260:128|256:124,1,49.9999976158143
236,100,24285,2,0,L|272:36,2,49.9999976158143
92,100,24830,5,0,0:0:0:0:
104,200,25103,2,0,P|148:240|156:232,1,49.9999976158143
212,292,25512,5,0,0:0:0:0:
360,260,25785,2,0,L|300:296,2,49.9999976158143
444,216,26330,6,0,P|396:172|376:172,1,49.9999976158143
328,124,26739,5,0,0:0:0:0:
232,96,27012,1,0,0:0:0:0:
136,120,27285,1,0,0:0:0:0:
92,208,27557,1,0,0:0:0:0:
140,288,27830,1,0,0:0:0:0:
236,260,28103,2,0,L|272:216,1,49.9999976158143
256,172,28376,6,0,L|232:128,2,49.9999976158143
140,80,29057,1,0,0:0:0:0:
212,8,29466,1,0,0:0:0:0:
296,64,29739,6,0,L|348:64,1,49.9999976158143
216,64,30012,2,0,L|164:64,1,49.9999976158143
292,136,30285,2,0,L|340:148,1,49.9999976158143
220,136,30557,2,0,L|172:148,1,49.9999976158143
260,176,30830,5,0,0:0:0:0:
324,252,31103,1,0,0:0:0:0:
284,344,31376,1,0,0:0:0:0:
188,320,31648,1,0,0:0:0:0:
124,240,31921,5,0,0:0:0:0:
112,140,32194,1,0,0:0:0:0:
168,56,32466,1,0,0:0:0:0:
212,36,32603,1,0,0:0:0:0:
260,28,32739,2,0,L|320:28,1,49.9999976158143
356,48,33012,5,0,0:0:0:0:
396,76,33148,1,0,0:0:0:0:
428,116,33285,2,0,L|448:172,1,49.9999976158143
444,212,33557,5,0,0:0:0:0:
440,260,33694,1,0,0:0:0:0:
408,296,33830,2,0,L|368:332,1,49.9999976158143
324,344,34103,1,0,0:0:0:0:
276,352,34239,1,0,0:0:0:0:
228,344,34376,1,0,0:0:0:0:
200,304,34512,5,0,0:0:0:0:
124,236,34785,1,0,0:0:0:0:
100,140,35057,2,0,L|36:140,1,49.9999976158143
132,84,35466,1,0,0:0:0:0:
220,36,35739,1,0,0:0:0:0:
304,92,36012,1,0,0:0:0:0:
396,136,36285,5,0,0:0:0:0:
420,232,36557,1,0,0:0:0:0:
320,240,36830,2,0,L|260:240,1,49.9999976158143
224,220,37103,1,0,0:0:0:0:
180,200,37239,2,0,L|144:164,1,49.9999976158143
116,68,37648,1,0,0:0:0:0:
216,84,37921,5,0,0:0:0:0:
312,112,38194,1,0,0:0:0:0:
408,144,38466,5,0,0:0:0:0:
444,180,38603,1,0,0:0:0:0:
460,228,38739,1,0,0:0:0:0:
432,268,38876,1,0,0:0:0:0:
396,304,39012,1,0,0:0:0:0:
348,320,39148,1,0,0:0:0:0:
300,328,39285,1,0,0:0:0:0:
256,304,39421,1,0,0:0:0:0:
256,192,39557,12,0,41194,0:0:0:0:
184,112,41739,6,0,L|236:112,1,49.9999976158143
336,108,42148,2,0,L|336:160,1,49.9999976158143
340,260,42557,2,0,L|280:260,1,49.9999976158143
192,268,42966,2,0,L|192:216,1,49.9999976158143
256,192,43376,5,4,0:0:0:0:
256,192,43921,5,4,0:0:0:0:
256,92,44330,1,0,0:0:0:0:
356,76,44603,2,0,L|408:116,1,49.9999976158143
428,148,44876,2,0,L|384:184,1,49.9999976158143
316,216,45421,5,0,0:0:0:0:
216,212,45694,2,0,L|248:264,1,49.9999976158143
204,288,45966,2,0,L|172:340,1,49.9999976158143
104,320,46376,2,0,L|44:320,1,49.9999976158143
52,272,46648,2,0,L|112:272,1,49.9999976158143
96,224,46921,6,0,L|132:184,1,49.9999976158143
160,148,47194,1,0,0:0:0:0:
208,60,47466,2,0,L|272:60,1,49.9999976158143
308,64,47739,1,0,0:0:0:0:
372,140,48012,2,0,L|400:208,1,49.9999976158143
344,176,48285,1,0,0:0:0:0:
260,224,48694,5,0,0:0:0:0:
160,224,48966,2,0,L|160:148,2,49.9999976158143
108,228,49376,2,0,L|108:284,1,49.9999976158143
192,332,49785,5,0,0:0:0:0:
320,252,50194,5,0,0:0:0:0:
340,156,50466,1,0,0:0:0:0:
416,92,50739,2,0,L|376:52,1,49.9999976158143
332,64,51012,2,0,L|292:104,1,49.9999976158143
248,84,51285,2,0,L|208:44,1,49.9999976158143
64,36,51830,6,0,L|136:36,1,49.9999976158143
120,84,52103,2,0,L|172:84,1,49.9999976158143
176,132,52376,2,0,L|228:132,1,49.9999976158143
276,132,52648,1,0,0:0:0:0:
448,36,52921,6,0,L|376:36,1,49.9999976158143
392,84,53194,2,0,L|340:84,1,49.9999976158143
336,132,53467,2,0,L|284:132,1,49.9999976158143
236,132,53739,1,0,0:0:0:0:
156,72,54012,6,0,L|156:144,1,49.9999976158143
108,128,54285,2,0,L|108:180,1,49.9999976158143
60,184,54558,2,0,L|60:236,1,49.9999976158143
60,284,54830,1,0,0:0:0:0:
160,288,55103,6,0,L|160:232,1,49.9999976158143
212,236,55376,2,0,L|212:296,1,49.9999976158143
260,288,55648,2,0,L|316:288,1,49.9999976158143
360,296,55921,2,0,L|360:240,1,49.9999976158143
412,244,56194,2,0,L|412:316,1,49.9999976158143
464,292,56467,2,0,L|464:240,1,49.9999976158143
460,200,56739,2,0,L|460:148,1,49.9999976158143
456,100,57012,5,0,0:0:0:0:
308,120,57421,1,0,0:0:0:0:
196,220,57830,1,0,0:0:0:0:
128,292,58103,1,0,0:0:0:0:
108,192,58376,2,0,P|72:152|80:136,1,49.9999976158143
120,144,58648,2,0,P|168:124|168:120,1,49.9999976158143
168,88,58921,2,0,P|140:40|140:36,1,49.9999976158143
192,36,59194,1,0,0:0:0:0:
292,28,59466,6,0,P|356:40|372:56,1,49.9999976158143
384,60,59739,2,0,P|420:104|424:116,1,49.9999976158143
436,144,60012,2,0,P|448:200|440:208,1,49.9999976158143
452,236,60285,2,0,P|436:292|432:296,1,49.9999976158143
404,316,60557,2,0,P|344:352|328:352,1,49.9999976158143
316,344,60830,2,0,P|264:340|256:336,1,49.9999976158143
216,332,61103,2,0,P|168:304|160:292,1,49.9999976158143
460,220,61648,5,0,0:0:0:0:
376,168,61921,1,0,0:0:0:0:
308,240,62194,1,0,0:0:0:0:
240,168,62466,1,0,0:0:0:0:
192,256,62739,5,0,0:0:0:0:
128,180,63012,1,0,0:0:0:0:
72,264,63285,1,0,0:0:0:0:
44,64,63830,5,0,0:0:0:0:
132,112,64103,1,0,0:0:0:0:
188,28,64376,1,0,0:0:0:0:
256,100,64648,1,0,0:0:0:0:
292,8,64921,5,0,0:0:0:0:
368,72,65194,1,0,0:0:0:0:
416,8,65466,1,0,0:0:0:0:
452,44,65603,1,0,0:0:0:0:
464,192,66012,5,0,0:0:0:0:
436,288,66285,1,0,0:0:0:0:
336,272,66557,1,0,0:0:0:0:
268,344,66830,1,0,0:0:0:0:
196,272,67103,5,0,0:0:0:0:
120,340,67376,1,0,0:0:0:0:
68,256,67648,1,0,0:0:0:0:
56,56,68194,5,0,0:0:0:0:
108,140,68466,1,0,0:0:0:0:
160,56,68739,2,0,B|232:112|208:96,1,49.9999976158143
288,152,69148,5,0,0:0:0:0:
388,164,69421,2,0,L|368:108,2,49.9999976158143
424,248,69966,6,0,P|384:280|380:276,1,49.9999976158143
328,312,70376,5,0,0:0:0:0:
332,212,70648,1,0,0:0:0:0:
240,252,70921,1,0,0:0:0:0:
256,352,71194,1,0,0:0:0:0:
168,308,71466,1,0,0:0:0:0:
68,328,71739,2,0,L|124:360,2,49.9999976158143
88,272,72148,2,0,L|56:232,1,49.9999976158143
40,136,72557,1,0,0:0:0:0:
76,44,72830,1,0,0:0:0:0:
176,24,73103,1,0,0:0:0:0:
268,60,73376,6,0,L|316:104,1,49.9999976158143
260,116,73648,2,0,L|308:160,1,49.9999976158143,0|0,0:0|0:0,0:0:0:0:
248,160,73921,6,0,L|200:204,1,49.9999976158143
256,216,74194,2,0,L|208:260,1,49.9999976158143
276,152,74466,5,0,0:0:0:0:
376,164,74739,1,0,0:0:0:0:
340,256,75012,1,0,0:0:0:0:
432,292,75285,1,0,0:0:0:0:
352,352,75557,5,0,0:0:0:0:
256,316,75830,1,0,0:0:0:0:
160,288,76103,6,0,L|208:244,1,49.9999976158143
152,232,76375,2,0,L|200:188,1,49.9999976158143,0|0,0:0|0:0,0:0:0:0:
140,184,76648,6,0,L|92:140,1,49.9999976158143
148,128,76920,2,0,L|100:84,1,49.9999976158143,0|0,0:0|0:0,0:0:0:0:
148,60,77194,6,0,L|192:108,1,49.9999976158143
204,52,77466,2,0,L|248:100,1,49.9999976158143,0|0,0:0|0:0,0:0:0:0:
256,44,77739,2,0,L|300:92,1,49.9999976158143,0|0,0:0|0:0,0:0:0:0:
332,104,78012,1,0,0:0:0:0:
316,152,78149,5,0,0:0:0:0:
240,216,78422,1,0,0:0:0:0:
144,248,78694,2,0,L|80:248,1,49.9999976158143
32,156,79103,1,0,0:0:0:0:
120,104,79376,1,0,0:0:0:0:
56,28,79649,1,0,0:0:0:0:
156,20,79922,5,0,0:0:0:0:
256,12,80194,1,0,0:0:0:0:
308,100,80467,2,0,L|252:136,2,49.9999976158143
352,72,80876,2,0,L|396:44,1,49.9999976158143
492,20,81285,1,0,0:0:0:0:
464,116,81558,5,0,0:0:0:0:
372,156,81831,1,0,0:0:0:0:
300,224,82103,5,0,0:0:0:0:
252,232,82239,1,0,0:0:0:0:
204,228,82376,1,0,0:0:0:0:
160,208,82512,1,0,0:0:0:0:
132,168,82648,5,0,0:0:0:0:
116,120,82785,1,0,0:0:0:0:
120,72,82921,1,0,0:0:0:0:
160,44,83057,1,0,0:0:0:0:
208,32,83194,5,0,0:0:0:0:
280,132,83466,5,0,0:0:0:0:
308,228,83739,1,0,0:0:0:0:
404,260,84012,1,0,0:0:0:0:
424,144,84285,5,0,0:0:0:0:
364,64,84557,1,0,0:0:0:0:
328,156,84830,2,0,L|268:192,3,49.9999976158143
240,200,85376,2,0,L|136:252,1,99.9999952316285
64,192,85921,5,0,0:0:0:0:
84,96,86194,1,0,0:0:0:0:
164,40,86466,2,0,L|244:40,1,49.9999976158143
312,56,86876,1,0,0:0:0:0:
392,184,87285,1,0,0:0:0:0:
444,268,87557,2,0,P|256:328|76:192,1,399.999980926514
94,226,89194,2,0,P|12:128|12:32,1,199.999990463257
4,23,89876,5,0,0:0:0:0:
88,76,90148,2,0,L|136:112,1,49.9999976158143
208,164,90557,2,0,L|252:196,1,49.9999976158143
340,232,90966,2,0,L|392:236,1,49.9999976158143
380,136,91376,6,0,L|380:80,3,49.9999976158143
380,36,91921,1,0,0:0:0:0:
256,192,100648,6,0,L|256:140,1,49.9999976158143
256,80,101057,2,0,L|256:28,1,49.9999976158143
180,28,101466,2,0,L|128:28,1,49.9999976158143
128,96,101876,2,0,L|128:148,1,49.9999976158143
128,208,102285,6,0,L|128:260,1,49.9999976158143
196,264,102694,2,0,L|248:264,2,49.9999976158143
128,276,103239,2,0,L|128:328,1,49.9999976158143
192,336,103648,2,0,L|248:336,1,49.9999976158143
312,336,104057,6,0,L|372:336,1,49.9999976158143
432,336,104466,2,0,L|488:336,5,49.9999976158143
484,272,105421,2,0,L|484:220,1,49.9999976158143
484,160,105830,2,0,L|484:108,1,49.9999976158143
484,48,106239,6,0,L|484:-4,1,49.9999976158143
432,0,106648,2,0,L|392:32,1,49.9999976158143
436,80,107057,2,0,L|400:120,2,49.9999976158143
440,156,107603,2,0,L|404:200,1,49.9999976158143
444,228,108012,6,0,L|408:264,1,49.9999976158143
448,300,108421,2,0,L|412:340,1,49.9999976158143
340,328,108830,2,0,L|276:328,5,49.9999976158143
220,324,109785,2,0,L|168:324,1,49.9999976158143
108,320,110194,6,0,L|56:320,1,49.9999976158143
60,260,110603,2,0,L|60:208,1,49.9999976158143
124,208,111012,2,0,L|124:264,1,49.9999976158143
184,264,111421,2,0,L|184:200,1,49.9999976158143
248,208,111830,6,0,L|248:272,1,49.9999976158143
312,260,112239,2,0,L|312:192,1,49.9999976158143
376,204,112648,2,0,L|376:268,1,49.9999976158143
444,256,113194,2,0,L|444:192,5,49.9999976158143
448,148,114148,6,0,L|448:92,1,49.9999976158143
448,36,114557,2,0,L|396:36,1,49.9999976158143
336,36,114966,2,0,L|272:36,1,49.9999976158143
220,36,115376,2,0,L|144:36,1,49.9999976158143
136,36,115785,6,0,L|80:36,2,49.9999976158143
136,104,116330,2,0,L|200:104,1,49.9999976158143
192,168,116739,2,0,L|140:168,1,49.9999976158143
144,232,117148,2,0,L|200:232,1,49.9999976158143
200,296,117557,6,0,L|288:296,5,49.9999976158143
312,296,118512,2,0,L|364:296,1,49.9999976158143
424,296,118921,2,0,L|480:296,1,49.9999976158143
480,236,119330,2,0,L|480:184,1,49.9999976158143
444,120,119739,2,0,L|416:72,1,49.9999976158143
356,28,120148,2,0,L|288:16,1,49.9999976158143
160,44,120694,2,0,L|112:100,1,49.9999976158143
88,176,121103,2,0,L|132:224,1,49.9999976158143
120,312,121512,2,0,L|208:312,1,49.9999976158143
296,332,121921,2,0,P|356:332|364:316,5,49.9999976158143
380,312,122876,2,0,L|436:296,1,49.9999976158143
444,232,123285,2,0,L|444:176,1,49.9999976158143
424,112,123694,6,0,L|376:72,1,49.9999976158143
320,48,124103,2,0,P|252:56|244:72,1,49.9999976158143
124,68,124648,2,0,L|176:100,1,49.9999976158143
260,128,125057,2,0,L|200:160,1,49.9999976158143
76,200,125603,5,0,0:0:0:0:
224,232,126012,1,0,0:0:0:0:
324,220,126285,2,0,L|372:264,3,49.9999976158143
360,304,126830,2,0,L|304:320,1,49.9999976158143
212,328,127239,2,0,L|152:328,1,49.9999976158143
84,268,127648,2,0,L|84:216,3,49.9999976158143
160,152,128330,5,0,0:0:0:0:
288,232,128739,1,0,0:0:0:0:
368,292,129012,2,0,L|436:320,1,49.9999976158143
460,224,129421,2,0,P|460:168|436:168,2,49.9999976158143
412,204,129830,6,0,L|384:152,3,49.9999976158143
116,140,130512,5,0,0:0:0:0:
84,44,130921,1,0,0:0:0:0:
180,24,131194,2,0,L|224:56,1,49.9999976158143
316,24,131603,2,0,L|364:64,1,49.9999976158143
424,128,132012,2,0,L|388:180,3,49.9999976158143
296,168,132694,1,0,0:0:0:0:
212,112,132966,6,0,L|148:48,1,49.9999976158143
84,116,133376,2,0,L|40:60,1,49.9999976158143
44,176,133785,2,0,L|88:240,1,49.9999976158143
164,180,134194,2,0,L|136:260,2,49.9999976158143
256,208,134876,1,0,0:0:0:0:
260,160,135012,6,0,L|272:112,3,49.9999976158143
280,64,135557,2,0,L|108:64,2,149.999992847443
380,60,136648,2,0,P|448:192|384:328,1,299.999985694885
340,324,137739,2,0,L|176:324,2,149.999992847443
340,224,138830,1,0,0:0:0:0:
364,128,139103,6,0,L|412:68,2,49.9999976158143
276,80,139648,2,0,L|320:140,3,49.9999976158143
276,192,140330,2,0,L|232:248,1,49.9999976158143
148,252,140739,6,0,L|60:216,3,49.9999976158143
244,260,141421,5,0,0:0:0:0:
392,292,141830,1,0,0:0:0:0:
436,204,142103,2,0,L|436:152,1,49.9999976158143
424,56,142512,6,0,L|364:20,1,49.9999976158143
284,52,142921,6,0,L|216:52,1,49.9999976158143
184,52,143194,2,0,L|128:52|124:52,1,49.9999976158143
72,188,143739,2,0,L|148:188,3,49.9999976158143
116,252,144285,6,0,L|280:252,2,149.999992847443
32,308,145376,2,0,L|344:308,1,299.999985694885
256,192,146466,2,0,L|256:36,2,149.999992847443
256,196,147557,2,0,L|256:320,2,99.9999952316285
256,196,148648,1,0,0:0:0:0:
256,192,149057,12,0,153012,0:0:0:0:
232,192,155194,6,0,L|180:192,2,49.9999976158143
284,192,155603,2,0,L|340:192,2,49.9999976158143
260,236,156012,2,0,L|260:292,1,49.9999976158143
260,336,156285,5,0,0:0:0:0:
360,336,156557,2,0,L|432:336,1,49.9999976158143
436,292,156830,2,0,L|488:240,1,49.9999976158143
472,208,157103,6,0,L|472:132,2,49.9999976158143,0|0|0,0:0|0:0|0:0,0:0:0:0:
420,124,157648,1,0,0:0:0:0:
348,48,157921,1,0,0:0:0:0:
308,140,158194,1,0,0:0:0:0:
300,232,158466,5,0,0:0:0:0:
224,268,158739,1,0,0:0:0:0:
132,308,159012,2,0,L|76:324,1,49.9999976158143
36,304,159285,2,0,L|-8:268,1,49.9999976158143
0,224,159557,5,0,0:0:0:0:
20,124,159830,1,0,0:0:0:0:
84,48,160103,1,0,0:0:0:0:
184,28,160376,1,0,0:0:0:0:
284,28,160648,6,0,L|328:72,1,49.9999976158143
312,112,160921,2,0,L|356:152,1,49.9999976158143
316,184,161194,6,0,L|256:244,1,49.9999976158143
308,260,161466,2,0,L|256:312,1,49.9999976158143
224,312,161739,5,0,0:0:0:0:
128,340,162012,1,0,0:0:0:0:
36,304,162285,1,0,0:0:0:0:
0,220,162557,1,0,0:0:0:0:
8,120,162830,5,0,0:0:0:0:
68,40,163103,1,0,0:0:0:0:
156,88,163376,6,0,L|200:44,1,49.9999976158143
240,60,163649,2,0,L|280:16,1,49.9999976158143
312,56,163922,6,0,L|372:116,1,49.9999976158143
388,64,164194,2,0,L|440:116,1,49.9999976158143
420,148,164466,6,0,L|376:192,1,49.9999976158143
336,176,164739,2,0,L|296:220,1,49.9999976158143
264,180,165012,6,0,L|204:120,1,49.9999976158143
188,172,165284,2,0,L|136:120,1,49.9999976158143
380,168,165694,1,0,0:0:0:0:
380,248,165966,1,0,0:0:0:0:
332,248,166103,1,0,0:0:0:0:
256,316,166376,5,0,0:0:0:0:
156,336,166648,1,0,0:0:0:0:
72,284,166921,1,0,0:0:0:0:
60,136,167194,5,0,0:0:0:0:
160,136,167466,1,0,0:0:0:0:
156,36,167739,2,0,P|208:36|212:40,1,49.9999976158143
252,40,168012,2,0,P|312:48|316:52,1,49.9999976158143
308,88,168285,1,0,0:0:0:0:
348,180,168557,1,0,0:0:0:0:
424,112,168830,1,0,0:0:0:0:
472,200,169103,1,0,0:0:0:0:
464,300,169376,6,0,L|424:364,1,49.9999976158143
420,296,169648,2,0,L|380:368,1,49.9999976158143
344,336,169921,2,0,L|380:260,1,49.9999976158143
288,332,170194,2,0,L|312:284,1,49.9999976158143
332,244,170466,1,0,0:0:0:0:
60,328,171148,5,0,0:0:0:0:
256,332,171557,1,0,0:0:0:0:
460,332,172239,1,0,0:0:0:0:
256,192,172648,1,0,0:0:0:0:
256,48,173330,5,0,0:0:0:0:
116,104,173739,2,0,L|116:172,1,49.9999976158143
116,204,174012,2,0,L|116:264,1,49.9999976158143
168,336,174285,2,0,L|224:336,1,49.9999976158143
268,336,174557,2,0,L|328:336,1,49.9999976158143
256,192,174830,5,4,0:0:0:0:
256,92,175239,1,0,0:0:0:0:
356,76,175512,2,0,L|408:116,1,49.9999976158143
428,148,175785,2,0,L|384:184,1,49.9999976158143
316,216,176330,5,0,0:0:0:0:
216,212,176603,2,0,L|248:264,1,49.9999976158143
204,288,176875,2,0,L|172:340,1,49.9999976158143
104,320,177285,2,0,L|44:320,1,49.9999976158143
52,272,177557,2,0,L|112:272,1,49.9999976158143
96,224,177830,6,0,L|132:184,1,49.9999976158143
160,148,178103,1,0,0:0:0:0:
208,60,178375,2,0,L|272:60,1,49.9999976158143
308,64,178648,1,0,0:0:0:0:
372,140,178921,2,0,L|400:208,1,49.9999976158143
412,232,179194,1,0,0:0:0:0:
260,224,179603,5,0,0:0:0:0:
160,224,179875,2,0,L|160:148,2,49.9999976158143
108,228,180285,2,0,L|108:284,1,49.9999976158143
192,332,180694,5,0,0:0:0:0:
320,252,181103,5,0,0:0:0:0:
340,156,181375,1,0,0:0:0:0:
416,92,181648,2,0,L|376:52,1,49.9999976158143
332,64,181921,2,0,L|292:104,1,49.9999976158143
248,84,182194,2,0,L|208:44,1,49.9999976158143
64,36,182739,6,0,L|136:36,1,49.9999976158143
120,84,183012,2,0,L|172:84,1,49.9999976158143
176,132,183285,2,0,L|228:132,1,49.9999976158143
276,132,183557,1,0,0:0:0:0:
448,36,183830,6,0,L|376:36,1,49.9999976158143
392,84,184103,2,0,L|340:84,1,49.9999976158143
336,132,184376,2,0,L|284:132,1,49.9999976158143
236,132,184648,1,0,0:0:0:0:
156,72,184921,6,0,L|156:144,1,49.9999976158143
108,128,185194,2,0,L|108:180,1,49.9999976158143
60,184,185467,2,0,L|60:236,1,49.9999976158143
60,284,185739,1,0,0:0:0:0:
160,288,186012,6,0,L|160:232,1,49.9999976158143
212,236,186285,2,0,L|212:296,1,49.9999976158143
260,288,186557,2,0,L|316:288,1,49.9999976158143
360,296,186830,2,0,L|360:240,1,49.9999976158143
412,244,187103,2,0,L|412:316,1,49.9999976158143
464,292,187376,2,0,L|464:240,1,49.9999976158143
460,200,187648,2,0,L|460:148,1,49.9999976158143
456,100,187921,5,0,0:0:0:0:
308,120,188330,1,0,0:0:0:0:
196,220,188739,1,0,0:0:0:0:
128,292,189012,1,0,0:0:0:0:
108,192,189285,2,0,P|72:152|80:136,1,49.9999976158143
120,144,189557,2,0,P|168:124|168:120,1,49.9999976158143
168,88,189830,2,0,P|140:40|140:36,1,49.9999976158143
192,36,190103,1,0,0:0:0:0:
292,28,190375,6,0,P|356:40|372:56,1,49.9999976158143
384,60,190648,2,0,P|420:104|424:116,1,49.9999976158143
436,144,190921,2,0,P|448:200|440:208,1,49.9999976158143
452,236,191194,2,0,P|436:292|432:296,1,49.9999976158143
404,316,191466,2,0,P|344:352|328:352,1,49.9999976158143
316,344,191739,2,0,P|264:340|256:336,1,49.9999976158143
216,332,192012,2,0,P|168:304|160:292,1,49.9999976158143
256,192,192285,5,4,0:0:0:0:
256,92,192694,1,0,0:0:0:0:
156,76,192967,2,0,L|104:116,1,49.9999976158143
84,148,193240,2,0,L|128:184,1,49.9999976158143
196,216,193785,5,0,0:0:0:0:
296,212,194058,2,0,L|264:264,1,49.9999976158143
308,288,194330,2,0,L|340:340,1,49.9999976158143
408,320,194740,2,0,L|468:320,1,49.9999976158143
460,272,195012,2,0,L|400:272,1,49.9999976158143
416,224,195285,6,0,L|380:184,1,49.9999976158143
352,148,195558,1,0,0:0:0:0:
304,60,195830,2,0,L|240:60,1,49.9999976158143
204,64,196103,1,0,0:0:0:0:
140,140,196376,2,0,L|112:208,1,49.9999976158143
100,232,196648,1,0,0:0:0:0:
252,224,197058,5,0,0:0:0:0:
352,224,197330,2,0,L|352:148,2,49.9999976158143
404,228,197740,2,0,L|404:284,1,49.9999976158143
320,332,198149,5,0,0:0:0:0:
192,252,198558,5,0,0:0:0:0:
172,156,198830,1,0,0:0:0:0:
96,92,199103,2,0,L|136:52,1,49.9999976158143
180,64,199376,2,0,L|220:104,1,49.9999976158143
264,84,199649,2,0,L|304:44,1,49.9999976158143
448,36,200194,6,0,L|376:36,1,49.9999976158143
392,84,200467,2,0,L|340:84,1,49.9999976158143
336,132,200740,2,0,L|284:132,1,49.9999976158143
236,132,201012,1,0,0:0:0:0:
64,36,201285,6,0,L|136:36,1,49.9999976158143
120,84,201558,2,0,L|172:84,1,49.9999976158143
176,132,201831,2,0,L|228:132,1,49.9999976158143
276,132,202103,1,0,0:0:0:0:
356,72,202376,6,0,L|356:144,1,49.9999976158143
404,128,202649,2,0,L|404:180,1,49.9999976158143
452,184,202922,2,0,L|452:236,1,49.9999976158143
452,284,203194,1,0,0:0:0:0:
352,288,203466,6,0,L|352:232,1,49.9999976158143
300,236,203739,2,0,L|300:296,1,49.9999976158143
252,288,204011,2,0,L|196:288,1,49.9999976158143
152,296,204284,2,0,L|152:240,1,49.9999976158143
100,244,204557,2,0,L|100:316,1,49.9999976158143
48,292,204830,2,0,L|48:240,1,49.9999976158143
52,200,205102,2,0,L|52:148,1,49.9999976158143
56,100,205376,5,0,0:0:0:0:
204,120,205785,1,0,0:0:0:0:
316,220,206194,1,0,0:0:0:0:
384,292,206467,1,0,0:0:0:0:
404,192,206740,2,0,P|440:152|432:136,1,49.9999976158143
392,144,207012,2,0,P|344:124|344:120,1,49.9999976158143
344,88,207285,2,0,P|372:40|372:36,1,49.9999976158143
320,36,207558,1,0,0:0:0:0:
220,28,207830,6,0,P|156:40|140:56,1,49.9999976158143
128,60,208103,2,0,P|92:104|88:116,1,49.9999976158143
76,144,208376,2,0,P|64:200|72:208,1,49.9999976158143
60,236,208649,2,0,P|76:292|80:296,1,49.9999976158143
108,316,208921,6,0,P|168:352|184:352,1,49.9999976158143
196,344,209194,2,0,P|248:340|256:336,1,49.9999976158143
296,332,209467,2,0,P|344:304|352:292,1,49.9999976158143
52,220,210012,5,0,0:0:0:0:
136,168,210285,1,0,0:0:0:0:
204,240,210557,1,0,0:0:0:0:
272,168,210830,1,0,0:0:0:0:
320,256,211103,5,0,0:0:0:0:
384,180,211376,1,0,0:0:0:0:
440,264,211648,1,0,0:0:0:0:
468,64,212194,5,0,0:0:0:0:
380,112,212466,1,0,0:0:0:0:
308,44,212739,1,0,0:0:0:0:
240,116,213012,1,0,0:0:0:0:
164,48,213285,5,0,0:0:0:0:
100,124,213557,1,0,0:0:0:0:
96,224,213830,1,0,0:0:0:0:
104,272,213966,1,0,0:0:0:0:
184,144,214376,5,0,0:0:0:0:
276,100,214648,1,0,0:0:0:0:
324,188,214921,1,0,0:0:0:0:
412,136,215194,1,0,0:0:0:0:
464,220,215466,5,0,0:0:0:0:
392,292,215739,1,0,0:0:0:0:
292,308,216012,1,0,0:0:0:0:
256,192,216285,12,4,218466,0:0:0:0:
