osu file format v9

[General]
AudioFilename: 08 - omnos.mp3
AudioLeadIn: 0
PreviewTime: 59404
Countdown: 0
SampleSet: Normal
StackLeniency: 0.7
Mode: 0
LetterboxInBreaks: 1

[Editor]
DistanceSpacing: 0.9
BeatDivisor: 4
GridSize: 8

[Metadata]
Title:Omnos
Artist:Eluveitie
Creator:narakucrimson
Version:Normal
Source:
Tags:melodic folk metal

[Difficulty]
HPDrainRate:2
CircleSize:3
OverallDifficulty:3
ApproachRate:4
SliderMultiplier:1.2
SliderTickRate:2

[Events]
//Background and Video events
0,0,"background.jpg"
Video,0,"Omnos.wmv"
//Break Periods
2,25511,31145
2,84619,90684
//Storyboard Layer 0 (Background)
//Storyboard Layer 1 (Fail)
//Storyboard Layer 2 (Pass)
//Storyboard Layer 3 (Foreground)
//Storyboard Sound Samples
//Background Colour Transformations
3,100,163,162,255

[TimingPoints]
1081,461.538461538462,4,1,0,100,1,0
62004,-100,4,1,0,100,0,1
69388,-100,4,1,0,100,0,0
128465,-100,4,1,0,100,0,1
136311,-100,4,1,0,100,0,0
143234,-100,4,1,0,100,0,1
158004,-100,4,1,0,100,0,0

[Colours]
Combo1 : 107,99,143
Combo2 : 0,49,164
Combo3 : 132,141,168
Combo4 : 163,211,214

[HitObjects]
256,48,10311,1,4
192,136,10773,2,8,B|208:176|256:184,1,60
176,272,11465,1,0
224,296,11696,1,8
328,272,12157,5,4
376,176,12619,2,8,B|362:162|334:162|320:176,1,60
240,104,13311,1,0
184,104,13542,1,8
104,176,14004,6,0,B|128:216|176:192,1,60,4|0
192,240,14465,1,8
248,232,14696,1,8
352,240,15157,2,0,B|336:216|376:192|336:160,1,60,0|8
440,248,15850,5,0
360,320,16311,1,8
304,312,16542,1,8
200,288,17004,1,0
160,248,17234,1,8
192,200,17465,2,4,B|216:208|208:160|232:168,1,60,0|4
192,56,18157,5,8
152,104,18388,1,8
152,224,18850,1,0
192,272,19081,1,8
256,192,19542,8,0,21388
407,300,22311,5,8
448,200,22773,1,8
392,104,23234,1,0
285,86,23696,5,8
231,89,23927,1,8
200,184,24388,2,0,B|168:224|216:248,1,60,0|8
256,248,24850,1,0
312,240,25081,2,4,B|344:200|296:176,1,60,12|0
360,304,32465,5,0
256,296,32927,1,0
200,296,33157,1,0
120,224,33619,1,8
120,112,34081,1,8
256,24,34773,5,0
256,80,35004,1,0
304,176,35465,1,8
416,176,35927,1,8
448,336,36619,5,0
392,336,36850,1,0
296,288,37311,1,8
200,336,37773,1,8
352,152,38465,5,0
320,104,38696,1,0
160,104,39388,1,8
128,152,39619,1,8
296,184,40311,5,0
296,240,40541,1,0
248,344,41003,1,8
136,344,41464,1,8
176,192,42157,5,0
120,192,42388,1,0
280,192,43081,1,8
336,192,43311,1,8
184,136,44004,6,0,B|128:160|80:224|112:296|176:352|256:328|288:272|304:232,1,360
400,160,45850,1,0
384,112,46081,1,0
224,96,46773,1,8
248,144,47004,2,0,B|304:192|328:240|320:272|336:312|384:336|496:288|416:176,1,360
424,80,48850,5,0
264,80,49542,1,0
208,80,49773,1,0
264,232,50465,1,8
208,232,50696,1,8
104,104,51388,5,0
104,160,51619,1,0
200,112,52081,1,8
256,24,52542,2,0,B|344:8|424:40|448:72,1,180,8|0
429,54,53465,5,0
424,216,54157,1,8
352,304,54619,1,4
256,192,54850,8,0,57388
56,112,58311,5,0
112,208,58773,1,8
168,112,59234,1,0
224,208,59696,1,8
280,112,60157,5,0
336,112,60388,1,0
392,112,60619,1,8
456,200,61081,2,0,B|424:248|368:224|352:288,1,120,0|8
256,280,62004,5,4
152,256,62465,2,0,B|112:216|112:128|192:104|264:160|336:240|400:192,1,360,8|0
456,112,64311,1,8
416,80,64542,1,8
312,72,65004,2,2,B|264:88|248:128,1,60
120,104,65696,6,0,B|120:168|192:176|200:264,1,180,0|8
208,312,66619,1,8
312,312,67081,1,0
392,240,67542,5,0
368,136,68004,1,8
312,136,68234,1,8
184,136,68696,1,0
128,136,68927,1,8
72,232,69388,6,0,B|144:312|240:216|376:168|432:216,1,360,0|8
432,96,71234,1,0
320,96,71696,5,8
264,96,71927,1,8
152,96,72388,2,2,B|120:120|120:168,1,60
80,248,73081,6,0,B|136:296|208:264|280:272,1,180
304,272,74004,1,0
400,224,74465,1,0
432,328,74927,5,0
320,328,75388,2,8,B|296:280|256:280,1,60
192,224,76081,2,0,B|192:184|224:168,3,60,0|4|0|4
256,192,77004,8,0,80004
256,192,80465,8,0,83696
424,72,92004,5,0
424,128,92234,1,0
360,216,92696,1,8
288,136,93157,1,8
128,104,93850,2,0,B|96:160|112:232|240:168|336:232|368:336,1,360
448,256,95696,5,0
424,208,95927,1,0
328,160,96388,1,8
256,240,96850,2,0,B|208:264|136:272|96:248|72:152|96:112|168:72|280:64,1,420,0|8
328,64,98696,1,8
440,152,99388,5,0
392,184,99619,1,0
288,200,100080,1,8
192,144,100542,2,0,B|240:88|344:80|360:80|368:80,1,180,8|0
408,64,101465,1,0
416,232,102157,1,8
360,240,102388,1,8
200,280,103080,5,0
200,224,103311,1,0
200,120,103773,1,8
120,192,104234,2,0,B|168:264|248:280|296:264,1,180,8|0
328,272,105157,5,0
392,184,105619,1,0
344,160,105850,1,8
296,184,106080,1,8
144,248,106773,6,0,B|96:208|80:104|192:24|312:32|384:48|456:72,1,480
488,120,108850,1,0
344,192,109542,1,8
288,192,109773,1,8
160,288,110465,6,0,B|248:312|306:285|355:313,1,180
448,304,111619,1,0
416,144,112311,1,8
360,144,112542,1,8
304,240,113004,1,0
256,336,113465,1,4
96,320,114157,5,0
136,280,114388,1,0
168,176,114850,1,8
272,160,115311,1,8
376,280,116004,5,0
416,248,116234,1,0
392,144,116696,1,0
344,168,116927,1,8
296,144,117157,1,8
112,120,117850,6,0,B|72:208|136:248|184:272,1,180
280,280,119004,2,0,B|352:264|384:240|400:200|400:160,1,180,0|8
360,120,119927,1,8
256,96,120388,1,8
144,120,120850,1,4
256,192,121081,8,0,123850
256,192,124773,5,0
144,192,125234,1,8
256,192,125696,1,0
256,296,126157,1,8
304,272,126388,1,8
352,296,126619,1,0
456,256,127080,1,0
448,152,127542,1,8
344,152,128004,1,4
240,120,128465,5,4
192,144,128696,1,0
152,176,128927,1,8
112,280,129388,1,0
216,296,129850,1,8
320,296,130311,6,0,B|360:304|408:232|368:192,1,120,0|8
392,160,131004,1,8
232,168,131696,1,8
128,152,132157,6,0,B|120:208|144:232,4,60
200,72,133542,1,8
280,144,134004,1,0
360,72,134465,1,8
400,104,134696,1,8
432,208,135157,1,8
416,256,135388,1,8
320,296,135850,5,4
216,304,136311,2,0,B|144:288|128:176|192:120|296:144|384:192|384:224,1,360
464,272,138157,5,8
440,224,138388,1,8
320,224,138850,1,0
304,272,139080,1,8
200,232,139542,2,0,B|184:184|208:152,4,60
96,216,140927,1,4
160,128,141388,5,0
264,144,141850,1,8
320,144,142080,1,8
328,248,142542,2,0,B|376:248,2,30,0|8|0
256,344,143234,5,4
200,256,143696,1,8
144,256,143927,1,8
192,168,144388,1,0
248,168,144619,1,8
352,136,145081,1,4
256,88,145542,5,8
200,88,145773,1,8
112,152,146234,1,0
88,200,146465,1,8
152,272,146927,2,0,B|248:248|304:144|256:56|152:48|104:48,1,360
144,152,148773,5,0
240,208,149234,1,8
288,240,149465,1,8
392,248,149927,1,0
400,192,150157,1,8
352,96,150619,6,0,B|296:80|216:112|168:160|152:208,1,240
184,304,152004,1,0
288,288,152465,1,0
240,192,152927,5,8
240,192,153157,1,8
232,88,153619,2,0,B|184:88|160:48,2,60,0|8|0
280,112,154311,2,0,B|344:184|360:240|336:304|296:320|240:320|128:304,1,360,0|8
104,216,156157,1,0
136,112,156619,5,8
184,96,156850,1,8
208,200,157311,1,8
232,248,157542,1,8
264,288,157773,1,8
296,336,158004,1,4
