osu file format v14

[General]
AudioFilename: Eluveitie - King.mp3
AudioLeadIn: 0
PreviewTime: 226369
Countdown: 1
SampleSet: Normal
StackLeniency: 0.7
Mode: 0
LetterboxInBreaks: 0
WidescreenStoryboard: 0

[Editor]
DistanceSpacing: 1
BeatDivisor: 4
GridSize: 4
TimelineZoom: 1.200006

[Metadata]
Title:King
TitleUnicode:King
Artist:Eluveitie
ArtistUnicode:Eluveitie
Creator:DexFrild
Version:Normal
Source:
Tags:snepif elu switzerland suisse folk melodic death pagan celtic metal rock origins chrigel glanzmann meri tadic merlin sutter rafael salzmann ivo henzi anna murphy kay brem patrick kistler mandola whistles pipes gaita acoustic guitar bodhran harp violin hurdy gurdy 2014
BeatmapID:661454
BeatmapSetID:184481

[Difficulty]
HPDrainRate:4
CircleSize:3.5
OverallDifficulty:3
ApproachRate:4
SliderMultiplier:1.30000000596046
SliderTickRate:1

[Events]
//Background and Video events
0,0,"Origins 1024x768.jpg",0,0
//Break Periods
2,27722,33059
2,92865,98202
2,154579,159059
2,212865,225059
//Storyboard Layer 0 (Background)
//Storyboard Layer 1 (Fail)
//Storyboard Layer 2 (Pass)
//Storyboard Layer 3 (Foreground)
//Storyboard Sound Samples

[TimingPoints]
108,857.142857142857,4,1,1,75,1,0
13808,428.571428571429,4,1,1,75,1,0
17236,-100,4,1,2,75,0,0
20665,-100,4,1,1,75,0,0
24093,-100,4,1,2,75,0,0
65236,-100,4,1,1,75,0,1
65665,-100,4,1,2,75,0,1
72093,-100,4,1,1,75,0,1
72522,-100,4,1,2,75,0,1
78950,-100,4,1,1,75,0,1
79379,-100,4,1,2,75,0,1
85808,-100,4,1,1,75,0,1
86236,-100,4,1,2,75,0,1
92665,-100,4,1,2,75,0,0
126950,-100,4,1,1,75,0,1
127379,-100,4,1,2,75,0,1
133808,-100,4,1,1,75,0,1
134236,-100,4,1,2,75,0,1
140665,-100,4,1,1,75,0,1
141093,-100,4,1,2,75,0,1
147522,-100,4,1,1,75,0,1
147950,-100,4,1,2,75,0,1
154379,-100,4,1,2,40,0,0
160379,-100,4,1,2,75,0,0
174950,-100,4,1,2,75,0,1
198950,-100,4,1,2,75,0,0
212665,-100,4,1,2,85,0,0
226379,-100,4,3,1,75,0,0
227665,-100,4,3,3,75,0,0
228093,-100,4,1,1,75,0,1
228522,-100,4,1,2,75,0,1
234950,-100,4,1,1,75,0,1
235379,-100,4,1,2,75,0,1
241808,-100,4,1,1,75,0,1
242236,-100,4,1,2,75,0,1
248665,-100,4,1,1,75,0,1
249093,-100,4,1,2,75,0,1
255522,-100,4,1,2,75,0,0
269450,-100,4,1,1,75,0,0

[Colours]
Combo1 : 211,185,92
Combo2 : 56,192,226
Combo3 : 105,123,222
Combo4 : 64,113,40
SliderBorder : 200,200,200
SliderTrackOverride : 45,28,29

[HitObjects]
123,80,13808,6,0,P|143:139|201:164,1,130.000000596046,4|8,0:0|0:0,0:0:0:0:
263,51,14665,2,0,P|232:60|207:79,2,65.0000002980232,0|0|8,0:0|0:0|0:0,0:0:0:0:
392,80,15522,2,0,B|408:112|440:128|440:128|412:200,1,130.000000596046,0|8,2:0|0:0,0:0:0:0:
316,264,16379,2,0,P|284:258|255:243,1,65.000000298023
192,232,16808,2,0,P|205:202|216:160,1,65.000000298023,8|0,0:0|0:0,0:0:0:0:
220,108,17236,6,4,B|239:123|281:122|281:122|305:143|312:186,1,130.000000596046,4|8,0:0|0:0,0:0:0:0:
404,268,18093,2,0,L|476:284,2,65.000000298023,0|0|8,0:0|0:0|0:0,0:0:0:0:
284,320,18950,2,0,L|328:372,2,65.000000298023,0|0|8,2:0|0:0|0:0,2:0:0:0:
156,300,19808,2,0,L|104:232,1,65.000000298023
160,200,20236,2,0,L|152:116,1,65.000000298023,8|0,0:0|0:0,0:0:0:0:
216,116,20665,6,0,P|260:84|332:88,2,130.000000596046,4|8|0,0:0|0:0|0:0,0:0:0:0:
236,176,21736,2,0,P|256:200|276:236,1,65.000000298023,0|8,0:0|0:0,0:0:0:0:
356,328,22379,2,0,B|332:272|332:272|356:240|340:192,1,130.000000596046,0|8,2:0|0:0,0:0:0:0:
268,100,23236,2,0,P|216:96|188:112,2,65.000000298023,0|0|8,0:0|0:0|0:0,0:0:0:0:
260,228,24093,6,0,P|192:232|132:188,1,130.000000596046,4|8,0:0|0:0,0:0:0:0:
188,320,24950,2,0,L|252:355,2,65.000000298023,0|0|8,0:0|0:0|0:0,0:0:0:0:
316,300,25808,1,0,2:0:0:0:
380,308,26022,1,0,0:0:0:0:
436,272,26236,1,8,0:0:0:0:
472,148,26665,2,0,L|416:80,1,65.000000298023,8|0,0:0|0:0,0:0:0:0:
368,80,27093,2,0,P|328:92|292:92,1,65.000000298023,8|8,0:0|0:0,0:0:0:0:
248,64,27522,5,4,0:0:0:0:
480,152,34379,6,0,B|436:88|356:100,1,130.000000596046,0|8,0:0|0:0,0:0:0:0:
308,120,35022,1,0,0:0:0:0:
272,172,35236,2,0,P|244:224|168:232,1,130.000000596046
92,140,36093,1,0,0:0:0:0:
76,268,36522,2,0,P|88:304|88:356,1,65.000000298023,8|0,0:0|0:0,0:0:0:0:
152,344,36950,2,0,P|188:332|240:332,1,65.000000298023,8|0,0:0|0:0,0:0:0:0:
240,268,37379,2,0,P|224:232|232:188,1,65.000000298023,8|0,0:0|0:0,0:0:0:0:
248,148,37808,5,0,0:0:0:0:
312,140,38022,1,0,0:0:0:0:
356,188,38236,2,0,P|304:220|284:220,2,65.000000298023,8|0|0,0:0|0:0|0:0,0:0:0:0:
420,76,39093,1,8,0:0:0:0:
292,48,39522,2,0,P|224:68|160:56,1,130.000000596046,0|8,2:0|0:0,0:0:0:0:
112,96,40165,1,0,0:0:0:0:
84,160,40379,2,0,P|152:140|216:152,1,130.000000596046,0|8,0:0|0:0,0:0:0:0:
256,192,41022,1,0,0:0:0:0:
300,240,41236,6,0,P|324:260|372:276,1,65.000000298023
420,268,41665,1,8,0:0:0:0:
448,328,41879,1,0,0:0:0:0:
396,368,42093,2,0,B|316:376|340:336|272:344,1,130.000000596046,0|8,0:0|0:0,0:0:0:0:
160,280,42950,2,0,B|240:288|216:248|284:256,1,130.000000596046,0|8,2:0|0:0,0:0:0:0:
176,184,43808,1,0,0:0:0:0:
76,268,44236,2,0,P|80:312|108:344,1,65.000000298023,8|0,0:0|0:0,0:0:0:0:
152,352,44665,6,0,P|220:340|288:364,1,130.000000596046,0|8,0:0|0:0,0:0:0:0:
404,336,45522,2,0,L|396:256,1,65.000000298023
352,224,45950,2,0,P|284:216|232:180,1,130.000000596046,8|0,0:0|0:0,0:0:0:0:
164,72,46808,2,0,P|196:60|244:64,1,65.000000298023,8|0,0:0|0:0,0:0:0:0:
280,24,47236,2,0,P|312:35|346:69,1,65.000000298023,0|8,0:0|0:0,0:0:0:0:
400,44,47665,2,0,P|417:73|421:121,1,65.000000298023
475,139,48093,6,0,P|472:202|421:240,1,130.000000596046,0|8,0:0|0:0,0:0:0:0:
297,232,48950,2,0,P|301:169|352:132,1,130.000000596046,0|8,0:0|0:0,0:0:0:0:
360,264,49808,1,0,2:0:0:0:
316,312,50022,2,0,P|284:315|242:289,1,65.000000298023,0|8,0:0|0:0,0:0:0:0:
200,184,50665,2,0,P|184:156|136:128,2,65.000000298023,0|0|8,0:0|0:0|0:0,0:0:0:0:
84,240,51522,6,0,P|76:296|56:344,2,97.5000004470345
68,176,52379,1,10,0:0:0:0:
192,132,52808,1,2,0:0:0:0:
280,228,53236,6,0,P|244:264|212:316,2,97.5000004470345
344,236,54093,1,8,0:0:0:0:
360,108,54522,2,0,L|288:96,1,65.000000298023
244,60,54950,6,0,P|204:76|136:80,2,97.5000004470345
300,28,55808,1,8,0:0:0:0:
428,48,56236,1,2,0:0:0:0:
404,176,56665,6,0,B|384:228|400:272|400:272|352:300,1,130.000000596046,0|2,0:0|0:0,0:0:0:0:
264,356,57522,2,0,L|192:348,1,65.000000298023,8|0,0:0|0:0,0:0:0:0:
136,368,57950,2,0,L|112:292,1,65.000000298023,0|8,0:0|0:0,0:0:0:0:
128,244,58379,6,0,B|42:191|42:191|86:107,1,195.000000894069
152,96,59236,2,0,P|185:150|184:220,1,130.000000596046,8|2,0:0|0:0,0:0:0:0:
272,308,60093,6,0,P|308:336|364:340,2,97.5000004470345
292,244,60950,1,8,0:0:0:0:
176,308,61379,1,2,0:0:0:0:
180,176,61808,6,0,P|138:144|94:139,2,97.5000004470345
240,204,62665,2,0,P|297:235|360:232,1,130.000000596046,8|2,0:0|0:0,0:0:0:0:
252,304,63522,6,0,B|196:328|196:328|125:291,1,130.000000596046
88,176,64379,2,0,L|48:92,1,65.000000298023,8|0,0:0|0:0,0:0:0:0:
120,84,64808,2,0,L|156:16,1,65.000000298023,0|8,0:0|0:0,0:0:0:0:
216,32,65236,6,0,P|232:72|312:104,1,130.000000596046,4|4,0:0|0:0,0:0:0:0:
424,48,66093,2,0,B|448:108|448:108|420:168,1,130.000000596046,12|0,0:0|2:0,0:0:0:0:
348,276,66950,1,0,2:0:0:0:
296,156,67379,2,0,L|332:76,2,65.000000298023,4|0|12,0:0|0:0|0:0,0:0:0:0:
168,176,68236,1,4,0:0:0:0:
163,308,68665,6,4,P|109:342|45:343,2,130.000000596046,4|4|12,0:0|0:0|0:0,0:0:0:0:
72,216,69950,2,0,L|48:144,1,65.000000298023,0|0,2:0|0:0,0:0:0:0:
68,92,70379,2,0,P|148:104|196:80,1,130.000000596046,0|4,2:0|0:0,0:0:0:0:
228,32,71022,1,0,0:0:0:0:
292,36,71236,2,0,L|356:88,1,65.000000298023,8|0,0:0|0:0,0:0:0:0:
404,52,71665,2,0,L|416:120,1,65.000000298023,8|8,0:0|0:0,0:0:0:0:
476,144,72093,6,0,B|480:184|460:212|460:212|420:208|380:240,1,130.000000596046,4|4,0:0|0:0,0:0:0:0:
456,344,72950,1,12,0:0:0:0:
324,348,73379,2,0,P|288:348|244:328,1,65.000000298023,0|0,2:0|0:0,0:0:0:0:
200,312,73808,2,0,P|124:288|76:300,1,130.000000596046,0|4,2:0|0:0,0:0:0:0:
16,316,74450,1,0,0:0:0:0:
4,252,74665,2,0,L|40:120,1,130.000000596046,12|4,0:0|0:0,0:0:0:0:
148,52,75522,6,0,P|172:92|192:104,1,65.000000298023,4|0,0:0|0:0,0:0:0:0:
248,116,75950,2,0,P|272:128|304:160,1,65.000000298023,4|0,0:0|0:0,0:0:0:0:
316,216,76379,1,12,0:0:0:0:
248,328,76808,2,0,L|307:354,1,65.000000298023,4|0,0:0|0:0,0:0:0:0:
372,339,77236,2,0,P|426:305|448:245,1,130.000000596046,4|4,0:0|0:0,0:0:0:0:
372,140,78093,2,0,P|384:112|424:80,1,65.000000298023
472,76,78522,1,8,0:0:0:0:
496,136,78736,1,8,0:0:0:0:
492,200,78950,6,0,L|484:276,2,65.000000298023,4|0|4,0:0|0:0|0:0,0:0:0:0:
416,92,79808,1,12,0:0:0:0:
292,52,80236,2,0,B|264:56|236:83|236:83|168:72,2,130.000000596046,0|0|4,2:0|2:0|0:0,0:0:0:0:
324,176,81522,2,0,P|276:208|200:204,1,130.000000596046,12|4,0:0|0:0,0:0:0:0:
84,164,82379,6,0,P|52:188|32:220,2,65.000000298023,4|0|4,0:0|0:0|0:0,0:0:0:0:
208,120,83236,2,0,P|272:144|408:120,1,195.000000894069,12|0,0:0|0:0,0:0:0:0:
456,108,84093,2,0,P|488:164|476:240,1,130.000000596046,0|0,2:0|0:0,0:0:0:0:
372,296,84950,2,0,L|308:264,1,65.000000298023,8|0,0:0|0:0,0:0:0:0:
260,232,85379,2,0,L|192:260,1,65.000000298023,8|8,0:0|0:0,0:0:0:0:
152,300,85808,6,0,L|88:260,2,65.000000298023,4|0|4,0:0|0:0|0:0,0:0:0:0:
272,352,86665,1,12,0:0:0:0:
400,352,87093,2,0,P|428:320|436:292,1,65.000000298023,0|0,2:0|0:0,0:0:0:0:
424,236,87522,2,0,P|352:208|320:152,1,130.000000596046,0|0,2:0|2:0,0:0:0:0:
300,104,88165,1,0,0:0:0:0:
276,44,88379,2,0,P|212:28|144:60,1,130.000000596046,12|4,0:0|0:0,0:0:0:0:
104,172,89236,6,0,B|100:240|100:240|160:292,1,130.000000596046,4|4,0:0|0:0,0:0:0:0:
276,296,90093,2,0,L|348:260,1,65.000000298023,12|0,0:0|0:0,0:0:0:0:
356,204,90522,1,4,0:0:0:0:
364,76,90950,2,0,B|420:40|420:40|484:40,2,130.000000596046,4|4|12,0:0|0:0|0:0,0:0:0:0:
264,160,92236,2,0,L|184:152,1,65.000000298023,8|8,0:0|0:0,0:0:0:0:
144,116,92665,5,4,0:0:0:0:
128,68,99522,5,4,0:0:0:0:
256,40,99950,2,0,P|296:56|328:76,1,65.000000298023,8|0,0:0|0:0,0:0:0:0:
352,120,100379,2,0,P|292:160|276:224,1,130.000000596046,0|8,0:0|0:0,0:0:0:0:
327,336,101236,2,0,P|382:303|404:244,1,130.000000596046,0|8,2:0|0:0,0:0:0:0:
436,116,102093,2,0,L|404:48,1,65.000000298023
348,84,102522,2,0,L|280:56,1,65.000000298023,8|0,0:0|0:0,0:0:0:0:
240,104,102950,6,0,L|176:128,2,65.000000298023,0|0|8,0:0|0:0|0:0,0:0:0:0:
184,220,103808,2,0,P|112:196|88:144,1,130.000000596046,0|8,0:0|0:0,0:0:0:0:
160,44,104665,1,0,2:0:0:0:
288,32,105093,2,0,B|316:24|352:32|352:32|368:64|412:80,2,130.000000596046,8|0|8,0:0|0:0|0:0,0:0:0:0:
236,152,106379,6,0,L|276:220,1,65.000000298023
332,224,106808,1,8,0:0:0:0:
460,212,107236,2,0,P|460:284|416:320,1,130.000000596046,0|8,0:0|0:0,0:0:0:0:
384,184,108093,2,0,P|425:137|488:136,2,130.000000596046,0|8|0,0:0|0:0|0:0,0:0:0:0:
324,304,109379,1,0,0:0:0:0:
199,343,109808,6,0,P|145:312|127:251,1,130.000000596046,0|8,0:0|0:0,0:0:0:0:
168,136,110665,1,0,0:0:0:0:
212,260,111093,1,8,0:0:0:0:
260,140,111522,2,0,P|254:99|232:68,1,65.000000298023,0|0,2:0|0:0,0:0:0:0:
184,52,111950,1,8,0:0:0:0:
56,40,112379,2,0,P|84:100|72:168,1,130.000000596046,0|8,0:0|0:0,0:0:0:0:
180,236,113236,6,0,P|232:250|295:227,2,97.5000004470345
184,172,114093,1,10,0:0:0:0:
296,108,114522,1,2,0:0:0:0:
176,56,114950,2,0,P|124:72|68:64,2,97.5000004470345
240,40,115808,2,0,P|296:20|368:56,1,130.000000596046,10|2,0:0|0:0,0:0:0:0:
404,168,116665,6,0,P|416:248|432:272,2,97.5000004470345
408,104,117522,2,0,P|352:100|284:132,1,130.000000596046,8|2,0:0|0:0,0:0:0:0:
204,232,118379,2,0,B|165:260|148:344|148:344|93:305|20:300,1,260.000001192092,0|8,0:0|0:0,0:0:0:0:
76,180,119665,2,0,P|92:144|112:120,1,65.000000298023,0|8,0:0|0:0,0:0:0:0:
164,92,120093,6,0,B|216:96|252:60|252:60|304:84|308:136|308:136|384:112,1,260.000001192092,0|8,0:0|0:0,0:0:0:0:
472,40,121379,1,2,0:0:0:0:
456,168,121808,2,0,P|448:240|484:296,2,130.000000596046,0|2|8,0:0|0:0|0:0,0:0:0:0:
408,48,123093,2,0,P|380:40|332:48,1,65.000000298023,2|0,0:0|0:0,0:0:0:0:
284,68,123522,6,0,B|224:84|188:76|188:76|184:124|136:156|136:156|152:188|152:220,1,260.000001192092,0|8,0:0|0:0,0:0:0:0:
96,336,124808,1,2,0:0:0:0:
224,324,125236,2,0,P|273:307|312:240,1,130.000000596046
240,136,126093,1,8,0:0:0:0:
360,88,126522,2,0,L|424:136,1,65.000000298023,0|8,0:0|0:0,0:0:0:0:
456,172,126950,6,0,B|464:204|492:224|492:224|488:264|460:284,1,130.000000596046,4|4,0:0|0:0,0:0:0:0:
344,328,127808,1,12,0:0:0:0:
224,280,128236,2,0,L|152:236,1,65.000000298023,0|0,2:0|0:0,0:0:0:0:
196,188,128665,2,0,P|256:156|332:180,2,130.000000596046,4|4|12,0:0|0:0|0:0,0:0:0:0:
152,312,129950,1,4,0:0:0:0:
64,216,130379,6,0,P|40:152|40:136,2,65.000000298023,4|0|4,0:0|0:0|0:0,0:0:0:0:
192,240,131236,2,0,L|268:272,1,65.000000298023,12|0,0:0|0:0,0:0:0:0:
296,312,131665,2,0,L|372:280,1,65.000000298023,0|0,2:0|0:0,0:0:0:0:
420,296,132093,2,0,P|448:232|432:172,1,130.000000596046,0|4,2:0|0:0,0:0:0:0:
340,88,132950,2,0,L|264:64,1,65.000000298023,12|0,0:0|0:0,0:0:0:0:
212,72,133379,2,0,L|132:104,1,65.000000298023,8|8,0:0|0:0,0:0:0:0:
96,132,133808,6,0,P|160:152|204:208,1,130.000000596046,4|4,0:0|0:0,0:0:0:0:
188,328,134665,2,0,P|224:344|264:348,1,65.000000298023,12|0,0:0|0:0,0:0:0:0:
300,308,135093,2,0,L|368:328,1,65.000000298023,2|0,2:0|0:0,0:0:0:0:
425,301,135522,2,0,B|435:270|413:236|413:236|390:203|395:179,1,130.000000596046,0|4,2:0|0:0,0:0:0:0:
460,68,136379,2,0,P|392:44|332:56,1,130.000000596046,12|4,0:0|0:0,0:0:0:0:
252,152,137236,6,0,P|216:216|164:228,1,130.000000596046,4|4,0:0|0:0,0:0:0:0:
136,100,138093,1,12,0:0:0:0:
256,52,138522,1,4,0:0:0:0:
376,100,138950,1,4,0:0:0:0:
347,228,139379,2,0,P|286:209|260:152,2,130.000000596046,4|8|8,0:0|0:0|0:0,0:0:0:0:
468,180,140665,5,4,0:0:0:0:
480,244,140879,1,0,0:0:0:0:
456,304,141093,1,4,0:0:0:0:
328,296,141522,2,0,P|288:296|256:304,1,65.000000298023,12|0,0:0|0:0,0:0:0:0:
204,328,141950,1,0,2:0:0:0:
80,292,142379,2,0,P|60:236|88:148,1,130.000000596046,0|0,2:0|2:0,0:0:0:0:
128,128,143022,1,0,0:0:0:0:
188,152,143236,2,0,P|228:184|316:196,1,130.000000596046,12|4,0:0|0:0,0:0:0:0:
436,196,144093,6,0,P|460:220|476:264,2,65.000000298023,4|0|4,0:0|0:0|0:0,0:0:0:0:
324,128,144950,1,12,0:0:0:0:
352,68,145165,2,0,P|384:52|412:16,1,65.000000298023,0|0,0:0|2:0,0:0:0:0:
276,64,145808,2,0,P|220:82|185:143,1,130.000000596046,0|0,2:0|0:0,0:0:0:0:
280,232,146665,2,0,L|232:292,1,65.000000298023,8|0,0:0|0:0,0:0:0:0:
244,348,147093,2,0,L|160:352,1,65.000000298023,8|8,0:0|0:0,0:0:0:0:
116,344,147522,6,0,B|80:340|60:312|60:312|88:288|88:236,1,130.000000596046,4|4,0:0|0:0,0:0:0:0:
80,128,148379,2,0,P|100:100|144:72,1,65.000000298023,12|0,0:0|0:0,0:0:0:0:
184,60,148808,1,0,2:0:0:0:
296,128,149236,1,0,2:0:0:0:
408,64,149665,2,0,P|432:76|464:108,1,65.000000298023,0|0,2:0|0:0,0:0:0:0:
456,168,150093,2,0,P|396:200|372:268,1,130.000000596046,12|4,0:0|0:0,0:0:0:0:
256,192,150950,12,0,153522,0:0:0:0:
256,192,154379,5,4,0:0:0:0:
444,156,160379,6,0,P|404:160|356:148,1,65.000000298023,8|8,0:0|0:0,0:0:0:0:
316,160,160808,1,8,0:0:0:0:
256,184,161022,1,8,0:0:0:0:
240,244,161236,6,0,P|168:272|96:244,1,130.000000596046,4|0,0:0|0:0,0:0:0:0:
32,164,162093,2,0,P|68:140|132:136,2,97.5000004470345,8|8|8,0:0|0:0|0:0,0:0:0:0:
32,228,162950,1,2,0:0:0:0:
120,324,163379,2,0,P|172:336|256:316,1,130.000000596046,0|8,0:0|0:0,0:0:0:0:
316,212,164236,2,0,P|376:200|392:200,1,65.000000298023,8|4,0:0|0:0,0:0:0:0:
444,208,164665,6,0,P|464:180|468:148,2,65.000000298023,0|8|0,0:0|0:0|0:0,0:0:0:0:
336,280,165522,2,0,P|362:314|417:331,2,97.5000004470345,8|8|8,0:0|0:0|0:0,0:0:0:0:
336,216,166379,2,0,L|304:152,1,65.000000298023,0|8,0:0|0:0,0:0:0:0:
260,112,166808,2,0,L|195:101,1,65.000000298023
156,152,167236,1,8,0:0:0:0:
144,216,167450,1,8,0:0:0:0:
184,268,167665,2,0,P|216:269|248:265,1,65.000000298023
304,232,168093,6,0,P|286:283|302:359,1,130.000000596046,4|4,0:0|0:0,0:0:0:0:
416,296,168950,2,0,P|456:320|484:372,2,97.5000004470345,12|0|0,0:0|0:0|0:0,0:0:0:0:
376,244,169808,2,0,P|344:212|340:116,1,130.000000596046,4|4,0:0|0:0,0:0:0:0:
240,40,170665,2,0,L|176:56,1,65.000000298023,8|0,0:0|0:0,0:0:0:0:
124,20,171093,2,0,L|96:88,1,65.000000298023,8|0,0:0|0:0,0:0:0:0:
68,140,171522,6,0,B|144:176|136:280|136:280|156:324|220:340,1,260.000001192092,4|12,0:0|0:0,0:0:0:0:
328,292,172808,2,0,L|376:244,1,65.000000298023
396,184,173236,2,0,B|420:156|412:124|412:124|384:100|372:60,1,130.000000596046
316,44,173879,1,0,0:0:0:0:
260,72,174093,2,0,L|204:108,1,65.000000298023,8|8,0:0|0:0,0:0:0:0:
200,172,174522,2,0,L|136:184,1,65.000000298023,8|8,0:0|0:0,0:0:0:0:
128,248,174950,6,0,L|176:312,2,65.000000298023,4|8|4,0:0|0:0|0:0,0:0:0:0:
72,132,175808,2,0,B|92:104|80:68|80:68|100:44|152:40,1,130.000000596046,4|4,0:0|0:0,0:0:0:0:
264,36,176665,1,4,0:0:0:0:
324,60,176879,1,8,0:0:0:0:
356,116,177093,2,0,P|372:156|392:176,1,65.000000298023,4|8,0:0|0:0,0:0:0:0:
436,216,177522,2,0,P|428:256|392:292,1,65.000000298023,4|8,0:0|0:0,0:0:0:0:
360,312,177950,2,0,L|280:268,1,65.000000298023,4|8,0:0|0:0,0:0:0:0:
300,212,178379,6,0,B|280:196|276:160|276:160|240:144|236:104,1,130.000000596046,4|4,0:0|0:0,0:0:0:0:
352,44,179236,2,0,P|393:38|436:52,2,65.000000298023,4|8|4,0:0|0:0|0:0,0:0:0:0:
228,88,180093,2,0,P|202:107|168:120,1,65.000000298023,4|8,0:0|0:0,0:0:0:0:
120,160,180522,1,4,0:0:0:0:
88,216,180736,1,8,0:0:0:0:
88,280,180950,2,0,P|108:308|152:336,1,65.000000298023,4|8,0:0|0:0,0:0:0:0:
196,332,181379,2,0,P|224:305|256:292,1,65.000000298023,4|8,0:0|0:0,0:0:0:0:
312,288,181808,5,4,0:0:0:0:
372,260,182022,2,0,L|436:288,2,65.000000298023,8|4|8,0:0|0:0|0:0,0:0:0:0:
336,208,182665,2,0,P|320:152|348:84,1,130.000000596046,4|4,0:0|0:0,0:0:0:0:
224,44,183522,2,0,P|156:64|96:188,1,195.000000894069,4|8,0:0|0:0,0:0:0:0:
76,228,184379,2,0,L|52:296,1,65.000000298023,4|8,0:0|0:0,0:0:0:0:
88,344,184808,2,0,L|168:328,1,65.000000298023,4|8,0:0|0:0,0:0:0:0:
212,308,185236,6,0,P|279:326|353:302,2,130.000000596046,4|4|4,0:0|0:0|0:0,0:0:0:0:
276,196,186522,2,8,L|312:140,1,65.000000298023,4|8,0:0|0:0,0:0:0:0:
328,80,186950,2,0,P|261:62|187:86,2,130.000000596046,4|4|4,0:0|0:0|0:0,0:0:0:0:
428,164,188236,2,0,L|384:232,1,65.000000298023,8|8,0:0|0:0,0:0:0:0:
348,264,188665,6,0,B|292:288|256:352|256:352|220:288|164:264,1,260.000001192092
56,192,189950,2,0,P|73:164|95:141,1,65.000000298023,0|8,0:0|0:0,0:0:0:0:
156,115,190379,2,0,P|218:131|261:178,1,130.000000596046
152,241,191236,2,0,P|195:289|257:305,1,130.000000596046
312,268,191879,1,8,0:0:0:0:
372,292,192093,6,0,P|408:252|416:176,1,130.000000596046
328,84,192950,2,0,L|260:108,1,65.000000298023,0|8,0:0|0:0,0:0:0:0:
208,136,193379,1,0,0:0:0:0:
156,96,193593,1,8,0:0:0:0:
92,100,193808,2,0,B|72:144|80:192|80:192|116:224,1,130.000000596046
196,308,194665,1,0,0:0:0:0:
244,264,194879,1,8,0:0:0:0:
248,200,195093,2,0,P|268:172|304:148,1,65.000000298023,0|8,0:0|0:0,0:0:0:0:
356,144,195522,6,0,P|384:80|356:20,1,130.000000596046
236,52,196379,2,0,L|294:79,2,65.000000298023,0|8|0,0:0|0:0|0:0,0:0:0:0:
112,88,197236,2,0,P|76:144|108:220,2,130.000000596046
176,100,198308,1,8,0:0:0:0:
224,144,198522,2,0,P|208:176|184:208,2,65.000000298023,8|8|8,0:0|0:0|0:0,0:0:0:0:
456,64,199808,6,0,L|352:24,2,97.5000004470345,4|0|0,0:0|0:0|0:0,0:0:0:0:
472,128,200665,1,0,2:0:0:0:
464,192,200879,1,0,0:0:0:0:
444,252,201093,2,0,P|420:276|384:292,1,65.000000298023
340,328,201522,2,0,B|308:332|284:356|284:356|248:356|240:316|240:316|212:300|175:314,1,195.000000894069,12|0,0:0|0:0,0:0:0:0:
112,336,202379,6,0,P|72:292|68:204,1,130.000000596046,4|4,0:0|0:0,0:0:0:0:
72,96,203236,2,0,P|120:104|160:148,2,97.5000004470345,12|0|0,0:0|0:0|0:0,0:0:0:0:
44,156,204093,1,0,2:0:0:0:
140,238,204522,1,0,0:0:0:0:
244,312,204950,2,0,L|256:244,1,65.000000298023,8|8,0:0|0:0,0:0:0:0:
244,184,205379,2,0,L|300:132,1,65.000000298023
348,164,205808,6,0,P|392:196|424:264,2,130.000000596046,4|4|12,0:0|0:0|0:0,0:0:0:0:
296,284,207093,1,4,0:0:0:0:
168,304,207522,2,0,P|176:339|206:373,2,65.000000298023,4|0|4,0:0|0:0|0:0,0:0:0:0:
124,180,208379,2,0,P|72:218|43:275,1,130.000000596046,12|12,0:0|0:0,0:0:0:0:
168,244,209236,6,0,P|194:212|201:184,2,65.000000298023,4|0|4,0:0|0:0|0:0,0:0:0:0:
72,156,210093,1,12,0:0:0:0:
196,116,210522,2,0,P|232:123|259:145,1,65.000000298023,4|0,0:0|0:0,0:0:0:0:
284,196,210950,2,0,P|308:256|328:276,2,65.000000298023,4|0|4,0:0|0:0|0:0,0:0:0:0:
324,72,211808,2,0,P|286:39|227:31,2,97.5000004470345,8|4|4,0:0|0:0|0:0,0:0:0:0:
304,136,212665,5,4,0:0:0:0:
124,256,226379,6,0,L|88:324,2,65.000000298023,12|0|0,0:0|1:0|1:0,0:0:0:0:
168,208,227022,1,6,0:0:0:0:
228,184,227236,2,0,P|264:192|292:204,1,65.000000298023,0|0,1:0|1:0,0:0:0:0:
320,260,227665,2,0,P|356:260|388:244,1,65.000000298023,8|6,0:0|0:0,0:0:0:0:
420,196,228093,6,0,B|440:164|436:132|436:132|400:128|368:100,1,130.000000596046,4|4,0:0|0:0,0:0:0:0:
264,48,228950,2,0,L|184:80,1,65.000000298023,12|0,0:0|0:0,0:0:0:0:
164,124,229379,2,0,B|96:120|96:120|92:88|68:48,2,130.000000596046,0|0|0,2:0|2:0|2:0,0:0:0:0:
224,148,230450,1,0,0:0:0:0:
248,208,230665,2,0,P|276:280|336:296,1,130.000000596046,12|4,0:0|0:0,0:0:0:0:
192,292,231522,6,0,L|132:332,2,65.000000298023,4|0|4,0:0|0:0|0:0,0:0:0:0:
296,228,232379,1,12,0:0:0:0:
352,192,232593,2,0,P|340:156|316:128,2,65.000000298023,0|0|0,0:0|2:0|0:0,0:0:0:0:
384,248,233236,2,0,P|408:280|504:284,1,130.000000596046,0|0,2:0|0:0,0:0:0:0:
472,164,234093,2,0,L|420:104,1,65.000000298023,8|0,0:0|0:0,0:0:0:0:
444,52,234522,2,0,L|368:44,1,65.000000298023,8|8,0:0|0:0,0:0:0:0:
316,64,234950,6,0,L|240:24,1,65.000000298023,4|0,0:0|0:0,0:0:0:0:
196,48,235379,2,0,P|204:92|136:148,1,130.000000596046,4|12,0:0|0:0,0:0:0:0:
56,240,236236,1,0,2:0:0:0:
110,274,236450,1,0,0:0:0:0:
174,267,236665,2,0,P|216:210|287:198,1,130.000000596046,0|0,2:0|2:0,0:0:0:0:
294,258,237308,1,0,0:0:0:0:
317,319,237522,2,0,P|378:300|414:248,1,130.000000596046,12|4,0:0|0:0,0:0:0:0:
468,128,238379,6,0,P|445:85|366:58,2,130.000000596046,4|4|12,0:0|0:0|0:0,0:0:0:0:
352,192,239665,1,4,0:0:0:0:
224,164,240093,2,0,P|194:179|168:208,1,65.000000298023,4|0,0:0|0:0,0:0:0:0:
140,256,240522,1,4,0:0:0:0:
132,320,240736,1,0,0:0:0:0:
192,348,240950,2,0,L|272:336,1,65.000000298023,8|0,0:0|0:0,0:0:0:0:
300,288,241379,2,0,L|361:307,1,65.000000298023,8|8,0:0|0:0,0:0:0:0:
412,264,241808,6,0,L|452:328,2,65.000000298023,4|0|4,0:0|0:0|0:0,0:0:0:0:
392,136,242665,2,0,P|356:132|312:112,1,65.000000298023,12|0,0:0|0:0,0:0:0:0:
280,80,243093,1,0,2:0:0:0:
216,76,243308,1,0,0:0:0:0:
156,100,243522,6,0,P|136:148|48:164,1,130.000000596046,0|0,2:0|2:0,0:0:0:0:
20,124,244165,1,0,0:0:0:0:
80,96,244379,2,0,L|168:192,1,130.000000596046,12|4,0:0|0:0,0:0:0:0:
192,320,245236,6,0,P|159:324|128:316,2,65.000000298023,4|0|4,0:0|0:0|0:0,0:0:0:0:
308,260,246093,1,12,0:0:0:0:
348,208,246308,1,0,0:0:0:0:
356,144,246522,2,0,P|356:108|344:72,1,65.000000298023,0|0,2:0|0:0,0:0:0:0:
308,28,246950,2,0,P|272:56|176:52,1,130.000000596046,0|4,2:0|0:0,0:0:0:0:
60,52,247808,2,0,L|76:128,1,65.000000298023,8|0,0:0|0:0,0:0:0:0:
60,180,248236,1,8,0:0:0:0:
92,236,248450,1,8,0:0:0:0:
156,224,248665,6,0,P|200:224|236:236,1,65.000000298023,4|0,0:0|0:0,0:0:0:0:
268,272,249093,2,0,P|320:256|360:188,1,130.000000596046,4|12,0:0|0:0,0:0:0:0:
368,64,249950,2,0,L|292:88,1,65.000000298023,0|0,2:0|0:0,0:0:0:0:
240,76,250379,1,0,2:0:0:0:
112,56,250808,1,0,2:0:0:0:
72,108,251022,1,0,0:0:0:0:
76,172,251236,2,0,P|136:200|172:252,1,130.000000596046,12|4,0:0|0:0,0:0:0:0:
280,324,252093,6,0,L|332:272,1,65.000000298023,4|0,0:0|0:0,0:0:0:0:
388,264,252522,2,0,L|380:200,1,65.000000298023,4|0,0:0|0:0,0:0:0:0:
412,144,252950,2,0,L|352:112,1,65.000000298023,12|0,0:0|0:0,0:0:0:0:
308,68,253379,1,4,0:0:0:0:
244,84,253593,1,0,0:0:0:0:
200,132,253808,2,0,B|184:196|184:196|120:200,2,130.000000596046,4|4|12,0:0|0:0|0:0,0:0:0:0:
168,76,254879,1,0,0:0:0:0:
128,28,255093,2,0,P|96:32|48:56,1,65.000000298023,12|0,0:0|0:0,0:0:0:0:
36,104,255522,5,4,0:0:0:0:
256,192,255950,12,0,262379,0:0:0:0:
180,180,263236,6,0,P|156:164|108:164,2,65.000000298023,4|0|12,0:0|0:0|0:0,0:0:0:0:
285,260,264093,2,0,P|300:289|323:311,2,65.000000298023,4|0|12,0:0|0:0|0:0,0:0:0:0:
300,135,264950,2,0,P|329:121|346:94,2,65.000000298023,4|0|12,0:0|0:0|0:0,0:0:0:0:
172,120,265808,6,0,P|100:120|44:156,1,130.000000596046,4|12,0:0|0:0,0:0:0:0:
136,248,266665,2,0,P|180:280|200:284,1,65.000000298023,4|0,0:0|0:0,0:0:0:0:
256,276,267093,1,12,0:0:0:0:
372,216,267522,1,4,0:0:0:0:
396,156,267736,1,0,0:0:0:0:
388,92,267950,2,0,P|352:92|316:80,1,65.000000298023,12|0,0:0|0:0,0:0:0:0:
264,56,268379,6,0,P|232:72|208:104,1,65.000000298023,4|0,3:0|0:0,0:0:0:0:
212,160,268808,2,0,P|152:180|136:176,1,65.000000298023,8|8,3:0|0:0,0:0:0:0:
88,172,269236,1,4,0:0:0:0:
72,236,269450,1,4,0:0:0:0:
