osu file format v14

[General]
AudioFilename: Eluveitie - King.mp3
AudioLeadIn: 0
PreviewTime: 226369
Countdown: 1
SampleSet: Normal
StackLeniency: 0.7
Mode: 0
LetterboxInBreaks: 0
WidescreenStoryboard: 0

[Editor]
Bookmarks: 72940,75298,269226
DistanceSpacing: 1
BeatDivisor: 4
GridSize: 4
TimelineZoom: 2.200006

[Metadata]
Title:King
TitleUnicode:King
Artist:Eluveitie
ArtistUnicode:Eluveitie
Creator:DexFrild
Version:Insane
Source:
Tags:snepif elu switzerland suisse folk melodic death pagan celtic metal rock origins chrigel glanzmann meri tadic merlin sutter rafael salzmann ivo henzi anna murphy kay brem patrick kistler mandola whistles pipes gaita acoustic guitar bodhran harp violin hurdy gurdy 2014
BeatmapID:441612
BeatmapSetID:184481

[Difficulty]
HPDrainRate:6
CircleSize:4.3
OverallDifficulty:7
ApproachRate:8
SliderMultiplier:1.8
SliderTickRate:1

[Events]
//Background and Video events
0,0,"Origins 1024x768.jpg",0,0
//Break Periods
2,154579,159629
2,212865,225629
//Storyboard Layer 0 (Background)
//Storyboard Layer 1 (Fail)
//Storyboard Layer 2 (Pass)
//Storyboard Layer 3 (Foreground)
//Storyboard Sound Samples

[TimingPoints]
108,857.142857142857,4,1,1,75,1,0
13808,428.571428571429,4,1,1,75,1,0
17236,-100,4,1,2,75,0,0
20665,-100,4,1,1,75,0,0
24093,-100,4,1,2,75,0,0
27522,-100,4,1,1,75,0,0
27950,-100,4,1,2,75,0,0
51522,-117.647058823529,4,1,2,75,0,0
65236,-100,4,1,1,75,0,1
65665,-100,4,1,2,75,0,1
72093,-100,4,1,1,75,0,1
72522,-100,4,1,2,75,0,1
78950,-100,4,1,1,75,0,1
79379,-100,4,1,2,75,0,1
85808,-100,4,1,1,75,0,1
86236,-100,4,1,2,75,0,1
92665,-100,4,1,2,75,0,0
113236,-117.647058823529,4,1,2,75,0,0
126950,-100,4,1,1,75,0,1
127379,-100,4,1,2,75,0,1
133808,-100,4,1,1,75,0,1
134236,-100,4,1,2,75,0,1
140665,-100,4,1,1,75,0,1
141093,-100,4,1,2,75,0,1
147522,-100,4,1,1,75,0,1
147950,-100,4,1,2,75,0,1
154379,-100,4,1,2,45,0,0
160379,-100,4,1,2,75,0,0
174950,-76.9230769230769,4,1,2,75,0,1
198950,-200,4,1,2,75,0,0
199808,-100,4,1,2,75,0,0
212665,-100,4,1,2,85,0,0
226379,-100,4,3,1,75,0,0
227665,-100,4,3,3,75,0,0
228093,-100,4,1,1,75,0,1
228522,-76.9230769230769,4,1,2,75,0,1
234950,-76.9230769230769,4,1,1,75,0,1
235379,-76.9230769230769,4,1,2,75,0,1
241808,-76.9230769230769,4,1,1,75,0,1
242236,-76.9230769230769,4,1,2,75,0,1
248665,-76.9230769230769,4,1,1,75,0,1
249093,-76.9230769230769,4,1,2,75,0,1
255522,-100,4,1,1,75,0,0
255950,-100,4,1,2,75,0,0
268379,-100,4,3,3,75,0,0
269236,-100,4,1,2,75,0,0
269450,-100,4,1,1,75,0,0
270736,-100,4,1,1,5,0,0

[Colours]
Combo1 : 211,185,92
Combo2 : 56,192,226
Combo3 : 105,123,222
Combo4 : 64,113,40
SliderBorder : 200,200,200
SliderTrackOverride : 45,28,29

[HitObjects]
152,324,13808,6,0,P|260:336|316:280,1,180,4|8,0:0|0:0,0:0:0:0:
416,44,14665,1,0,0:0:0:0:
300,24,14879,1,0,0:0:0:0:
136,160,15093,2,0,P|178:145|206:111,1,90,8|0,0:0|0:0,0:0:0:0:
36,228,15522,2,0,P|48:280|92:320,2,90,0|0|8,2:0|0:0|0:0,0:0:0:0:
140,140,16165,1,0,0:0:0:0:
376,124,16379,1,0,0:0:0:0:
276,320,16593,1,0,0:0:0:0:
264,32,16808,1,8,0:0:0:0:
128,236,17022,1,0,0:0:0:0:
264,32,17236,6,0,P|272:116|188:164,2,180,4|8|0,0:0|0:0|0:0,0:0:0:0:
148,56,18308,1,0,0:0:0:0:
344,168,18522,1,8,0:0:0:0:
108,200,18736,1,0,0:0:0:0:
232,272,18950,2,0,P|284:252|312:208,1,90,0|0,2:0|0:0,0:0:0:0:
392,84,19379,1,8,0:0:0:0:
208,152,19593,1,0,0:0:0:0:
408,96,19808,2,0,L|468:184,1,90
328,368,20236,1,8,0:0:0:0:
276,364,20343,1,0,0:0:0:0:
240,324,20450,1,0,0:0:0:0:
192,172,20665,6,0,B|180:124|148:96|148:96|100:96|52:76,2,180,4|8|0,0:0|0:0|0:0,0:0:0:0:
224,300,21736,1,0,0:0:0:0:
364,348,21950,2,0,P|416:352|464:336,1,90,8|0,0:0|0:0,0:0:0:0:
336,216,22379,1,0,2:0:0:0:
472,204,22593,1,0,0:0:0:0:
296,292,22808,2,0,P|272:343|283:382,1,90,8|0,0:0|0:0,0:0:0:0:
148,244,23236,1,0,0:0:0:0:
128,200,23343,1,0,0:0:0:0:
84,184,23450,1,0,0:0:0:0:
220,32,23665,1,8,0:0:0:0:
88,48,23879,1,0,0:0:0:0:
344,92,24093,6,0,B|376:124|428:120|428:120|460:148|460:200,1,180,4|8,0:0|0:0,0:0:0:0:
372,304,24736,1,0,0:0:0:0:
280,124,24950,2,0,P|273:79|305:31,1,90
376,328,25379,1,8,0:0:0:0:
204,288,25593,1,0,0:0:0:0:
480,220,25808,2,0,P|500:172|484:120,1,90,0|0,2:0|0:0,0:0:0:0:
282,67,26236,2,0,P|323:85|368:84,1,90,8|0,0:0|0:0,0:0:0:0:
96,84,26665,5,0,0:0:0:0:
76,132,26772,1,0,0:0:0:0:
88,184,26879,1,0,0:0:0:0:
132,216,26986,1,0,0:0:0:0:
184,224,27093,1,8,0:0:0:0:
232,248,27200,1,8,0:0:0:0:
264,292,27307,1,8,0:0:0:0:
256,344,27415,1,8,0:0:0:0:
204,356,27522,6,0,L|148:364,3,45,4|0|0|0,0:0|0:0|0:0|0:0,0:0:0:0:
161,289,27950,2,0,L|105:297,3,45,12|0|0|0,0:0|0:0|0:0|0:0,0:0:0:0:
132,216,28379,2,0,L|76:224,3,45,4|0|0|0,0:0|0:0|0:0|0:0,0:0:0:0:
99,142,28808,2,0,L|43:150,3,45,12|0|0|0,0:0|0:0|0:0|0:0,0:0:0:0:
148,72,29236,6,0,L|196:60,3,45,4|0|0|0,0:0|0:0|0:0|0:0,0:0:0:0:
224,132,29665,2,0,L|272:144,3,45,12|0|0|0,0:0|0:0|0:0|0:0,0:0:0:0:
288,68,30093,2,0,P|344:128|336:176,2,135,4|4|4,0:0|0:0|0:0,0:0:0:0:
352,280,30950,6,0,L|408:288,3,45,4|0|0|0,0:0|0:0|0:0|0:0,0:0:0:0:
460,320,31379,2,0,L|468:276,3,45,12|0|0|0,0:0|0:0|0:0|0:0,0:0:0:0:
500,210,31808,2,0,L|456:204,3,45,4|0|0|0,0:0|0:0|0:0|0:0,0:0:0:0:
391,167,32236,2,0,L|384:212,3,45,12|0|0|0,0:0|0:0|0:0|0:0,0:0:0:0:
396,72,32665,6,0,L|336:52,3,45,4|0|0|0,0:0|0:0|0:0|0:0,0:0:0:0:
280,144,33093,2,0,L|233:161,3,45,12|0|0|0,0:0|0:0|0:0|0:0,0:0:0:0:
184,240,33522,2,0,L|172:284,3,45,4|0|0|0,0:0|0:0|0:0|0:0,0:0:0:0:
228,112,33950,1,8,0:0:0:0:
176,92,34058,1,8,3:0:0:0:
124,100,34165,1,2,3:0:0:0:
92,144,34272,1,2,3:0:0:0:
76,196,34379,6,0,P|52:196|28:188,2,45,4|0|0,0:0|0:0|0:0,0:0:0:0:
212,176,34808,1,8,0:0:0:0:
276,152,34915,2,0,P|276:200|244:236,1,90,0|8,0:0|0:0,0:0:0:0:
184,240,35236,2,0,P|232:296|280:292,1,90
340,260,35665,1,0,0:0:0:0:
340,208,35772,1,0,0:0:0:0:
376,168,35879,1,0,0:0:0:0:
428,160,35986,1,0,0:0:0:0:
476,184,36093,6,0,L|488:232,2,45,0|0|0,0:0|0:0|0:0,0:0:0:0:
436,84,36522,1,12,0:0:0:0:
388,36,36629,2,0,P|344:32|292:56,1,90
260,100,36950,2,0,P|220:120|120:96,1,135,12|0,0:0|0:0,0:0:0:0:
61,74,37379,1,12,0:0:0:0:
61,74,37593,1,0,0:0:0:0:
44,286,37808,6,0,P|60:310|84:330,2,45,4|0|0,0:0|0:0|0:0,0:0:0:0:
104,180,38236,1,8,0:0:0:0:
149,128,38343,2,0,P|172:169|162:216,1,90,0|8,0:0|0:0,0:0:0:0:
114,252,38665,2,0,P|152:276|201:266,1,90
80,112,39093,1,8,0:0:0:0:
480,40,39522,5,0,2:0:0:0:
120,36,39950,1,8,0:0:0:0:
200,140,40165,1,0,0:0:0:0:
156,276,40379,2,0,P|207:328|270:310,1,135
223,260,40808,2,0,P|267:247|311:270,1,90,8|0,0:0|0:0,0:0:0:0:
420,340,41236,6,0,P|442:343|464:339,2,45,0|0|0,0:0|0:0|0:0,0:0:0:0:
307,263,41665,1,8,0:0:0:0:
272,207,41772,2,0,P|276:179|329:144,1,90,0|8,0:0|0:0,0:0:0:0:
372,192,42093,2,0,P|384:110|303:78,1,180,0|8,0:0|0:0,0:0:0:0:
90,238,42950,6,0,P|97:322|178:346,1,180,0|8,2:0|0:0,0:0:0:0:
256,236,43593,1,0,0:0:0:0:
333,346,43808,2,0,P|398:337|430:281,1,135,0|0,0:0|0:0,0:0:0:0:
368,256,44236,2,0,P|400:220|455:222,1,90,8|0,0:0|0:0,0:0:0:0:
480,88,44665,5,0,0:0:0:0:
436,56,44772,1,0,0:0:0:0:
384,48,44879,1,0,0:0:0:0:
252,72,45093,1,8,0:0:0:0:
224,104,45200,1,0,0:0:0:0:
96,152,45415,1,8,0:0:0:0:
92,196,45522,1,0,0:0:0:0:
48,328,45736,1,0,0:0:0:0:
80,360,45843,1,0,0:0:0:0:
128,360,45950,1,0,2:0:0:0:
256,352,46165,5,0,0:0:0:0:
300,340,46272,1,0,0:0:0:0:
328,304,46379,1,0,0:0:0:0:
332,256,46486,1,0,0:0:0:0:
304,220,46593,1,0,0:0:0:0:
280,88,46808,1,8,0:0:0:0:
304,40,46915,2,0,P|344:20|396:36,1,90,0|8,0:0|0:0,0:0:0:0:
428,64,47236,1,0,0:0:0:0:
460,108,47343,1,0,0:0:0:0:
468,160,47450,1,8,0:0:0:0:
456,212,47558,1,0,0:0:0:0:
424,256,47665,2,0,P|400:244|376:216,3,45
352,192,48093,5,4,0:0:0:0:
300,172,48200,1,0,0:0:0:0:
248,180,48308,1,0,0:0:0:0:
128,288,48522,1,8,0:0:0:0:
83,338,48629,2,0,P|60:291|71:250,1,90,0|8,0:0|0:0,0:0:0:0:
123,220,48950,2,0,P|143:154|73:75,1,180,0|8,0:0|0:0,0:0:0:0:
176,328,49808,6,0,P|236:332|272:320,2,90,0|0|8,2:0|0:0|0:0,0:0:0:0:
48,280,50450,1,0,0:0:0:0:
48,280,50665,2,0,P|48:212|100:180,1,135
108,248,51093,2,0,P|172:244|204:224,1,90,8|0,0:0|0:0,0:0:0:0:
308,160,51522,6,0,P|376:168|424:208,2,114.750002188683
320,295,52379,2,0,P|241:335|176:320,1,153.000002918243,8|2,0:0|0:0,0:0:0:0:
88,52,53236,2,0,P|160:68|202:113,2,114.750002188683
92,188,54093,1,8,0:0:0:0:
256,308,54415,1,0,0:0:0:0:
420,188,54736,1,0,0:0:0:0:
424,52,54950,6,0,P|352:68|311:108,2,114.750002188683
488,171,55808,2,0,P|456:249|383:247,1,153.000002918243,8|2,0:0|0:0,0:0:0:0:
144,96,56665,2,0,P|84:128|69:195,2,114.750002188683
272,92,57522,1,8,0:0:0:0:
324,108,57629,1,0,0:0:0:0:
340,160,57736,1,0,0:0:0:0:
332,212,57843,1,8,0:0:0:0:
324,264,57950,1,0,0:0:0:0:
344,316,58058,1,0,0:0:0:0:
392,340,58165,1,8,0:0:0:0:
444,336,58272,1,8,0:0:0:0:
492,308,58379,6,0,P|508:244|483:187,2,114.750002188683,4|0|0,0:0|0:0|0:0,0:0:0:0:
416,252,59236,1,8,0:0:0:0:
196,92,59665,1,2,0:0:0:0:
88,332,60093,2,0,P|160:316|201:274,2,114.750002188683
92,196,60950,1,8,0:0:0:0:
256,76,61272,1,0,0:0:0:0:
420,196,61593,1,0,0:0:0:0:
424,332,61807,6,0,P|352:316|312:275,2,114.750002188683
487,212,62665,2,0,P|455:134|379:140,1,153.000002918243,8|2,0:0|0:0,0:0:0:0:
120,200,63522,2,0,L|144:312,2,114.750002188683
224,32,64379,2,0,P|179:81|200:145,1,114.750002188683,8|8,0:0|0:0,0:0:0:0:
246,96,64808,2,0,P|290:90|335:125,1,76.5000014591217,0|8,0:0|0:0,0:0:0:0:
416,268,65236,6,0,P|472:296|524:292,2,90,4|0|4,0:0|0:0|0:0,0:0:0:0:
252,52,66093,1,8,0:0:0:0:
384,76,66308,2,0,P|352:160|252:180,1,180
160,108,66950,2,0,P|120:136|92:184,1,90,0|2,2:0|2:0,0:0:0:0:
132,300,67379,2,0,P|176:276|196:240,1,90,0|2,2:0|2:0,0:0:0:0:
272,132,67808,2,0,B|313:108|359:115|359:115|392:146|390:196,1,180,12|4,0:0|0:0,0:0:0:0:
390,196,68665,5,4,0:0:0:0:
380,76,68879,1,0,0:0:0:0:
272,132,69093,1,4,0:0:0:0:
72,312,69522,2,0,P|28:272|24:236,1,90,8|0,0:0|0:0,0:0:0:0:
76,120,69950,2,0,P|112:152|124:196,1,90,0|0,2:0|0:0,0:0:0:0:
188,312,70379,1,0,2:0:0:0:
452,256,70808,6,0,P|484:220|492:176,1,90,4|0,0:0|0:0,0:0:0:0:
360,160,71236,1,8,0:0:0:0:
324,296,71450,1,0,0:0:0:0:
272,280,71558,1,0,0:0:0:0:
252,228,71665,1,8,0:0:0:0:
268,176,71772,1,8,0:0:0:0:
252,124,71879,1,8,0:0:0:0:
216,84,71986,1,8,0:0:0:0:
164,76,72093,6,0,P|128:64|96:24,2,90,4|4|4,0:0|0:0|0:0,0:0:0:0:
444,76,72950,1,8,0:0:0:0:
356,180,73165,1,0,0:0:0:0:
432,292,73379,1,2,2:0:0:0:
512,184,73593,1,0,0:0:0:0:
380,16,73808,2,0,P|356:56|364:104,1,90,0|2,2:0|2:0,0:0:0:0:
336,348,74236,2,0,P|348:305|335:260,1,90,0|0,2:0|0:0,0:0:0:0:
232,156,74665,1,12,0:0:0:0:
244,328,74879,1,2,2:0:0:0:
200,168,75093,1,0,0:0:0:0:
276,304,75308,1,2,2:0:0:0:
132,84,75522,5,4,0:0:0:0:
256,32,75736,1,0,0:0:0:0:
380,84,75950,2,0,B|388:128|388:128|360:184,1,90,4|0,0:0|0:0,0:0:0:0:
268,260,76379,2,0,B|260:216|260:216|280:175,1,90,12|0,0:0|0:0,0:0:0:0:
380,84,76808,1,4,0:0:0:0:
500,24,77022,1,0,0:0:0:0:
364,16,77236,2,0,P|324:40|312:80,1,90,4|0,0:0|0:0,0:0:0:0:
328,220,77665,2,0,P|340:264|312:316,1,90,4|0,0:0|0:0,0:0:0:0:
192,332,78093,5,8,0:0:0:0:
140,320,78200,1,0,0:0:0:0:
116,272,78308,1,0,0:0:0:0:
128,220,78415,1,0,0:0:0:0:
148,168,78522,1,8,0:0:0:0:
144,116,78629,1,8,0:0:0:0:
116,72,78736,1,8,0:0:0:0:
64,56,78843,1,8,0:0:0:0:
12,76,78950,6,0,P|-4:120|8:172,1,90,4|4,0:0|0:0,0:0:0:0:
84,272,79379,2,0,P|152:212|232:248,1,180,4|8,0:0|0:0,0:0:0:0:
336,320,80022,1,0,0:0:0:0:
444,240,80236,2,0,P|456:192|440:136,2,90,0|0|0,2:0|0:0|2:0,0:0:0:0:
188,332,81093,1,0,2:0:0:0:
92,240,81308,1,0,0:0:0:0:
221,179,81522,2,0,P|242:264|188:332,1,180,12|4,0:0|0:0,0:0:0:0:
112,72,82379,5,4,0:0:0:0:
240,24,82593,1,0,0:0:0:0:
332,124,82808,2,0,P|336:204|424:236,1,180,4|12,0:0|0:0,0:0:0:0:
400,104,83450,2,0,P|369:63|316:54,2,90,0|0|0,0:0|2:0|0:0,0:0:0:0:
356,232,84093,6,0,P|300:264|204:208,1,180,0|4,2:0|0:0,0:0:0:0:
128,104,84736,1,0,0:0:0:0:
40,208,84950,1,12,0:0:0:0:
112,324,85165,1,0,0:0:0:0:
164,336,85272,1,0,0:0:0:0:
212,312,85379,1,8,0:0:0:0:
264,328,85486,1,8,0:0:0:0:
308,296,85593,1,8,0:0:0:0:
360,312,85700,1,8,0:0:0:0:
404,280,85808,6,0,P|448:276|496:300,2,90,4|0|4,0:0|0:0|0:0,0:0:0:0:
132,280,86665,2,0,P|128:228|164:188,1,90,8|0,0:0|0:0,0:0:0:0:
268,136,87093,2,0,P|272:188|236:228,1,90,0|0,2:0|0:0,0:0:0:0:
72,184,87522,2,0,P|60:144|80:96,1,90,0|2,2:0|2:0,0:0:0:0:
168,8,87950,1,0,2:0:0:0:
192,140,88165,1,0,0:0:0:0:
248,264,88379,2,0,P|324:272|388:180,1,180,12|4,0:0|0:0,0:0:0:0:
164,44,89236,6,0,P|120:64|96:120,1,90,4|0,0:0|0:0,0:0:0:0:
132,228,89665,2,0,P|172:256|188:292,1,90,4|0,0:0|0:0,0:0:0:0:
324,292,90093,2,0,P|343:251|380:227,1,90,12|0,0:0|0:0,0:0:0:0:
413,98,90522,2,0,P|388:60|347:43,1,90,4|0,0:0|0:0,0:0:0:0:
216,76,90950,1,4,0:0:0:0:
156,196,91165,1,0,0:0:0:0:
256,284,91379,1,4,0:0:0:0:
356,196,91593,1,0,0:0:0:0:
296,76,91808,1,0,0:0:0:0:
316,60,91915,1,0,0:0:0:0:
340,52,92022,1,0,0:0:0:0:
368,52,92129,1,0,0:0:0:0:
392,60,92236,5,8,0:0:0:0:
428,100,92343,1,8,0:0:0:0:
436,152,92450,1,8,0:0:0:0:
424,204,92558,1,8,0:0:0:0:
384,240,92665,6,0,P|296:224|224:284,1,180,4|12,0:0|0:0,0:0:0:0:
176,344,93200,2,0,L|208:384,2,45
100,308,93522,2,0,L|44:292,3,45,4|0|0|0,0:0|0:0|0:0|0:0,0:0:0:0:
124,216,93950,2,0,L|96:164,3,45,12|0|0|0,0:0|0:0|0:0|0:0,0:0:0:0:
224,136,94379,2,0,L|236:84,3,45,4|0|0|0,0:0|0:0|0:0|0:0,0:0:0:0:
368,156,94808,2,0,L|416:120,3,45,12|0|0|0,0:0|0:0|0:0|0:0,0:0:0:0:
308,28,95236,2,0,P|250:-3|185:10,2,135,4|4|4,0:0|0:0|0:0,0:0:0:0:
140,168,96093,5,4,0:0:0:0:
168,216,96200,1,0,0:0:0:0:
216,236,96308,1,0,0:0:0:0:
268,224,96415,1,0,0:0:0:0:
308,188,96522,2,0,L|352:204,3,45,12|0|0|0,0:0|0:0|0:0|0:0,0:0:0:0:
376,312,96950,2,0,L|424:296,3,45,4|0|0|0,0:0|0:0|0:0|0:0,0:0:0:0:
460,184,97379,2,0,L|500:208,3,45,12|0|0|0,0:0|0:0|0:0|0:0,0:0:0:0:
436,72,97808,2,0,L|412:110,1,45,4|0,0:0|0:0,0:0:0:0:
276,80,98022,2,0,L|264:124,1,45
136,184,98236,2,0,L|164:224,1,45,12|0,0:0|0:0,0:0:0:0:
116,344,98450,2,0,L|176:352,1,45
396,316,98665,5,4,0:0:0:0:
356,280,98772,1,0,0:0:0:0:
304,260,98879,1,0,0:0:0:0:
252,268,98986,1,0,0:0:0:0:
204,288,99093,1,8,0:0:0:0:
152,284,99200,1,8,3:0:0:0:
100,264,99308,1,2,3:0:0:0:
76,216,99415,1,2,3:0:0:0:
60,164,99522,6,0,P|32:152|12:148,2,45,4|0|0,0:0|0:0|0:0,0:0:0:0:
188,220,99950,1,12,0:0:0:0:
252,240,100058,2,0,P|248:188|216:160,1,90,0|8,0:0|0:0,0:0:0:0:
156,160,100379,2,0,P|174:116|239:102,1,90,4|0,0:0|0:0,0:0:0:0:
204,288,100808,1,12,0:0:0:0:
468,336,101236,1,0,2:0:0:0:
384,80,101665,1,8,0:0:0:0:
256,32,101879,1,0,0:0:0:0:
148,116,102093,2,0,P|98:163|35:147,1,135,0|0,0:0|0:0,0:0:0:0:
81,96,102522,2,0,P|109:56|166:48,1,90,8|0,0:0|0:0,0:0:0:0:
280,72,102950,6,0,L|328:104,2,45,0|0|0,0:0|0:0|0:0,0:0:0:0:
136,172,103379,1,8,0:0:0:0:
200,172,103486,2,0,P|244:196|264:236,1,90,0|8,0:0|0:0,0:0:0:0:
280,292,103808,2,0,P|352:332|448:308,1,180,0|8,0:0|0:0,0:0:0:0:
244,72,104665,2,0,P|172:32|76:56,1,180,0|8,2:0|0:0,0:0:0:0:
32,180,105308,1,0,0:0:0:0:
48,312,105522,2,0,P|120:324|168:284,1,135
200,232,105950,2,0,P|236:200|284:192,1,90,8|0,0:0|0:0,0:0:0:0:
500,144,106379,5,0,0:0:0:0:
480,96,106486,1,0,0:0:0:0:
440,60,106593,1,0,0:0:0:0:
308,40,106808,1,8,0:0:0:0:
240,40,106915,2,0,P|259:88|300:106,1,90,0|8,0:0|0:0,0:0:0:0:
356,112,107236,2,0,P|400:122|432:169,1,90
432,208,107558,1,8,0:0:0:0:
400,248,107665,1,0,2:0:0:0:
272,204,107879,5,0,0:0:0:0:
260,252,107986,1,0,0:0:0:0:
264,304,108093,1,0,0:0:0:0:
300,344,108200,1,0,0:0:0:0:
352,360,108308,1,0,0:0:0:0:
148,288,108522,1,8,0:0:0:0:
91,299,108629,2,0,P|48:284|27:248,1,90,0|8,0:0|0:0,0:0:0:0:
28,192,108950,2,0,L|4:148,3,45,0|0|8|0,0:0|0:0|0:0|0:0,0:0:0:0:
28,104,109379,2,0,L|68:60,3,45,0|0|0|0,0:0|0:0|0:0|0:0,0:0:0:0:
100,40,109808,5,4,0:0:0:0:
152,32,109915,1,0,0:0:0:0:
204,48,110022,1,0,0:0:0:0:
304,140,110236,1,8,0:0:0:0:
304,140,110343,2,0,P|340:172|392:184,1,90,0|8,0:0|0:0,0:0:0:0:
436,144,110665,2,0,P|444:208|340:240,1,180,0|8,0:0|0:0,0:0:0:0:
108,124,111522,1,0,2:0:0:0:
20,224,111736,2,0,P|56:252|108:248,1,90,0|8,0:0|0:0,0:0:0:0:
228,212,112165,1,0,0:0:0:0:
336,292,112379,6,0,B|376:304|388:340|388:340|424:352|460:328,1,135,0|0,0:0|0:0,0:0:0:0:
480,276,112808,1,8,0:0:0:0:
364,208,113022,1,4,0:0:0:0:
228,212,113236,6,0,P|160:204|108:155,2,114.750002188683
216,76,114093,2,0,P|295:36|373:57,1,153.000002918243,8|2,0:0|0:0,0:0:0:0:
424,332,114950,2,0,P|352:316|310:276,2,114.750002188683
420,196,115807,1,8,0:0:0:0:
256,76,116129,1,0,0:0:0:0:
92,196,116450,1,0,0:0:0:0:
88,332,116665,6,0,P|160:316|199:278,2,114.750002188683
24,216,117522,2,0,P|43:143|136:140,1,153.000002918243,8|2,0:0|0:0,0:0:0:0:
368,288,118379,2,0,P|428:256|445:185,2,114.750002188683
240,292,119236,1,8,0:0:0:0:
188,276,119343,1,0,0:0:0:0:
172,224,119450,1,0,0:0:0:0:
180,172,119557,1,8,0:0:0:0:
188,120,119664,1,0,0:0:0:0:
168,68,119772,1,0,0:0:0:0:
120,44,119879,1,8,0:0:0:0:
68,48,119986,1,8,0:0:0:0:
20,76,120093,6,0,P|4:140|30:202,2,114.750002188683,4|0|0,0:0|0:0|0:0,0:0:0:0:
96,132,120950,1,8,0:0:0:0:
316,292,121379,1,2,0:0:0:0:
424,52,121807,2,0,P|352:68|312:109,2,114.750002188683
420,188,122664,1,8,0:0:0:0:
256,308,122986,1,0,0:0:0:0:
92,188,123307,1,0,0:0:0:0:
88,52,123522,6,0,P|160:68|201:109,2,114.750002188683
25,172,124379,2,0,P|57:250|134:242,1,153.000002918243,8|2,0:0|0:0,0:0:0:0:
372,104,125236,2,0,P|416:112|468:182,2,114.750002188683,4|0|0,0:0|0:0|0:0,0:0:0:0:
248,156,126093,2,0,P|176:132|154:83,1,114.750002188683,8|8,0:0|0:0,0:0:0:0:
128,52,126522,1,0,0:0:0:0:
24,144,126736,1,8,0:0:0:0:
60,276,126950,6,0,P|92:324|124:336,1,90,4|0,0:0|0:0,0:0:0:0:
256,312,127379,1,4,0:0:0:0:
400,84,127808,1,8,0:0:0:0:
480,192,128022,2,0,P|432:224|320:192,1,180
256,76,128665,1,0,2:0:0:0:
24,212,129093,2,0,L|84:284,1,90,0|0,2:0|0:0,0:0:0:0:
196,348,129522,2,0,P|120:284|140:208,1,180,12|4,0:0|0:0,0:0:0:0:
352,52,130379,5,4,0:0:0:0:
456,136,130593,1,0,0:0:0:0:
380,248,130808,2,0,P|292:240|232:168,1,180,4|8,0:0|0:0,0:0:0:0:
148,72,131450,2,0,P|96:60|44:60,2,90,0|0|0,0:0|2:0|0:0,0:0:0:0:
276,120,132093,2,0,P|364:136|428:72,1,180,0|0,2:0|0:0,0:0:0:0:
292,52,132736,2,0,P|240:60|208:108,1,90,0|8,0:0|0:0,0:0:0:0:
124,188,133165,1,0,0:0:0:0:
108,240,133272,1,0,0:0:0:0:
116,292,133379,1,8,0:0:0:0:
156,328,133486,1,8,0:0:0:0:
208,336,133593,1,8,0:0:0:0:
260,320,133700,1,8,0:0:0:0:
304,288,133808,6,0,P|352:272|400:276,2,90,4|0|4,0:0|0:0|0:0,0:0:0:0:
40,352,134665,1,8,0:0:0:0:
24,219,134879,2,0,P|94:173|159:226,1,180
256,324,135522,1,0,2:0:0:0:
392,92,135950,2,0,P|356:60|316:44,2,90,0|0|12,2:0|0:0|0:0,0:0:0:0:
332,356,136808,1,4,0:0:0:0:
92,236,137236,6,0,L|28:164,1,90,4|0,0:0|0:0,0:0:0:0:
323,108,137665,2,0,P|365:91|395:58,1,90,4|0,0:0|0:0,0:0:0:0:
116,60,138093,2,0,P|145:93|187:108,1,90,12|0,0:0|0:0,0:0:0:0:
479,168,138522,2,0,L|420:236,1,90,4|0,0:0|0:0,0:0:0:0:
316,324,138950,1,4,0:0:0:0:
256,204,139165,1,0,0:0:0:0:
196,324,139379,1,4,0:0:0:0:
256,192,139593,1,0,0:0:0:0:
364,120,139808,1,8,0:0:0:0:
352,92,139915,1,0,0:0:0:0:
332,68,140022,1,0,0:0:0:0:
308,48,140129,1,0,0:0:0:0:
280,40,140236,5,8,0:0:0:0:
228,60,140343,1,8,0:0:0:0:
176,72,140450,1,8,0:0:0:0:
124,64,140557,1,8,0:0:0:0:
76,36,140665,6,0,P|40:64|28:108,2,90,4|0|4,0:0|0:0|0:0,0:0:0:0:
308,124,141522,1,8,0:0:0:0:
356,252,141736,1,0,0:0:0:0:
276,352,141950,2,0,P|241:315|232:272,1,90,0|0,2:0|0:0,0:0:0:0:
431,175,142379,2,0,P|468:254|428:332,1,180,0|0,2:0|2:0,0:0:0:0:
308,124,143022,1,0,0:0:0:0:
224,228,143236,2,0,P|140:240|92:160,1,180,12|4,0:0|0:0,0:0:0:0:
320,24,144093,5,4,0:0:0:0:
444,72,144308,1,0,0:0:0:0:
468,204,144522,2,0,B|476:255|438:284|438:284|385:256|351:265,1,180,4|12,0:0|0:0,0:0:0:0:
244,344,145165,1,0,0:0:0:0:
120,296,145379,2,0,P|108:244|120:204,2,90,0|0|0,2:0|0:0|2:0,0:0:0:0:
394,209,146236,2,0,P|404:253|392:296,2,90,4|0|12,0:0|0:0|0:0,0:0:0:0:
328,92,146879,1,0,0:0:0:0:
288,56,146986,1,0,0:0:0:0:
236,52,147093,1,8,0:0:0:0:
188,72,147200,1,8,0:0:0:0:
160,116,147308,1,8,0:0:0:0:
160,168,147415,1,8,0:0:0:0:
120,204,147522,6,0,P|68:204|24:176,2,90,4|0|4,0:0|0:0|0:0,0:0:0:0:
388,176,148379,1,8,0:0:0:0:
292,260,148593,1,0,0:0:0:0:
156,224,148808,1,0,2:0:0:0:
192,348,149022,1,0,0:0:0:0:
128,92,149236,2,0,P|48:127|22:215,1,180,0|0,2:0|2:0,0:0:0:0:
156,224,149879,1,0,0:0:0:0:
256,132,150093,2,0,P|304:188|408:192,1,180,12|4,0:0|0:0,0:0:0:0:
180,44,150950,6,0,L|100:88,1,90,4|0,0:0|0:0,0:0:0:0:
16,192,151379,2,0,L|120:192,1,90,4|0,0:0|0:0,0:0:0:0:
208,284,151808,2,0,P|176:312|128:328,2,90,12|0|4,0:0|0:0|0:0,0:0:0:0:
256,160,152450,1,0,0:0:0:0:
304,284,152665,2,0,P|336:312|384:328,2,90,4|0|4,0:0|0:0|0:0,0:0:0:0:
256,160,153308,1,0,0:0:0:0:
164,60,153522,5,0,0:0:0:0:
112,68,153629,1,0,0:0:0:0:
68,96,153736,1,2,3:0:0:0:
44,144,153843,1,2,3:0:0:0:
44,196,153950,1,2,3:0:0:0:
68,244,154058,1,2,3:0:0:0:
108,280,154165,1,2,3:0:0:0:
160,288,154272,1,2,3:0:0:0:
212,280,154379,5,2,3:0:0:0:
380,60,160379,5,8,0:0:0:0:
432,68,160486,1,8,0:0:0:0:
476,96,160593,1,8,0:0:0:0:
500,144,160700,1,8,0:0:0:0:
500,196,160807,1,8,0:0:0:0:
476,244,160915,1,8,0:0:0:0:
436,280,161022,1,8,0:0:0:0:
384,288,161129,1,8,0:0:0:0:
332,272,161236,6,0,P|320:232|264:196,1,90,4|8,0:0|0:0,0:0:0:0:
232,192,161558,1,0,0:0:0:0:
180,188,161665,2,0,L|164:144,3,45,0|8|0|0,0:0|0:0|0:0|0:0,0:0:0:0:
188,104,162093,2,0,L|160:68,3,45,8|0|0|8,0:0|0:0|0:0|0:0,0:0:0:0:
168,16,162522,2,0,L|104:8,1,45
72,16,162736,1,8,0:0:0:0:
28,40,162843,1,0,0:0:0:0:
12,88,162950,6,0,P|16:132|40:184,1,90,4|8,0:0|0:0,0:0:0:0:
80,188,163272,1,0,0:0:0:0:
128,188,163379,2,0,L|160:220,3,45,0|8|0|0,0:0|0:0|0:0|0:0,0:0:0:0:
212,224,163808,2,0,L|228:276,1,45,8|0,0:0|0:0,0:0:0:0:
224,320,164022,2,0,L|280:344,1,45,6|0,0:0|0:0,0:0:0:0:
320,340,164236,1,8,0:0:0:0:
364,312,164343,1,0,0:0:0:0:
388,264,164450,1,6,0:0:0:0:
388,208,164558,1,0,0:0:0:0:
356,164,164665,6,0,P|328:128|316:84,1,90,4|8,0:0|0:0,0:0:0:0:
336,36,164986,1,0,0:0:0:0:
288,12,165093,2,0,L|232:24,3,45,0|8|0|0,0:0|0:0|0:0|0:0,0:0:0:0:
192,16,165522,2,0,L|156:44,3,45,8|0|0|8,0:0|0:0|0:0|0:0,0:0:0:0:
108,36,165950,2,0,L|80:88,1,45
64,120,166165,1,8,0:0:0:0:
32,156,166272,1,0,0:0:0:0:
20,204,166379,6,0,P|40:244|84:276,1,90,4|8,0:0|0:0,0:0:0:0:
124,276,166700,1,0,0:0:0:0:
152,232,166808,1,0,0:0:0:0:
196,208,166915,1,8,0:0:0:0:
248,212,167022,1,0,0:0:0:0:
288,244,167129,1,0,0:0:0:0:
328,280,167236,2,0,L|368:248,1,45,8|8,0:0|0:0,0:0:0:0:
408,228,167450,2,0,L|436:176,1,45,8|8,0:0|0:0,0:0:0:0:
472,152,167665,2,0,L|484:104,3,45,4|0|4|0,0:0|0:0|0:0|0:0,0:0:0:0:
472,56,168093,6,0,P|424:40|384:48,1,90,4|0,0:0|0:0,0:0:0:0:
340,76,168415,1,0,0:0:0:0:
288,96,168522,2,0,L|240:80,3,45,4|0|0|0,0:0|0:0|0:0|0:0,0:0:0:0:
224,172,168950,2,0,L|168:196,3,45,12|0|0|0,0:0|0:0|0:0|0:0,0:0:0:0:
144,104,169379,2,0,L|92:80,3,45,4|0|0|0,0:0|0:0|0:0|0:0,0:0:0:0:
28,116,169808,6,0,P|16:160|16:208,1,90,4|0,0:0|0:0,0:0:0:0:
52,244,170129,1,0,0:0:0:0:
100,268,170236,2,0,L|128:316,3,45,4|0|0|0,0:0|0:0|0:0|0:0,0:0:0:0:
116,360,170665,1,12,0:0:0:0:
168,360,170772,1,0,0:0:0:0:
216,336,170879,1,0,0:0:0:0:
244,288,170986,1,0,0:0:0:0:
256,236,171093,1,12,0:0:0:0:
284,192,171200,1,0,0:0:0:0:
328,160,171308,1,0,0:0:0:0:
380,144,171415,1,0,0:0:0:0:
432,160,171522,6,0,P|456:204|456:256,1,90,4|0,0:0|0:0,0:0:0:0:
428,288,171843,1,0,0:0:0:0:
380,308,171950,2,0,L|352:348,3,45,4|0|0|0,0:0|0:0|0:0|0:0,0:0:0:0:
292,280,172379,2,0,L|245:263,3,45,12|0|0|0,0:0|0:0|0:0|0:0,0:0:0:0:
216,336,172808,2,0,L|160:360,3,45,4|0|0|0,0:0|0:0|0:0|0:0,0:0:0:0:
140,280,173236,6,0,P|112:252|104:200,1,90,4|0,0:0|0:0,0:0:0:0:
136,160,173558,1,0,0:0:0:0:
132,108,173665,2,0,L|172:84,1,45,4|0,0:0|0:0,0:0:0:0:
192,36,173879,2,0,L|252:32,1,45
292,40,174093,1,8,0:0:0:0:
344,56,174200,1,8,0:0:0:0:
380,96,174308,1,8,0:0:0:0:
392,148,174415,1,8,0:0:0:0:
380,200,174522,1,8,0:0:0:0:
352,244,174629,1,8,0:0:0:0:
304,268,174736,1,8,0:0:0:0:
268,308,174843,1,8,0:0:0:0:
244,356,174950,6,0,P|208:340|176:312,2,58.4999973220826,0|0|12,2:0|0:0|0:0,0:0:0:0:
296,368,175272,1,0,0:0:0:0:
344,352,175379,2,0,L|408:328,1,58.4999973220826,4|0,0:0|0:0,0:0:0:0:
480,324,175593,2,0,L|472:256,1,58.4999973220826,12|0,0:0|0:0,0:0:0:0:
400,232,175808,2,0,L|380:176,3,58.4999973220826,4|0|12|0,0:0|0:0|0:0|0:0,0:0:0:0:
464,168,176236,2,0,L|488:104,3,58.4999973220826,4|0|12|0,0:0|0:0|0:0|0:0,0:0:0:0:
484,44,176665,5,4,0:0:0:0:
440,16,176772,1,0,0:0:0:0:
388,16,176879,1,12,0:0:0:0:
340,40,176986,1,0,0:0:0:0:
312,84,177093,2,0,L|300:156,1,58.4999973220826,4|0,0:0|0:0,0:0:0:0:
216,56,177308,2,0,L|184:-24,1,58.4999973220826,12|0,0:0|0:0,0:0:0:0:
192,156,177522,2,0,L|180:228,1,58.4999973220826,4|0,0:0|0:0,0:0:0:0:
100,112,177737,2,0,L|68:32,1,58.4999973220826,12|0,0:0|0:0,0:0:0:0:
56,240,177950,1,4,0:0:0:0:
56,292,178058,1,0,0:0:0:0:
88,332,178165,1,12,0:0:0:0:
136,348,178272,1,0,0:0:0:0:
188,336,178379,6,0,P|228:328|264:328,1,58.4999973220826,4|0,0:0|0:0,0:0:0:0:
296,332,178593,1,12,0:0:0:0:
348,340,178700,2,0,P|424:320|444:280,1,116.999994644165
448,236,179022,1,12,0:0:0:0:
436,60,179236,1,4,0:0:0:0:
395,28,179343,1,0,0:0:0:0:
341,24,179450,1,12,0:0:0:0:
292,43,179558,2,0,P|244:70|182:68,1,116.999994644165
134,51,179879,1,12,0:0:0:0:
28,192,180093,6,0,P|18:220|19:247,2,58.4999973220826,4|0|12,0:0|0:0|0:0,0:0:0:0:
60,152,180415,1,0,0:0:0:0:
232,112,180629,1,0,0:0:0:0:
272,88,180736,1,12,0:0:0:0:
464,160,180950,2,0,P|473:198|469:227,3,58.4999973220826,4|0|12|0,0:0|0:0|0:0|0:0,0:0:0:0:
448,264,181379,1,4,0:0:0:0:
404,292,181486,1,0,0:0:0:0:
352,300,181593,1,12,0:0:0:0:
304,280,181700,1,0,0:0:0:0:
264,244,181808,5,4,0:0:0:0:
216,228,181915,1,0,0:0:0:0:
164,224,182022,2,0,P|112:236|68:292,2,116.999994644165,12|4|12,0:0|0:0|0:0,0:0:0:0:
340,200,182665,1,4,0:0:0:0:
380,164,182772,1,0,0:0:0:0:
396,116,182879,1,12,0:0:0:0:
388,64,182986,2,0,P|336:40|272:44,1,116.999994644165
244,80,183308,1,12,0:0:0:0:
232,256,183522,6,0,P|240:292|264:320,2,58.4999973220826,4|0|12,0:0|0:0|0:0,0:0:0:0:
236,204,183843,2,0,P|176:196|120:220,1,116.999994644165
88,252,184165,2,0,P|52:200|52:144,1,116.999994644165,12|4,0:0|0:0,0:0:0:0:
80,104,184486,1,0,0:0:0:0:
120,72,184593,1,12,0:0:0:0:
172,56,184700,1,0,0:0:0:0:
224,60,184808,1,4,0:0:0:0:
244,108,184915,1,0,0:0:0:0:
284,140,185022,1,12,0:0:0:0:
336,152,185129,1,0,0:0:0:0:
388,152,185236,6,0,P|408:184|416:216,1,58.4999973220826,4|0,0:0|0:0,0:0:0:0:
412,256,185450,1,12,0:0:0:0:
380,296,185558,2,0,P|320:284|264:312,1,116.999994644165
240,348,185879,1,12,0:0:0:0:
64,332,186093,2,0,P|36:304|24:276,2,58.4999973220826,4|0|12,0:0|0:0|0:0,0:0:0:0:
116,348,186415,1,0,0:0:0:0:
276,312,186629,1,0,0:0:0:0:
304,268,186736,1,12,0:0:0:0:
380,88,186950,5,4,0:0:0:0:
356,40,187058,1,0,0:0:0:0:
308,24,187165,1,12,0:0:0:0:
256,32,187272,2,0,P|204:104|120:112,1,175.499991966248,0|12,0:0|0:0,0:0:0:0:
36,264,187808,1,4,0:0:0:0:
76,296,187915,1,0,0:0:0:0:
128,304,188022,1,8,0:0:0:0:
180,292,188129,1,8,0:0:0:0:
232,292,188236,1,8,0:0:0:0:
280,316,188343,1,8,0:0:0:0:
332,316,188450,1,8,0:0:0:0:
380,296,188558,1,8,0:0:0:0:
432,300,188665,6,0,P|472:252|468:196,1,116.999994644165,0|8,0:0|0:0,0:0:0:0:
424,172,188986,2,0,P|352:220|272:184,1,175.499991966248,0|8,0:0|0:0,0:0:0:0:
188,36,189522,2,0,P|148:84|152:140,1,116.999994644165,0|8,0:0|0:0,0:0:0:0:
196,164,189843,2,0,P|268:116|348:152,1,175.499991966248,0|8,0:0|0:0,0:0:0:0:
384,320,190379,6,0,L|256:336,1,116.999994644165,0|8,0:0|0:0,0:0:0:0:
216,328,190700,1,0,0:0:0:0:
116,84,191022,1,8,0:0:0:0:
284,40,191236,2,0,P|344:76|356:128,1,116.999994644165,0|8,0:0|0:0,0:0:0:0:
324,160,191558,2,0,P|304:216|328:272,1,116.999994644165
368,292,191879,1,8,0:0:0:0:
476,156,192093,6,0,P|432:128|352:136,1,116.999994644165,0|8,0:0|0:0,0:0:0:0:
324,160,192415,2,0,P|244:128|236:44,1,175.499991966248,0|8,0:0|0:0,0:0:0:0:
388,128,192950,2,0,P|388:192|345:228,1,116.999994644165,0|8,0:0|0:0,0:0:0:0:
300,228,193272,2,0,P|214:235|181:313,1,175.499991966248,0|8,0:0|0:0,0:0:0:0:
351,277,193807,6,0,P|369:215|339:168,1,116.999994644165,0|8,0:0|0:0,0:0:0:0:
292,160,194129,1,0,0:0:0:0:
44,80,194450,2,0,P|28:140|44:196,1,116.999994644165,8|0,0:0|0:0,0:0:0:0:
68,240,194772,1,0,0:0:0:0:
108,276,194879,1,8,0:0:0:0:
160,292,194986,1,0,0:0:0:0:
212,288,195093,1,0,0:0:0:0:
256,268,195200,1,0,0:0:0:0:
292,232,195308,1,8,0:0:0:0:
304,180,195415,1,0,0:0:0:0:
300,128,195522,6,0,L|392:56,1,116.999994644165,0|8,0:0|0:0,0:0:0:0:
436,24,195843,2,0,B|408:64|420:100|420:100|456:136|448:200,1,175.499991966248,0|8,0:0|0:0,0:0:0:0:
404,344,196379,1,0,0:0:0:0:
212,296,196593,1,8,0:0:0:0:
180,324,196700,2,0,P|108:328|40:252,1,175.499991966248,0|8,0:0|0:0,0:0:0:0:
68,84,197236,6,0,P|124:104|160:156,1,116.999994644165,0|8,0:0|0:0,0:0:0:0:
152,200,197558,1,0,0:0:0:0:
388,320,197879,2,0,P|456:340|504:336,2,116.999994644165,8|0|8,0:0|0:0|0:0,0:0:0:0:
348,288,198415,1,8,0:0:0:0:
316,244,198522,1,8,0:0:0:0:
272,220,198629,1,8,0:0:0:0:
220,208,198736,1,8,0:0:0:0:
168,220,198843,1,8,0:0:0:0:
128,256,198950,6,0,P|84:304|16:304,1,135,8|0,0:0|2:0,0:0:0:0:
156,356,199808,6,0,P|200:336|248:332,1,90,12|0,0:0|0:0,0:0:0:0:
284,296,200129,1,0,0:0:0:0:
304,244,200236,2,0,L|340:208,3,45,4|0|0|0,0:0|0:0|0:0|0:0,0:0:0:0:
408,252,200665,2,0,L|416:196,3,45,4|0|0|0,0:0|0:0|0:0|0:0,0:0:0:0:
496,208,201093,2,0,L|480:164,3,45,4|0|0|0,0:0|0:0|0:0|0:0,0:0:0:0:
416,68,201522,1,8,0:0:0:0:
368,44,201629,1,0,0:0:0:0:
316,52,201736,1,0,0:0:0:0:
280,92,201843,1,0,0:0:0:0:
248,136,201950,1,8,0:0:0:0:
204,168,202058,1,0,0:0:0:0:
152,168,202165,1,0,0:0:0:0:
112,132,202272,1,0,0:0:0:0:
100,80,202379,6,0,P|136:36|180:32,1,90,4|0,0:0|0:0,0:0:0:0:
216,56,202700,1,0,0:0:0:0:
260,88,202808,2,0,P|284:96|316:96,3,45,4|0|0|0,0:0|0:0|0:0|0:0,0:0:0:0:
356,108,203236,2,0,P|372:128|380:148,3,45,12|0|0|0,0:0|0:0|0:0|0:0,0:0:0:0:
488,220,203665,2,0,P|472:200|448:184,1,45,4|0,0:0|0:0,0:0:0:0:
376,252,203879,2,0,P|389:269|407:283,1,45
496,344,204093,6,0,P|472:364|392:360,1,90,4|0,0:0|0:0,0:0:0:0:
368,340,204415,1,0,0:0:0:0:
324,308,204522,2,0,P|304:292|280:280,1,45,4|0,0:0|0:0,0:0:0:0:
276,232,204736,2,0,P|252:224|224:224,1,45
192,260,204950,1,8,0:0:0:0:
140,252,205058,1,8,0:0:0:0:
104,212,205165,1,8,0:0:0:0:
108,160,205272,1,8,0:0:0:0:
140,116,205379,2,0,P|118:91|98:76,3,45,0|0|0|0,0:0|0:0|0:0|0:0,0:0:0:0:
100,32,205808,6,0,P|144:24|188:32,1,90,4|0,0:0|0:0,0:0:0:0:
232,64,206129,1,0,0:0:0:0:
256,112,206236,2,0,L|272:156,3,45,4|0|0|0,0:0|0:0|0:0|0:0,0:0:0:0:
272,244,206665,2,0,L|236:292,3,45,12|0|0|0,0:0|0:0|0:0|0:0,0:0:0:0:
364,216,207093,2,0,P|388:228|412:232,1,45
492,160,207308,2,0,P|468:148|444:144,1,45
404,300,207522,6,0,P|368:328|316:340,1,90,4|0,0:0|0:0,0:0:0:0:
276,348,207843,1,0,0:0:0:0:
224,356,207950,2,0,P|201:346|180:344,3,45,4|0|0|0,0:0|0:0|0:0|0:0,0:0:0:0:
128,356,208379,2,0,L|92:328,1,45,12|0,0:0|0:0,0:0:0:0:
16,312,208593,2,0,L|36:244,1,45
104,240,208808,2,0,L|78:203,1,45,12|0,0:0|0:0,0:0:0:0:
0,188,209022,2,0,L|20:116,1,45
80,52,209236,6,0,P|128:28|172:32,2,90,4|0|4,0:0|0:0|0:0,0:0:0:0:
60,100,209772,1,0,0:0:0:0:
92,144,209879,1,0,0:0:0:0:
144,148,209986,1,0,0:0:0:0:
196,144,210093,2,0,L|244:168,1,45,12|0,0:0|0:0,0:0:0:0:
232,244,210308,2,0,L|304:236,1,45
316,320,210522,2,0,L|360:276,1,45,4|0,0:0|0:0,0:0:0:0:
228,328,210736,1,0,0:0:0:0:
472,344,210950,6,0,P|472:280|448:252,1,90,4|0,0:0|0:0,0:0:0:0:
412,232,211272,1,0,0:0:0:0:
372,196,211379,2,0,P|360:176|352:152,1,45,4|0,0:0|0:0,0:0:0:0:
344,104,211593,2,0,P|328:92|300:84,1,45
252,96,211808,1,8,0:0:0:0:
48,204,212129,1,4,0:0:0:0:
248,300,212450,1,4,0:0:0:0:
184,200,212665,5,4,0:0:0:0:
344,120,226379,6,0,P|396:116|428:96,1,90,0|0,3:0|1:0,0:0:0:0:
168,120,226808,1,0,1:0:0:0:
168,120,227022,2,0,P|116:116|84:96,1,90,8|0,3:0|1:0,0:0:0:0:
256,248,227450,1,0,1:0:0:0:
256,248,227665,2,0,L|256:344,1,90,8|2,0:0|3:0,0:0:0:0:
392,344,228093,5,4,0:0:0:0:
256,176,228308,1,0,0:0:0:0:
120,344,228522,2,0,P|40:312|40:172,1,233.999989288331,4|8,0:0|0:0,0:0:0:0:
136,84,229165,1,0,0:0:0:0:
256,176,229379,1,0,2:0:0:0:
356,80,229593,1,0,0:0:0:0:
477,178,229808,2,0,P|488:289|392:344,1,233.999989288331,0|0,2:0|2:0,0:0:0:0:
256,308,230450,1,0,0:0:0:0:
144,224,230665,2,0,B|116:172|148:112|148:112|208:116|244:56,1,233.999989288331,12|4,0:0|0:0,0:0:0:0:
492,188,231522,6,0,P|488:248|444:304,2,116.999994644165,4|0|4,0:0|0:0|0:0,0:0:0:0:
208,128,232379,1,12,0:0:0:0:
140,248,232593,1,0,0:0:0:0:
272,184,232808,2,0,P|294:133|270:69,1,116.999994644165,0|0,2:0|0:0,0:0:0:0:
191,207,233236,2,0,P|283:268|356:184,1,233.999989288331,0|4,2:0|0:0,0:0:0:0:
228,40,233879,1,0,0:0:0:0:
404,52,234093,1,12,0:0:0:0:
460,268,234308,5,0,0:0:0:0:
412,248,234415,1,0,0:0:0:0:
360,252,234522,1,8,0:0:0:0:
312,268,234629,1,8,0:0:0:0:
276,308,234736,1,8,0:0:0:0:
228,332,234843,1,8,0:0:0:0:
176,328,234950,6,0,P|132:288|72:276,2,116.999994644165,4|0|4,0:0|0:0|0:0,0:0:0:0:
456,340,235808,2,0,P|488:276|484:224,1,116.999994644165,12|0,0:0|0:0,0:0:0:0:
378,108,236236,2,0,P|349:158|348:216,1,116.999994644165,0|0,2:0|0:0,0:0:0:0:
376,356,236665,2,0,B|308:372|260:356|260:356|232:304|168:272,1,233.999989288331,0|0,2:0|2:0,0:0:0:0:
64,192,237308,1,0,0:0:0:0:
152,80,237522,2,0,P|196:112|272:116,2,116.999994644165,12|2|4,0:0|0:0|0:0,0:0:0:0:
428,40,238379,5,4,0:0:0:0:
412,180,238593,1,0,0:0:0:0:
300,92,238808,1,4,0:0:0:0:
436,60,239022,1,0,0:0:0:0:
404,196,239236,1,12,0:0:0:0:
316,84,239450,1,0,0:0:0:0:
180,44,239665,5,4,0:0:0:0:
66,127,239879,1,0,0:0:0:0:
198,180,240094,1,4,0:0:0:0:
158,47,240308,1,0,0:0:0:0:
56,142,240522,1,4,0:0:0:0:
197,162,240736,1,0,0:0:0:0:
304,72,240950,6,0,P|332:52|360:44,3,58.4999973220826,8|0|0|0,0:0|0:0|0:0|0:0,0:0:0:0:
408,44,241379,1,8,0:0:0:0:
452,72,241486,1,8,0:0:0:0:
472,120,241593,1,8,0:0:0:0:
472,172,241700,1,8,0:0:0:0:
448,220,241808,6,0,P|400:256|344:264,1,116.999994644165,4|0,0:0|0:0,0:0:0:0:
348,124,242236,1,4,0:0:0:0:
72,64,242665,1,12,0:0:0:0:
32,200,242879,1,0,0:0:0:0:
116,320,243093,2,0,P|172:328|223:301,2,116.999994644165,0|0|0,2:0|0:0|2:0,0:0:0:0:
256,76,243950,1,0,2:0:0:0:
376,148,244165,1,0,0:0:0:0:
328,280,244379,2,0,B|260:260|248:208|248:208|184:188|104:224,1,233.999989288331,12|4,0:0|0:0,0:0:0:0:
380,344,245236,6,0,P|412:300|400:236,2,116.999994644165,4|0|4,0:0|0:0|0:0,0:0:0:0:
96,348,246093,1,12,0:0:0:0:
32,220,246308,2,0,B|64:172|64:172|92:168|120:152,1,116.999994644165,0|0,0:0|2:0,0:0:0:0:
228,64,246736,1,0,0:0:0:0:
316,176,246950,2,0,P|324:272|448:296,1,233.999989288331,0|4,2:0|0:0,0:0:0:0:
448,160,247593,1,0,0:0:0:0:
364,48,247808,1,12,0:0:0:0:
252,136,248022,1,0,0:0:0:0:
212,168,248129,1,0,0:0:0:0:
160,172,248236,1,8,0:0:0:0:
112,152,248343,1,8,0:0:0:0:
88,108,248450,1,8,0:0:0:0:
100,56,248558,1,8,0:0:0:0:
148,36,248665,6,0,P|208:44|244:84,2,116.999994644165,4|0|4,0:0|0:0|0:0,0:0:0:0:
40,296,249522,2,0,P|88:344|152:344,1,116.999994644165,12|0,0:0|0:0,0:0:0:0:
148,204,249950,1,0,2:0:0:0:
388,228,250165,1,0,0:0:0:0:
460,108,250379,2,4,P|349:83|278:166,1,233.999989288331,0|0,2:0|2:0,0:0:0:0:
296,304,251022,1,0,0:0:0:0:
384,188,251236,2,0,P|348:82|238:65,1,233.999989288331,12|4,0:0|0:0,0:0:0:0:
60,272,252093,5,4,0:0:0:0:
188,64,252308,1,0,0:0:0:0:
68,252,252522,1,4,0:0:0:0:
56,112,252736,1,0,0:0:0:0:
192,320,252951,1,12,0:0:0:0:
64,132,253165,1,0,0:0:0:0:
40,268,253379,6,0,P|88:300|160:284,1,116.999994644165,4|0,0:0|0:0,0:0:0:0:
256,208,253808,1,4,0:0:0:0:
367,293,254022,2,0,P|424:299|472:268,2,116.999994644165,0|4|0,0:0|0:0|0:0,0:0:0:0:
152,80,254665,5,8,0:0:0:0:
256,248,254879,1,0,0:0:0:0:
360,80,255093,1,8,0:0:0:0:
256,248,255308,1,0,0:0:0:0:
148,328,255522,6,0,P|100:312|72:272,1,90,4|0,0:0|0:0,0:0:0:0:
48,152,255950,1,12,0:0:0:0:
148,60,256165,1,0,0:0:0:0:
256,156,256379,2,0,L|256:256,1,90,4|0,0:0|0:0,0:0:0:0:
256,80,256808,1,12,0:0:0:0:
256,320,257022,1,0,0:0:0:0:
364,60,257236,5,4,0:0:0:0:
464,152,257451,1,0,0:0:0:0:
436,282,257665,2,0,P|406:315|364:328,1,90,12|0,0:0|0:0,0:0:0:0:
132,348,258093,1,4,0:0:0:0:
244,272,258308,1,0,0:0:0:0:
84,224,258522,1,12,0:0:0:0:
108,180,258629,1,0,0:0:0:0:
152,152,258736,1,0,0:0:0:0:
244,56,258950,6,0,P|204:28|160:20,1,90,4|0,0:0|0:0,0:0:0:0:
216,220,259379,1,12,0:0:0:0:
416,132,259593,1,0,0:0:0:0:
364,296,259808,2,0,P|324:316|264:312,1,90,4|0,0:0|0:0,0:0:0:0:
72,248,260236,1,12,0:0:0:0:
212,360,260450,1,0,0:0:0:0:
128,124,260665,5,4,0:0:0:0:
256,240,260879,1,0,0:0:0:0:
384,124,261093,2,0,P|424:172|424:208,1,90,12|0,0:0|0:0,0:0:0:0:
384,324,261522,1,4,0:0:0:0:
188,204,261736,1,12,0:0:0:0:
324,204,261950,1,12,0:0:0:0:
128,324,262165,1,0,0:0:0:0:
56,208,262379,6,0,P|56:164|88:112,1,90,4|0,0:0|0:0,0:0:0:0:
304,112,262808,1,12,0:0:0:0:
188,44,263022,1,0,0:0:0:0:
348,96,263236,1,4,0:0:0:0:
140,64,263450,1,0,0:0:0:0:
380,212,263665,2,0,P|400:176|400:124,1,90,12|0,0:0|0:0,0:0:0:0:
292,48,264093,5,4,0:0:0:0:
184,132,264308,1,0,0:0:0:0:
220,264,264522,2,0,P|261:247|287:212,1,90,12|0,0:0|0:0,0:0:0:0:
204,56,264950,1,4,0:0:0:0:
156,60,265058,1,0,0:0:0:0:
116,96,265165,1,0,0:0:0:0:
116,232,265379,1,12,0:0:0:0:
256,208,265593,1,0,0:0:0:0:
388,172,265808,6,0,P|396:216|380:264,1,90,4|0,0:0|0:0,0:0:0:0:
256,168,266236,1,12,0:0:0:0:
328,52,266450,1,0,0:0:0:0:
256,208,266665,1,4,0:0:0:0:
188,52,266879,1,0,0:0:0:0:
124,171,267093,2,0,P|115:215|128:258,1,90,12|0,0:0|0:0,0:0:0:0:
296,160,267522,6,0,P|340:168|372:200,1,90,4|0,0:0|0:0,0:0:0:0:
216,176,267950,2,0,P|217:131|245:95,1,90,12|0,0:0|0:0,0:0:0:0:
268,236,268379,2,0,P|227:255|183:248,1,90,10|2,3:0|3:0,0:0:0:0:
92,148,268808,5,10,3:0:0:0:
332,44,269022,1,8,0:0:0:0:
180,44,269236,1,4,0:0:0:0:
420,148,269450,1,4,0:0:0:0:
256,192,269558,12,0,270736,0:0:0:0:
