osu file format v14

[General]
AudioFilename: Eluveitie - King.mp3
AudioLeadIn: 0
PreviewTime: 226369
Countdown: 1
SampleSet: Normal
StackLeniency: 0.4
Mode: 0
LetterboxInBreaks: 0
WidescreenStoryboard: 0

[Editor]
Bookmarks: 106798,107655,178369
DistanceSpacing: 1.2
BeatDivisor: 4
GridSize: 4
TimelineZoom: 1.7

[Metadata]
Title:King
TitleUnicode:King
Artist:Eluveitie
ArtistUnicode:Eluveitie
Creator:DexFrild
Version:Hard
Source:
Tags:snepif elu switzerland suisse folk melodic death pagan celtic metal rock origins chrigel glanzmann meri tadic merlin sutter rafael salzmann ivo henzi anna murphy kay brem patrick kistler mandola whistles pipes gaita acoustic guitar bodhran harp violin hurdy gurdy 2014
BeatmapID:491024
BeatmapSetID:184481

[Difficulty]
HPDrainRate:6
CircleSize:4
OverallDifficulty:6
ApproachRate:7
SliderMultiplier:1.50000000596046
SliderTickRate:1

[Events]
//Background and Video events
0,0,"Origins 1024x768.jpg",0,0
//Break Periods
2,154579,159479
2,212864,225479
//Storyboard Layer 0 (Background)
//Storyboard Layer 1 (Fail)
//Storyboard Layer 2 (Pass)
//Storyboard Layer 3 (Foreground)
//Storyboard Sound Samples

[TimingPoints]
108,857.142857142857,4,1,1,65,1,0
13808,428.571428571429,4,1,1,65,1,0
17236,-100,4,1,2,65,0,0
20665,-100,4,1,1,65,0,0
24093,-100,4,1,2,65,0,0
65236,-100,4,1,1,65,0,1
65665,-100,4,1,2,65,0,1
72093,-100,4,1,1,65,0,1
72522,-100,4,1,2,65,0,1
78950,-100,4,1,1,65,0,1
79379,-100,4,1,2,65,0,1
85808,-100,4,1,1,65,0,1
86236,-100,4,1,2,65,0,1
92665,-100,4,1,2,65,0,0
126950,-100,4,1,1,65,0,1
127379,-100,4,1,2,65,0,1
133808,-100,4,1,1,65,0,1
134236,-100,4,1,2,65,0,1
140665,-100,4,1,1,65,0,1
141093,-100,4,1,2,65,0,1
147522,-100,4,1,1,65,0,1
147950,-100,4,1,2,65,0,1
154379,-100,4,1,2,40,0,0
160379,-100,4,1,2,75,0,0
174950,-100,4,1,2,75,0,1
198950,-100,4,1,2,75,0,0
212665,-100,4,1,2,85,0,0
226379,-100,4,3,2,75,0,0
227665,-100,4,3,3,75,0,0
228093,-100,4,1,1,75,0,1
228522,-100,4,1,2,75,0,1
234950,-100,4,1,1,75,0,1
235379,-100,4,1,2,75,0,1
241808,-100,4,1,1,75,0,1
242236,-100,4,1,2,75,0,1
248665,-100,4,1,1,75,0,1
249093,-100,4,1,2,75,0,1
255522,-100,4,1,2,75,0,0
269450,-100,4,1,1,75,0,0
270736,-100,4,1,1,10,0,0

[Colours]
Combo1 : 211,185,92
Combo2 : 56,192,226
Combo3 : 105,123,222
Combo4 : 64,113,40
SliderBorder : 200,200,200
SliderTrackOverride : 45,28,29

[HitObjects]
140,104,13808,6,0,P|205:59|276:44,2,150.000000596046,4|8|0,0:0|0:0|0:0,0:0:0:0:
92,180,14879,1,0,0:0:0:0:
132,260,15093,2,0,P|164:288|184:328,1,75.000000298023,8|0,0:0|0:0,0:0:0:0:
268,332,15522,2,0,B|344:320|344:320|364:276|416:268,2,150.000000596046,0|8|0,2:0|0:0|0:0,0:0:0:0:
180,336,16593,1,0,0:0:0:0:
213,263,16808,2,0,L|288:252,1,75.000000298023,8|0,0:0|0:0,0:0:0:0:
112,236,17236,6,0,P|148:180|238:159,1,150.000000596046,4|8,0:0|0:0,0:0:0:0:
380,252,18093,2,0,P|364:218|369:181,1,75.000000298023
455,203,18522,1,8,0:0:0:0:
455,203,18736,1,0,0:0:0:0:
480,288,18950,2,0,P|464:320|432:344,1,75.000000298023,0|0,2:0|0:0,0:0:0:0:
343,327,19379,1,8,0:0:0:0:
264,288,19593,1,0,0:0:0:0:
208,216,19808,2,0,P|176:236|152:272,1,75.000000298023
264,288,20236,2,0,P|296:268|320:232,1,75.000000298023,8|0,0:0|0:0,0:0:0:0:
267,124,20665,6,0,P|307:61|377:41,2,150.000000596046,4|8|0,0:0|0:0|0:0,0:0:0:0:
304,208,21736,1,0,0:0:0:0:
368,144,21950,2,0,P|388:174|393:219,1,75.000000298023,8|0,0:0|0:0,0:0:0:0:
392,312,22379,2,0,P|428:308|468:276,2,75.000000298023,0|0|8,2:0|0:0|0:0,0:0:0:0:
244,224,23236,1,0,0:0:0:0:
164,188,23450,1,0,0:0:0:0:
136,276,23665,1,8,0:0:0:0:
48,284,23879,1,0,0:0:0:0:
104,356,24093,6,0,P|176:352|221:277,1,150.000000596046,4|8,0:0|0:0,0:0:0:0:
272,132,24950,2,0,P|224:144|188:140,1,75.000000298023
148,68,25379,1,8,0:0:0:0:
148,68,25593,1,0,0:0:0:0:
64,104,25808,2,0,P|48:132|36:180,2,75.000000298023,0|0|8,2:0|0:0|0:0,0:0:0:0:
236,48,26665,2,0,L|276:56,3,37.5000001490115,0|0|0|0,0:0|0:0|0:0|0:0,0:0:0:0:
316,72,27093,2,0,L|344:96,3,37.5000001490115,8|8|8|8,0:0|0:0|0:0|0:0,0:0:0:0:
388,96,27522,5,4,0:0:0:0:
256,192,27950,12,4,33522,0:0:0:0:
456,32,34379,6,0,P|376:48|336:92,1,112.500000447034,4|0,0:0|0:0,0:0:0:0:
340,104,34808,2,0,P|303:112|260:104,1,75.000000298023,8|0,0:0|0:0,0:0:0:0:
124,140,35236,2,0,P|196:150|246:205,1,150.000000596046
44,260,36093,2,0,B|60:316|60:316|124:340,1,112.500000447034
144,304,36522,2,0,P|180:295|216:303,1,75.000000298023,8|0,0:0|0:0,0:0:0:0:
292,352,36950,2,0,B|350:344|350:344|358:316|378:296,1,112.500000447034,8|0,0:0|0:0,0:0:0:0:
420,284,37379,1,8,0:0:0:0:
383,203,37593,1,0,0:0:0:0:
467,167,37808,6,0,P|433:125|379:111,1,112.500000447034
340,132,38236,2,0,P|296:144|260:140,1,75.000000298023,8|0,0:0|0:0,0:0:0:0:
200,84,38665,2,0,P|127:60|59:83,2,150.000000596046,0|8|0,0:0|0:0|2:0,0:0:0:0:
349,209,39950,2,0,P|358:249|350:292,1,75.000000298023,8|0,0:0|0:0,0:0:0:0:
260,252,40379,2,0,P|216:228|144:228,1,112.500000447034
108,232,40808,1,8,0:0:0:0:
40,292,41022,1,0,0:0:0:0:
22,204,41236,6,0,P|38:176|74:148,1,75.000000298023
120,72,41665,2,0,P|92:52|40:40,2,75.000000298023,8|0|0,0:0|0:0|0:0,0:0:0:0:
172,216,42522,1,8,0:0:0:0:
351,252,42950,2,0,P|336:180|268:145,1,150.000000596046,0|8,2:0|0:0,0:0:0:0:
264,236,43593,1,0,0:0:0:0:
248,324,43808,2,0,P|188:286|176:227,1,112.500000447034,0|0,2:0|0:0,0:0:0:0:
175,249,44236,2,0,P|151:217|111:201,1,75.000000298023,8|0,0:0|0:0,0:0:0:0:
52,140,44665,6,0,L|16:164,2,37.5000001490115,4|0|0,0:0|0:0|0:0,0:0:0:0:
116,80,45093,1,8,0:0:0:0:
140,116,45200,2,0,P|172:152|216:160,1,75.000000298023,0|8,0:0|0:0,0:0:0:0:
240,160,45522,2,0,P|292:168|328:212,2,112.500000447034,0|8|0,0:0|0:0|0:0,0:0:0:0:
284,312,46379,2,0,P|332:312|376:332,1,75.000000298023
216,276,46808,2,0,L|239:246,2,37.5000001490115,8|0|0,0:0|0:0|0:0,0:0:0:0:
152,340,47236,2,0,P|112:344|68:320,1,75.000000298023,0|8,0:0|0:0,0:0:0:0:
64,244,47665,1,0,0:0:0:0:
120,160,47879,1,0,0:0:0:0:
147,244,48093,6,0,P|75:235|34:175,1,150.000000596046,0|8,0:0|0:0,0:0:0:0:
40,132,48629,2,0,B|69:101|69:101|81:71,1,75.000000298023,0|8,0:0|0:0,0:0:0:0:
104,32,48950,2,0,P|176:40|217:100,1,150.000000596046,0|8,0:0|0:0,0:0:0:0:
264,276,49808,1,0,2:0:0:0:
324,344,50022,2,0,P|364:348|412:316,1,75.000000298023,0|8,0:0|0:0,0:0:0:0:
348,260,50450,1,0,0:0:0:0:
284,196,50665,2,0,P|232:200|188:252,1,112.500000447034
168,280,51093,2,0,P|132:272|100:248,1,75.000000298023,8|0,0:0|0:0,0:0:0:0:
40,184,51522,6,0,P|40:128|80:80,2,112.500000447034,4|0|0,0:0|0:0|0:0,0:0:0:0:
124,156,52379,1,8,0:0:0:0:
256,32,52808,1,2,0:0:0:0:
388,160,53236,2,0,P|429:199|435:260,2,112.500000447034
304,116,54093,2,0,P|322:62|374:29,2,112.500000447034,8|0|0,0:0|0:0|0:0,0:0:0:0:
304,204,54950,6,0,P|252:224|194:204,2,112.500000447034
248,132,55808,1,8,0:0:0:0:
428,108,56236,1,2,0:0:0:0:
352,272,56665,6,0,P|376:324|432:360,2,112.500000447034
272,312,57522,2,0,L|232:344,3,37.5000001490115,8|0|0|8,0:0|0:0|0:0|0:0,0:0:0:0:
200,352,57950,2,0,L|160:360,3,37.5000001490115,0|0|8|8,0:0|0:0|0:0|0:0,0:0:0:0:
124,328,58379,6,0,B|144:272|128:216|128:216|56:188|60:112,1,225.000000894069,4|0,0:0|0:0,0:0:0:0:
156,120,59236,1,8,0:0:0:0:
232,284,59665,1,2,0:0:0:0:
372,172,60093,2,0,P|413:133|419:72,2,112.500000447034
304,232,60950,2,0,P|321:285|373:318,2,112.500000447034,8|0|0,0:0|0:0|0:0,0:0:0:0:
284,144,61807,6,0,P|231:123|173:143,2,112.500000447034
368,180,62665,1,8,0:0:0:0:
268,328,63093,1,2,0:0:0:0:
76,344,63522,5,0,0:0:0:0:
172,248,63843,1,0,0:0:0:0:
188,112,64165,1,0,0:0:0:0:
276,96,64379,2,0,P|344:128|396:128,1,112.500000447034,8|8,0:0|0:0,0:0:0:0:
424,132,64808,2,0,P|460:148|492:180,1,75.000000298023,0|8,0:0|0:0,0:0:0:0:
424,304,65236,6,0,P|393:323|356:331,1,75.000000298023,4|4,0:0|0:0,0:0:0:0:
265,304,65665,1,4,0:0:0:0:
80,336,66093,1,8,0:0:0:0:
172,336,66308,1,0,0:0:0:0:
192,240,66522,2,0,P|227:212|278:208,1,75.000000298023,0|0,2:0|0:0,0:0:0:0:
336,248,66950,1,0,2:0:0:0:
472,184,67379,1,0,2:0:0:0:
488,96,67593,1,0,0:0:0:0:
472,184,67808,2,0,P|416:152|404:72,1,150.000000596046,12|4,0:0|0:0,0:0:0:0:
228,44,68665,6,0,P|188:68|168:96,2,75.000000298023,4|0|4,0:0|0:0|0:0,0:0:0:0:
80,144,69522,2,0,B|96:184|144:196|144:196|176:272|128:332,1,225.000000894069,12|0,0:0|0:0,0:0:0:0:
72,260,70379,1,0,2:0:0:0:
220,156,70808,2,0,L|192:80,1,75.000000298023,4|0,0:0|0:0,0:0:0:0:
280,224,71236,2,0,L|316:140,1,75.000000298023,8|0,0:0|0:0,0:0:0:0:
312,312,71665,1,8,0:0:0:0:
352,292,71772,1,8,0:0:0:0:
380,256,71879,1,8,0:0:0:0:
384,212,71986,1,8,0:0:0:0:
424,188,72093,6,0,P|464:220|500:228,2,75.000000298023,4|0|4,0:0|0:0|0:0,0:0:0:0:
224,52,72950,1,8,0:0:0:0:
224,52,73165,2,0,P|296:48|352:116,1,150.000000596046
264,132,73808,1,0,2:0:0:0:
84,124,74236,1,0,2:0:0:0:
120,206,74450,1,0,0:0:0:0:
118,296,74665,2,0,P|51:263|31:193,1,150.000000596046,12|4,0:0|0:0,0:0:0:0:
284,96,75522,6,0,P|324:60|352:48,2,75.000000298023,4|0|4,0:0|0:0|0:0,0:0:0:0:
215,176,76165,2,0,P|189:202|157:220,2,75.000000298023,0|12|0,0:0|0:0|0:0,0:0:0:0:
308,184,76808,2,0,P|334:210|352:242,2,75.000000298023,4|0|4,0:0|0:0|0:0,0:0:0:0:
200,88,77450,2,0,P|164:48|152:20,2,75.000000298023,0|4|0,0:0|0:0|0:0,0:0:0:0:
168,208,78093,2,0,L|144:256,3,37.5000001490115,0|0|0|0,0:0|0:0|0:0|0:0,0:0:0:0:
136,280,78522,2,0,L|88:300,3,37.5000001490115,8|8|8|8,0:0|0:0|0:0|0:0,0:0:0:0:
64,264,78950,6,0,P|56:224|64:176,1,75.000000298023,4|0,0:0|0:0,0:0:0:0:
104,112,79379,1,4,0:0:0:0:
268,36,79808,1,8,0:0:0:0:
180,44,80022,2,0,P|204:96|293:122,1,150.000000596046
404,180,80665,2,0,P|380:252|312:268,1,150.000000596046,0|4,2:0|0:0,0:0:0:0:
256,200,81308,1,0,0:0:0:0:
197,268,81522,2,0,P|128:248|104:180,1,150.000000596046,12|4,0:0|0:0,0:0:0:0:
204,28,82379,5,4,0:0:0:0:
256,104,82593,1,0,0:0:0:0:
308,28,82808,1,4,0:0:0:0:
320,208,83236,2,0,P|340:240|388:264,2,75.000000298023,12|0|0,0:0|0:0|2:0,0:0:0:0:
308,120,83879,1,0,0:0:0:0:
360,48,84093,2,0,B|396:32|432:48|432:48|440:92|488:124,1,150.000000596046,0|4,2:0|0:0,0:0:0:0:
484,200,84736,1,0,0:0:0:0:
468,288,84950,2,0,P|428:308|388:316,1,75.000000298023,8|0,0:0|0:0,0:0:0:0:
356,332,85272,1,0,0:0:0:0:
312,332,85379,2,0,P|292:320|276:300,3,37.5000001490115,8|8|8|8,0:0|0:0|0:0|0:0,0:0:0:0:
268,268,85808,6,0,P|244:212|220:196,1,75.000000298023,4|4,0:0|0:0,0:0:0:0:
276,124,86236,2,0,P|216:160|136:140,1,150.000000596046,4|8,0:0|0:0,0:0:0:0:
52,152,86879,1,0,0:0:0:0:
44,64,87093,1,0,2:0:0:0:
24,180,87308,1,0,0:0:0:0:
44,64,87522,2,0,P|116:44|192:80,1,150.000000596046,0|0,2:0|2:0,0:0:0:0:
256,128,88165,1,0,0:0:0:0:
332,80,88379,2,0,P|384:108|400:204,1,150.000000596046,12|4,0:0|0:0,0:0:0:0:
260,296,89236,6,0,L|312:360,1,75.000000298023,4|0,0:0|0:0,0:0:0:0:
296,228,89665,1,4,0:0:0:0:
208,232,89879,1,0,0:0:0:0:
128,268,90093,2,0,P|116:316|128:348,2,75.000000298023,12|0|4,0:0|0:0|0:0,0:0:0:0:
208,232,90736,1,0,0:0:0:0:
284,188,90950,2,0,P|296:140|284:108,2,75.000000298023,4|0|4,0:0|0:0|0:0,0:0:0:0:
208,232,91593,1,0,0:0:0:0:
144,292,91808,2,0,L|96:304,3,37.5000001490115
84,256,92236,2,0,L|44:240,3,37.5000001490115,8|8|8|8,0:0|0:0|0:0|0:0,0:0:0:0:
44,188,92665,5,2,0:0:0:0:
256,192,93093,12,4,98665,0:0:0:0:
408,156,99522,5,4,0:0:0:0:
408,156,99629,1,0,0:0:0:0:
408,156,99736,2,0,L|360:220,1,75.000000298023,0|8,0:0|0:0,0:0:0:0:
336,252,100058,2,0,P|296:256|248:244,1,75.000000298023,0|8,0:0|0:0,0:0:0:0:
220,232,100379,2,0,P|140:244|92:296,1,150.000000596046,0|8,0:0|0:0,0:0:0:0:
272,320,101236,2,0,P|345:311|404:252,1,150.000000596046,0|8,2:0|0:0,0:0:0:0:
332,204,101879,1,0,0:0:0:0:
244,192,102093,2,0,P|264:148|317:116,1,112.500000447034
360,108,102522,2,0,P|376:136|417:163,1,75.000000298023,8|0,0:0|0:0,0:0:0:0:
440,80,102950,5,0,0:0:0:0:
416,44,103058,1,0,0:0:0:0:
376,28,103165,1,0,0:0:0:0:
288,28,103379,2,0,L|240:64,2,37.5000001490115,8|0|0,0:0|0:0|0:0,0:0:0:0:
259,147,103808,2,0,P|187:119|163:55,1,150.000000596046,0|8,0:0|0:0,0:0:0:0:
44,228,104665,2,0,B|57:265|96:278|96:278|135:291|145:330,1,150.000000596046,0|8,2:0|0:0,0:0:0:0:
124,196,105308,1,0,0:0:0:0:
152,112,105522,2,0,P|189:137|212:200,1,112.500000447034
212,244,105950,2,0,P|220:288|244:312,1,75.000000298023,8|0,0:0|0:0,0:0:0:0:
324,340,106379,6,0,L|360:352,2,37.5000001490115
336,252,106808,2,0,L|388:232,2,37.5000001490115,8|0|0,0:0|0:0|0:0,0:0:0:0:
260,308,107236,2,0,P|184:344|120:312,1,150.000000596046
104,220,107879,1,0,0:0:0:0:
188,252,108093,1,0,0:0:0:0:
172,164,108308,1,0,0:0:0:0:
84,144,108522,2,0,P|44:168|28:208,1,75.000000298023,8|0,0:0|0:0,0:0:0:0:
40,280,108950,2,0,L|68:312,3,37.5000001490115,0|0|8|0,0:0|0:0|0:0|0:0,0:0:0:0:
108,300,109379,2,0,L|112:344,3,37.5000001490115
156,340,109808,6,0,B|160:316|180:300|180:300|236:304|236:304|260:296|272:276,1,150.000000596046,4|8,0:0|0:0,0:0:0:0:
284,232,110343,1,0,0:0:0:0:
312,144,110558,1,8,0:0:0:0:
332,104,110665,2,0,P|404:102|451:158,1,150.000000596046,0|8,0:0|0:0,0:0:0:0:
416,336,111522,2,0,P|380:339|339:314,2,75.000000298023,0|0|8,2:0|0:0|0:0,0:0:0:0:
400,248,112165,1,0,0:0:0:0:
336,184,112379,2,0,L|256:268,1,112.500000447034
212,260,112808,1,8,0:0:0:0:
152,196,113022,1,0,0:0:0:0:
116,280,113236,6,0,P|72:240|60:184,2,112.500000447034
204,308,114093,1,8,0:0:0:0:
344,192,114522,1,2,0:0:0:0:
172,144,114950,6,0,P|184:92|248:52,1,112.500000447034
356,100,115593,1,0,0:0:0:0:
276,152,115808,2,0,P|315:190|381:192,1,112.500000447034,8|0,0:0|0:0,0:0:0:0:
444,80,116450,1,0,0:0:0:0:
356,100,116665,6,0,L|240:52,1,112.500000447034
120,32,117308,1,0,0:0:0:0:
88,116,117522,1,8,0:0:0:0:
136,288,117950,1,2,0:0:0:0:
312,336,118379,2,0,P|365:321|399:278,1,112.500000447034
304,180,119022,1,0,0:0:0:0:
232,236,119236,2,0,L|192:268,3,37.5000001490115,8|0|0|8,0:0|0:0|0:0|0:0,0:0:0:0:
204,304,119665,2,0,L|152:316,3,37.5000001490115,0|0|8|8,0:0|0:0|0:0|0:0,0:0:0:0:
124,316,120093,6,0,P|80:256|80:212,1,112.500000447034,4|0,0:0|0:0,0:0:0:0:
144,104,120736,1,0,0:0:0:0:
84,36,120950,1,8,0:0:0:0:
224,160,121379,2,0,L|318:165,1,75.000000298023,2|2,0:0|0:0,0:0:0:0:
388,156,121808,2,0,P|430:183|451:239,2,112.500000447034
360,242,122665,2,0,P|382:298|430:326,2,112.500000447034,8|0|0,0:0|0:0|0:0,0:0:0:0:
300,176,123522,6,0,P|280:136|220:84,1,112.500000447034
104,48,124165,1,0,0:0:0:0:
104,48,124379,2,0,P|96:128|44:172,1,150.000000596046,8|2,0:0|0:0,0:0:0:0:
236,144,125236,6,0,P|304:156|344:200,1,112.500000447034
411,319,125879,1,0,0:0:0:0:
337,299,126093,2,0,P|385:248|427:244,1,112.500000447034,8|8,0:0|0:0,0:0:0:0:
464,264,126522,2,0,P|480:226|468:183,1,75.000000298023,0|8,0:0|0:0,0:0:0:0:
388,148,126950,6,0,P|356:168|312:168,1,75.000000298023,4|4,0:0|0:0,0:0:0:0:
236,144,127379,1,4,0:0:0:0:
84,48,127808,1,8,0:0:0:0:
55,132,128022,2,0,P|120:148|160:220,1,150.000000596046
68,224,128665,1,0,2:0:0:0:
164,84,129093,1,0,2:0:0:0:
252,68,129308,1,0,0:0:0:0:
308,140,129522,2,0,P|360:190|432:185,1,150.000000596046,12|4,0:0|0:0,0:0:0:0:
212,248,130379,5,4,0:0:0:0:
168,172,130593,1,0,0:0:0:0:
215,95,130808,2,0,P|143:85|88:132,1,150.000000596046,4|12,0:0|0:0,0:0:0:0:
256,176,131450,2,0,P|328:186|383:139,1,150.000000596046
303,99,132093,1,0,2:0:0:0:
132,44,132522,5,4,0:0:0:0:
44,28,132736,1,0,0:0:0:0:
92,128,132950,1,12,0:0:0:0:
156,188,133165,1,0,0:0:0:0:
200,100,133379,2,0,L|236:84,3,37.5000001490115,8|8|8|8,0:0|0:0|0:0|0:0,0:0:0:0:
268,56,133808,6,0,P|308:48|345:59,2,75.000000298023,4|0|4,0:0|0:0|0:0,0:0:0:0:
288,236,134665,1,8,0:0:0:0:
364,184,134879,2,0,P|320:126|339:57,1,150.000000596046
412,108,135522,2,0,P|455:165|437:235,1,150.000000596046,0|0,2:0|2:0,0:0:0:0:
364,184,136165,1,0,0:0:0:0:
288,236,136379,2,0,B|248:232|220:204|220:204|176:208|144:244,1,150.000000596046,12|4,0:0|0:0,0:0:0:0:
304,332,137236,6,0,B|376:356|376:356|432:304,1,150.000000596046,4|4,0:0|0:0,0:0:0:0:
428,216,137879,1,0,0:0:0:0:
372,144,138093,2,0,L|432:92,1,75.000000298023,12|0,0:0|0:0,0:0:0:0:
272,152,138522,2,0,L|312:80,1,75.000000298023,4|0,0:0|0:0,0:0:0:0:
180,192,138950,2,0,L|180:116,1,75.000000298023,4|0,0:0|0:0,0:0:0:0:
148,288,139379,2,0,L|91:238,1,75.000000298023,4|0,0:0|0:0,0:0:0:0:
228,264,139808,2,0,L|272:248,3,37.5000001490115,8|0|0|0,0:0|0:0|0:0|0:0,0:0:0:0:
304,264,140236,2,0,L|328:216,3,37.5000001490115,8|8|8|8,0:0|0:0|0:0|0:0,0:0:0:0:
356,204,140665,6,0,P|396:220|420:260,1,75.000000298023,4|0,0:0|0:0,0:0:0:0:
278,197,141093,2,0,P|315:136|388:132,1,150.000000596046,4|8,0:0|0:0,0:0:0:0:
460,184,141736,1,0,0:0:0:0:
380,228,141950,1,0,2:0:0:0:
400,316,142165,1,0,0:0:0:0:
312,292,142379,2,0,P|272:244|187:240,1,150.000000596046,0|0,2:0|2:0,0:0:0:0:
108,280,143022,2,0,L|108:204,1,75.000000298023,0|12,0:0|0:0,0:0:0:0:
256,92,143665,1,4,0:0:0:0:
404,204,144093,6,0,L|404:280,2,75.000000298023,4|0|4,0:0|0:0|0:0,0:0:0:0:
320,44,144950,1,12,0:0:0:0:
320,136,145165,2,0,P|256:169|192:136,1,150.000000596046
192,44,145808,1,0,2:0:0:0:
24,108,146236,1,4,0:0:0:0:
80,176,146450,1,0,0:0:0:0:
112,260,146665,1,12,0:0:0:0:
192,204,146879,1,0,0:0:0:0:
224,236,146986,1,0,0:0:0:0:
268,232,147093,2,0,P|281:213|304:200,3,37.5000001490115,8|8|8|8,0:0|0:0|0:0|0:0,0:0:0:0:
320,168,147522,6,4,P|304:132|276:96,1,75.000000298023
192,100,147950,2,0,P|220:40|304:16,1,150.000000596046,4|8,0:0|0:0,0:0:0:0:
376,52,148593,1,0,0:0:0:0:
420,133,148808,2,0,P|448:109|463:75,1,75.000000298023,0|0,2:0|0:0,0:0:0:0:
396,136,149236,2,0,P|338:90|266:101,1,150.000000596046,0|0,2:0|2:0,0:0:0:0:
316,180,149879,1,0,0:0:0:0:
365,258,150093,2,0,P|292:269|235:223,1,150.000000596046,12|4,0:0|0:0,0:0:0:0:
19,193,150950,6,0,L|60:256,1,75.000000298023,4|0,0:0|0:0,0:0:0:0:
152,225,151379,2,0,L|152:300,1,75.000000298023,4|0,0:0|0:0,0:0:0:0:
276,272,151808,1,12,0:0:0:0:
240,356,152022,1,0,0:0:0:0:
292,176,152236,1,4,0:0:0:0:
204,200,152450,1,0,0:0:0:0:
140,72,152665,2,0,L|216:100,1,75.000000298023,4|0,0:0|0:0,0:0:0:0:
372,72,153093,2,0,L|296:100,1,75.000000298023,4|0,0:0|0:0,0:0:0:0:
128,160,153522,2,0,P|124:179|122:197,3,37.5000001490115,0|0|8|8,0:0|0:0|3:0|3:0,0:0:0:0:
96,232,153950,2,0,L|112:272,3,37.5000001490115,2|2|2|2,3:0|3:0|3:0|3:0,3:0:0:0:
96,312,154379,5,4,0:0:0:0:
216,64,160379,6,0,L|172:84,3,37.5000001490115,8|8|8|8,0:0|0:0|0:0|0:0,0:0:0:0:
156,116,160808,2,0,L|112:112,3,37.5000001490115,8|8|8|8,0:0|0:0|0:0|0:0,0:0:0:0:
76,104,161236,6,0,P|44:148|40:176,1,75.000000298023,0|8,0:0|0:0,0:0:0:0:
108,228,161665,2,0,L|152:212,2,37.5000001490115,0|8|0,0:0|0:0|0:0,0:0:0:0:
56,300,162093,1,8,0:0:0:0:
144,328,162308,1,0,0:0:0:0:
200,260,162522,2,0,L|232:220,2,37.5000001490115,0|0|8,0:0|0:0|0:0,0:0:0:0:
236,344,162950,6,0,P|272:320|288:280,1,75.000000298023,0|8,0:0|0:0,0:0:0:0:
344,224,163379,2,0,L|388:212,3,37.5000001490115,0|8|0|0,0:0|0:0|0:0|0:0,0:0:0:0:
420,192,163808,1,8,0:0:0:0:
388,108,164022,1,0,0:0:0:0:
448,44,164236,2,0,L|488:40,2,37.5000001490115,8|0|0,0:0|2:0|2:0,0:0:0:0:
356,40,164665,6,0,P|320:72|316:116,1,75.000000298023,4|8,0:0|0:0,0:0:0:0:
320,188,165093,2,0,L|276:212,3,37.5000001490115,0|8|0|0,0:0|0:0|0:0|0:0,0:0:0:0:
268,248,165522,2,0,L|220:240,2,37.5000001490115,8|0|0,0:0|0:0|0:0,0:0:0:0:
260,336,165950,2,0,L|308:324,2,37.5000001490115,0|0|8,0:0|0:0|0:0,0:0:0:0:
172,344,166379,6,0,P|168:308|188:256,1,75.000000298023,0|8,0:0|0:0,0:0:0:0:
220,192,166808,1,0,0:0:0:0:
236,104,167022,1,0,0:0:0:0:
324,84,167236,2,0,L|376:88,3,37.5000001490115,8|8|8|8,0:0|0:0|0:0|0:0,0:0:0:0:
408,88,167665,2,0,L|452:120,3,37.5000001490115,4|0|0|0,0:0|0:0|0:0|0:0,0:0:0:0:
464,148,168093,5,0,0:0:0:0:
444,188,168200,1,0,0:0:0:0:
444,236,168308,2,0,P|424:284|372:312,2,112.500000447034,0|0|8,0:0|0:0|0:0,0:0:0:0:
320,188,169272,2,0,L|204:148,1,112.500000447034
124,144,169808,5,0,2:0:0:0:
160,228,170022,2,0,P|112:236|52:200,1,112.500000447034
76,72,170665,2,0,L|44:32,2,37.5000001490115,8|0|0,0:0|0:0|2:0,0:0:0:0:
164,72,171093,2,0,L|196:24,2,37.5000001490115,8|0|0,0:0|0:0|2:0,0:0:0:0:
196,156,171522,5,4,0:0:0:0:
220,196,171629,1,0,0:0:0:0:
260,216,171736,2,0,P|268:271|252:324,1,112.500000447034
276,136,172379,2,0,P|320:106|388:106,1,112.500000447034,12|0,0:0|0:0,0:0:0:0:
340,232,173022,1,0,0:0:0:0:
376,104,173236,5,4,0:0:0:0:
464,112,173450,2,0,P|444:164|396:192,1,112.500000447034
264,172,174093,1,8,0:0:0:0:
220,184,174200,1,8,0:0:0:0:
196,220,174308,1,8,0:0:0:0:
200,264,174415,1,8,0:0:0:0:
180,304,174522,1,8,0:0:0:0:
144,328,174629,1,8,0:0:0:0:
100,328,174736,1,8,0:0:0:0:
64,300,174843,1,8,0:0:0:0:
56,256,174950,6,0,L|40:212,3,37.5000001490115,4|0|8|0,0:0|0:0|0:0|0:0,0:0:0:0:
76,188,175379,2,0,L|96:132,3,37.5000001490115,4|0|8|0,0:0|0:0|0:0|0:0,0:0:0:0:
132,148,175808,2,0,L|168:120,3,37.5000001490115,4|0|8|0,0:0|0:0|0:0|0:0,0:0:0:0:
196,156,176236,2,0,L|244:152,3,37.5000001490115,4|0|8|0,0:0|0:0|0:0|0:0,0:0:0:0:
276,172,176665,6,0,L|320:132,2,37.5000001490115,4|0|8,0:0|0:0|0:0,0:0:0:0:
232,240,177093,2,0,P|204:276|200:312,1,75.000000298023,4|8,0:0|0:0,0:0:0:0:
288,308,177522,2,0,L|324:324,2,37.5000001490115,4|0|8,0:0|0:0|0:0,0:0:0:0:
372,272,177950,2,0,L|400:316,2,37.5000001490115,4|0|8,0:0|0:0|0:0,0:0:0:0:
320,196,178379,5,4,0:0:0:0:
332,152,178486,1,0,0:0:0:0:
360,116,178593,1,8,0:0:0:0:
328,32,178808,2,0,L|244:56,1,75.000000298023,4|8,0:0|0:0,0:0:0:0:
168,40,179236,1,4,0:0:0:0:
168,40,179343,1,0,0:0:0:0:
168,40,179450,1,8,0:0:0:0:
192,128,179665,2,0,P|168:168|136:192,1,75.000000298023,4|8,0:0|0:0,0:0:0:0:
56,188,180093,6,0,L|24:224,3,37.5000001490115,4|0|8|0,0:0|0:0|0:0|0:0,0:0:0:0:
44,260,180522,2,0,L|28:304,2,37.5000001490115,4|0|8,0:0|0:0|0:0,0:0:0:0:
124,300,180950,2,0,P|152:324|192:340,1,75.000000298023,4|8,0:0|0:0,0:0:0:0:
124,220,181379,2,0,P|84:196|44:188,1,75.000000298023,4|8,0:0|0:0,0:0:0:0:
132,132,181808,5,4,0:0:0:0:
176,120,181915,1,0,0:0:0:0:
200,84,182022,2,0,P|236:60|280:56,2,75.000000298023,8|4|8,0:0|0:0|0:0,0:0:0:0:
224,172,182665,2,0,L|212:212,2,37.5000001490115,4|0|8,0:0|0:0|0:0,0:0:0:0:
240,280,183093,2,0,L|184:304,2,37.5000001490115,4|0|8,0:0|0:0|0:0,0:0:0:0:
144,352,183522,6,0,B|104:352|72:328|72:328|104:300|103:263|103:263|68:240|60:204,1,225.000000894069,4|8,0:0|0:0,0:0:0:0:
92,120,184379,2,0,L|136:96,3,37.5000001490115,4|0|8|0,0:0|0:0|0:0|0:0,0:0:0:0:
168,120,184808,2,0,L|192:72,3,37.5000001490115,4|0|8|0,0:0|0:0|0:0|0:0,0:0:0:0:
208,48,185236,6,0,P|244:36|300:36,1,75.000000298023,4|8,0:0|0:0,0:0:0:0:
360,80,185665,1,4,0:0:0:0:
372,124,185772,1,0,0:0:0:0:
404,152,185879,1,8,0:0:0:0:
488,124,186093,2,0,L|480:84,2,37.5000001490115,4|0|8,0:0|0:0|0:0,0:0:0:0:
460,212,186522,2,0,P|424:232|381:231,1,75.000000298023,4|8,0:0|0:0,0:0:0:0:
312,188,186950,5,4,0:0:0:0:
268,192,187058,1,0,0:0:0:0:
236,224,187165,1,8,0:0:0:0:
216,136,187379,2,0,P|200:100|160:72,2,75.000000298023,4|8|4,0:0|0:0|0:0,0:0:0:0:
152,196,188022,2,0,L|100:216,5,37.5000001490115,8|8|8|8|8|8,0:0|0:0|0:0|0:0|0:0|0:0,0:0:0:0:
88,244,188665,6,0,P|103:281|100:324,1,75.000000298023,4|8,0:0|0:0,0:0:0:0:
136,344,188986,2,8,P|184:332|248:336,1,112.500000447034,0|8,0:0|0:0,0:0:0:0:
336,336,189522,1,0,0:0:0:0:
312,252,189736,1,8,0:0:0:0:
308,208,189843,2,0,P|316:156|356:100,1,112.500000447034,0|8,0:0|0:0,0:0:0:0:
428,64,190379,6,0,P|392:28|360:16,1,75.000000298023,0|8,0:0|0:0,0:0:0:0:
324,24,190700,2,0,P|272:68|216:68,1,112.500000447034,0|8,0:0|0:0,0:0:0:0:
152,28,191236,1,0,0:0:0:0:
76,76,191450,1,8,0:0:0:0:
52,116,191558,2,0,P|56:152|76:196,1,75.000000298023
112,204,191879,1,8,0:0:0:0:
200,212,192093,5,0,0:0:0:0:
276,164,192308,2,0,L|312:172,1,37.5000001490115,8|0,0:0|0:0,0:0:0:0:
260,280,192736,1,8,0:0:0:0:
200,212,192950,2,0,P|188:180|196:128,1,75.000000298023,0|8,0:0|0:0,0:0:0:0:
196,96,193272,2,0,P|156:72|84:68,1,112.500000447034,0|8,0:0|0:0,0:0:0:0:
32,132,193808,5,0,0:0:0:0:
28,220,194022,1,8,0:0:0:0:
28,220,194129,2,0,P|44:272|100:300,1,112.500000447034,0|8,0:0|0:0,0:0:0:0:
180,276,194665,1,0,0:0:0:0:
108,220,194879,1,8,0:0:0:0:
192,188,195093,1,0,0:0:0:0:
236,200,195200,1,0,0:0:0:0:
260,240,195308,1,8,0:0:0:0:
296,324,195522,6,0,L|372:292,1,75.000000298023,0|8,0:0|0:0,0:0:0:0:
396,260,195843,1,0,0:0:0:0:
308,156,196165,1,8,0:0:0:0:
424,192,196379,2,0,P|452:212|468:264,1,75.000000298023,0|8,0:0|0:0,0:0:0:0:
464,292,196700,1,0,0:0:0:0:
376,188,197022,1,8,0:0:0:0:
368,100,197236,6,0,P|352:64|308:32,1,75.000000298023,0|8,0:0|0:0,0:0:0:0:
280,44,197558,2,0,P|244:72|176:76,1,112.500000447034,0|8,0:0|0:0,0:0:0:0:
92,52,198093,2,0,P|76:80|72:128,1,75.000000298023,0|8,0:0|0:0,0:0:0:0:
84,164,198415,1,8,0:0:0:0:
120,192,198522,1,8,0:0:0:0:
148,228,198629,1,8,0:0:0:0:
160,272,198736,1,8,0:0:0:0:
160,316,198843,1,8,0:0:0:0:
140,356,198950,5,8,0:0:0:0:
256,344,199808,6,0,P|328:356|376:320,2,112.500000447034,4|0|0,0:0|0:0|0:0,0:0:0:0:
188,280,200665,1,0,2:0:0:0:
236,204,200879,2,0,P|182:188|131:209,2,112.500000447034,0|0|12,0:0|0:0|0:0,0:0:0:0:
288,276,201736,1,0,0:0:0:0:
376,264,201950,2,0,L|404:224,2,37.5000001490115,12|0|0,0:0|0:0|0:0,0:0:0:0:
344,348,202379,5,4,0:0:0:0:
388,352,202486,1,0,0:0:0:0:
432,336,202593,1,0,0:0:0:0:
476,256,202808,1,0,0:0:0:0:
484,212,202915,2,0,P|452:156|392:144,1,112.500000447034,0|12,0:0|0:0,0:0:0:0:
280,180,203558,1,0,0:0:0:0:
408,220,203879,1,0,0:0:0:0:
328,256,204093,5,0,2:0:0:0:
360,148,204308,2,0,P|408:132|465:153,1,112.500000447034
460,300,204950,2,0,L|436:340,3,37.5000001490115,8|8|8|8,0:0|0:0|0:0|0:0,0:0:0:0:
400,352,205379,2,0,L|360:340,3,37.5000001490115
344,300,205808,6,0,P|288:288|248:304,1,75.000000298023,4|0,0:0|0:0,0:0:0:0:
196,344,206236,1,4,0:0:0:0:
120,292,206450,1,0,0:0:0:0:
81,209,206665,2,0,P|40:245|28:300,2,112.500000447034,12|0|0,0:0|0:0|0:0,0:0:0:0:
168,184,207522,5,0,2:0:0:0:
216,256,207736,2,0,P|176:292|104:284,1,112.500000447034
60,172,208379,2,0,L|24:88,1,75.000000298023,12|0,0:0|0:0,0:0:0:0:
152,24,208808,2,0,L|120:100,1,75.000000298023,12|0,0:0|0:0,0:0:0:0:
248,148,209236,6,0,L|229:115,2,37.5000001490115,4|0|0,0:0|0:0|0:0,0:0:0:0:
308,216,209665,2,0,B|323:253|323:253|315:319|384:354,1,150.000000596046,4|8,0:0|0:0,0:0:0:0:
412,264,210308,1,0,0:0:0:0:
388,222,210415,2,0,P|374:167|322:136,1,112.500000447034
396,76,210950,5,0,2:0:0:0:
304,72,211165,2,0,P|264:104|272:176,1,112.500000447034
388,222,211808,2,0,P|428:264|420:328,1,112.500000447034,8|4,0:0|0:0,0:0:0:0:
309,311,212450,2,0,L|344:296,2,37.5000001490115,4|0|4,0:0|0:0|0:0,0:0:0:0:
108,208,226379,5,10,0:0:0:0:
204,176,226593,2,0,L|176:248,1,75.000000298023,0|0,1:0|1:0,0:0:0:0:
204,100,227022,1,2,0:0:0:0:
96,72,227236,2,0,L|144:152,1,75.000000298023,0|0,1:0|1:0,0:0:0:0:
163,34,227665,1,8,0:0:0:0:
272,138,227879,1,2,3:0:0:0:
176,256,228093,6,0,P|208:284|260:296,1,75.000000298023,4|0,0:0|0:0,0:0:0:0:
304,236,228522,2,0,P|364:196|440:216,1,150.000000596046,4|12,0:0|0:0,0:0:0:0:
380,284,229165,1,0,0:0:0:0:
304,236,229379,1,0,2:0:0:0:
224,192,229593,2,0,P|212:228|216:264,1,75.000000298023,0|0,0:0|2:0,0:0:0:0:
364,368,230236,1,0,2:0:0:0:
284,328,230450,2,0,P|256:352|212:356,1,75.000000298023,0|12,0:0|0:0,0:0:0:0:
80,240,231093,1,4,0:0:0:0:
232,144,231522,6,0,P|264:140|308:120,2,75.000000298023,4|0|4,0:0|0:0|0:0,0:0:0:0:
80,32,232379,1,12,0:0:0:0:
172,47,232593,2,0,P|126:105|128:180,1,150.000000596046
216,176,233236,2,0,P|196:236|112:268,1,150.000000596046,0|4,2:0|0:0,0:0:0:0:
60,196,233879,1,0,0:0:0:0:
93,353,234093,1,12,0:0:0:0:
36,284,234308,1,0,0:0:0:0:
184,348,234522,2,0,L|224:356,3,37.5000001490115,8|8|8|8,0:0|0:0|0:0|0:0,0:0:0:0:
264,344,234950,6,0,P|252:304|224:268,1,75.000000298023,4|0,0:0|0:0,0:0:0:0:
252,184,235379,2,0,P|324:208|384:168,1,150.000000596046,4|8,0:0|0:0,0:0:0:0:
392,80,236022,1,0,0:0:0:0:
303,56,236236,2,0,P|299:92|312:127,1,75.000000298023,0|0,2:0|0:0,0:0:0:0:
382,171,236665,2,0,P|440:184|480:264,1,150.000000596046,0|0,2:0|2:0,0:0:0:0:
392,260,237308,1,0,0:0:0:0:
304,260,237522,2,0,P|332:326|402:348,1,150.000000596046,12|4,0:0|0:0,0:0:0:0:
228,300,238379,6,0,L|192:232,1,75.000000298023,4|0,0:0|0:0,0:0:0:0:
108,200,238808,1,4,0:0:0:0:
140,116,239022,1,0,0:0:0:0:
228,136,239236,2,0,P|272:128|300:108,1,75.000000298023,12|0,0:0|0:0,0:0:0:0:
344,36,239665,2,0,L|436:44,1,75.000000298023,4|0,0:0|0:0,0:0:0:0:
380,124,240093,1,4,0:0:0:0:
452,180,240308,1,0,0:0:0:0:
344,208,240522,2,0,P|344:248|328:284,1,75.000000298023,4|0,0:0|0:0,0:0:0:0:
221,247,240950,2,0,L|256:232,3,37.5000001490115,8|0|0|0,0:0|0:0|0:0|0:0,0:0:0:0:
276,192,241379,1,8,0:0:0:0:
280,148,241486,1,8,0:0:0:0:
268,104,241593,1,8,0:0:0:0:
240,68,241700,1,8,0:0:0:0:
200,88,241808,6,0,P|176:112|120:120,1,75.000000298023,4|0,0:0|0:0,0:0:0:0:
47,138,242236,2,0,P|64:67|128:32,1,150.000000596046,4|12,0:0|0:0,0:0:0:0:
138,122,242879,1,0,0:0:0:0:
108,212,243093,2,0,P|78:229|27:230,2,75.000000298023,0|0|0,2:0|0:0|2:0,0:0:0:0:
256,96,243950,1,0,2:0:0:0:
336,136,244165,1,0,0:0:0:0:
260,184,244379,2,0,P|312:224|400:200,1,150.000000596046,12|4,0:0|0:0,0:0:0:0:
176,272,245236,6,0,P|160:240|176:192,1,75.000000298023,4|0,0:0|0:0,0:0:0:0:
256,304,245665,2,0,P|212:352|124:341,1,150.000000596046,4|12,0:0|0:0,0:0:0:0:
80,272,246308,1,0,0:0:0:0:
236,228,246522,2,0,P|275:226|317:256,1,75.000000298023,0|0,2:0|0:0,0:0:0:0:
364,312,246950,6,0,P|440:300|472:228,1,150.000000596046,0|4,2:0|0:0,0:0:0:0:
436,156,247593,1,0,0:0:0:0:
348,180,247808,2,0,P|362:214|392:236,1,75.000000298023,12|0,0:0|0:0,0:0:0:0:
272,232,248236,2,0,P|264:188|240:164,1,75.000000298023,8|8,0:0|0:0,0:0:0:0:
152,164,248665,5,4,0:0:0:0:
80,112,248879,1,0,0:0:0:0:
68,200,249093,1,4,0:0:0:0:
248,224,249522,2,0,L|264:140,1,75.000000298023,12|0,0:0|0:0,0:0:0:0:
344,116,249950,1,0,2:0:0:0:
272,60,250165,1,0,0:0:0:0:
332,192,250379,2,0,P|403:166|419:98,1,150.000000596046,0|0,2:0|2:0,0:0:0:0:
360,32,251022,1,0,0:0:0:0:
272,60,251236,2,0,B|296:76|292:120|292:120|252:144|248:200,1,150.000000596046,12|4,0:0|0:0,0:0:0:0:
112,88,252093,6,0,L|188:124,1,75.000000298023,4|0,0:0|0:0,0:0:0:0:
256,168,252522,1,4,0:0:0:0:
256,76,252736,1,0,0:0:0:0:
404,188,252950,2,0,L|336:220,1,75.000000298023,12|0,0:0|0:0,0:0:0:0:
256,263,253379,1,4,0:0:0:0:
256,168,253593,1,0,0:0:0:0:
112,280,253808,6,0,L|179:312,1,75.000000298023,4|0,0:0|0:0,0:0:0:0:
256,348,254237,1,4,0:0:0:0:
256,263,254451,1,0,0:0:0:0:
312,188,254665,2,0,L|376:244,1,75.000000298023,8|0,0:0|0:0,0:0:0:0:
200,188,255093,2,0,L|136:244,1,75.000000298023,8|0,0:0|0:0,0:0:0:0:
220,112,255522,6,0,P|256:120|292:112,1,75.000000298023,4|0,0:0|0:0,0:0:0:0:
452,56,255950,1,12,0:0:0:0:
408,132,256165,1,0,0:0:0:0:
364,56,256379,5,4,0:0:0:0:
496,132,256593,1,0,0:0:0:0:
364,204,256808,1,12,0:0:0:0:
364,56,257022,1,0,0:0:0:0:
452,204,257236,6,0,P|445:240|423:270,1,75.000000298023,4|0,0:0|0:0,0:0:0:0:
312,272,257665,2,0,P|285:246|273:211,1,75.000000298023,12|0,0:0|0:0,0:0:0:0:
240,128,258093,2,0,P|196:64|120:60,1,150.000000596046,4|12,0:0|0:0,0:0:0:0:
152,144,258736,1,0,0:0:0:0:
84,200,258950,6,0,P|67:160|70:108,1,75.000000298023,4|0,0:0|0:0,0:0:0:0:
165,91,259379,1,12,0:0:0:0:
253,97,259593,1,0,0:0:0:0:
120,20,259808,1,4,0:0:0:0:
203,174,260022,1,0,0:0:0:0:
296,20,260236,2,0,L|204:20,1,75.000000298023,12|0,0:0|0:0,0:0:0:0:
253,97,260665,6,0,L|304:164,1,75.000000298023,4|0,0:0|0:0,0:0:0:0:
203,174,261093,2,0,L|168:244,1,75.000000298023,12|0,0:0|0:0,0:0:0:0:
208,324,261522,1,4,0:0:0:0:
372,292,261736,1,8,0:0:0:0:
296,344,261950,1,12,0:0:0:0:
368,200,262165,1,0,0:0:0:0:
468,240,262379,6,0,L|448:164,1,75.000000298023,4|0,0:0|0:0,0:0:0:0:
448,324,262808,1,12,0:0:0:0:
468,240,263022,1,0,0:0:0:0:
292,136,263236,1,4,0:0:0:0:
324,56,263450,1,0,0:0:0:0:
307,220,263665,2,0,L|371:272,1,75.000000298023,12|0,0:0|0:0,0:0:0:0:
371,177,264093,5,4,0:0:0:0:
232,192,264308,2,0,P|228:240|248:272,1,75.000000298023,0|12,0:0|0:0,0:0:0:0:
324,300,264736,1,0,0:0:0:0:
252,352,264950,2,0,B|212:364|172:344|172:344|160:316|128:292,1,150.000000596046,4|12,0:0|0:0,0:0:0:0:
40,304,265593,1,0,0:0:0:0:
68,220,265808,6,0,P|104:208|132:177,1,75.000000298023,4|0,0:0|0:0,0:0:0:0:
140,96,266236,1,12,0:0:0:0:
200,240,266450,1,0,0:0:0:0:
212,152,266665,1,4,0:0:0:0:
56,132,266879,1,0,0:0:0:0:
220,64,267093,2,0,L|280:8,1,75.000000298023,12|0,0:0|0:0,0:0:0:0:
356,48,267522,5,4,0:0:0:0:
408,120,267736,1,0,0:0:0:0:
292,192,267950,2,0,P|292:155|312:120,1,75.000000298023,12|0,0:0|0:0,0:0:0:0:
348,252,268379,2,0,P|312:272|260:268,1,75.000000298023,8|2,3:0|3:0,0:0:0:0:
372,172,268808,2,0,P|400:184|428:228,1,75.000000298023,2|8,3:0|0:0,0:0:0:0:
324,352,269236,5,4,0:0:0:0:
216,224,269450,1,4,0:0:0:0:
256,192,269558,12,0,270736,2:0:0:0:
