osu file format v14

[General]
AudioFilename: 06 Isara.mp3
AudioLeadIn: 0
PreviewTime: 70554
Countdown: 0
SampleSet: Normal
StackLeniency: 0.7
Mode: 0
LetterboxInBreaks: 0
WidescreenStoryboard: 0

[Editor]
DistanceSpacing: 1
BeatDivisor: 4
GridSize: 4
TimelineZoom: 1

[Metadata]
Title:Isara
TitleUnicode:Isara
Artist:Eluveitie
ArtistUnicode:Eluveitie
Creator:DexFrild
Version:Beginner
Source:
Tags:Elu everything remains as it never was 2010 2015 switzerland suisse folk melodic pagan celtic metal soft rock instrumental chrigel glanzmann meri tadic merlin sutter rafael salzmann ivo henzi anna murphy kay brem patrick kistler mandola whistles pipes gaita acoustic guitar bodhran harp violin hurdy gurdy
BeatmapID:725724
BeatmapSetID:326121

[Difficulty]
HPDrainRate:2
CircleSize:3
OverallDifficulty:2
ApproachRate:3
SliderMultiplier:1.6
SliderTickRate:2

[Events]
//Background and Video events
0,0,"Isara1366x768.png",0,0
//Break Periods
2,62504,69844
//Storyboard Layer 0 (Background)
//Storyboard Layer 1 (Fail)
//Storyboard Layer 2 (Pass)
//Storyboard Layer 3 (Foreground)
//Storyboard Sound Samples

[TimingPoints]
5304,750,4,2,1,60,1,0
62304,-100,4,2,1,10,0,0
71284,750,4,1,1,60,1,1
71284,-100,4,1,1,60,0,1
72034,-100,4,1,1,60,0,0
119284,-100,4,1,1,60,0,1
142909,-100,4,1,1,20,0,1
143284,-100,4,1,1,60,0,0
146659,-100,4,1,1,15,0,0

[Colours]
Combo1 : 119,108,49
Combo2 : 0,119,119
Combo3 : 35,68,167
Combo4 : 91,83,77
SliderBorder : 200,200,200

[HitObjects]
80,200,11304,6,0,B|104:169|104:124|104:124|144:128|200:112,1,160,2|0,0:0|0:0,0:0:0:0:
256,84,12429,1,0,0:0:0:0:
329,116,12804,2,0,B|368:128|408:124|408:124|408:169|432:200,1,160,2|0,0:0|0:0,0:0:0:0:
380,260,13929,1,0,0:0:0:0:
356,336,14304,6,0,L|252:344,1,80,2|0,0:0|0:0,0:0:0:0:
236,272,15054,2,0,L|160:316,1,80
96,348,15804,1,2,0:0:0:0:
36,296,16179,1,0,0:0:0:0:
60,220,16554,2,0,P|64:172|48:124,1,80
48,59,17304,6,0,P|84:40|123:40,1,80,2|0,0:0|0:0,0:0:0:0:
184,96,18054,1,0,0:0:0:0:
216,168,18429,1,0,0:0:0:0:
296,168,18804,1,2,0:0:0:0:
328,96,19179,1,0,0:0:0:0:
388,40,19554,2,0,P|428:41|464:60,1,80
408,120,20304,6,0,L|368:208,1,80,2|0,0:0|0:0,0:0:0:0:
332,260,21054,2,0,P|364:292|408:308,2,80,0|0|2,0:0|0:0|0:0,0:0:0:0:
256,232,22179,1,0,0:0:0:0:
180,260,22554,2,0,P|148:292|104:308,1,80
84,232,23304,6,0,B|86:147|86:147|143:100|143:100|182:132|240:137,1,240,2|0,0:0|0:0,0:0:0:0:
295,134,24804,2,0,B|329:132|368:100|368:100|425:147|425:147|428:232,1,240,2|0,0:0|0:0,0:0:0:0:
356,268,26304,6,0,P|392:304|456:308,2,80,2|0|0,0:0|0:0|0:0,0:0:0:0:
312,204,27429,1,0,0:0:0:0:
232,188,27804,2,0,L|148:248,1,80,2|0,0:0|0:0,0:0:0:0:
116,296,28554,1,0,0:0:0:0:
40,264,28929,1,0,0:0:0:0:
56,184,29304,6,0,B|76:152|72:104|72:104|108:88|136:64|136:64|172:80|216:72,1,240,2|0,0:0|0:0,0:0:0:0:
296,72,30804,2,0,B|340:80|376:64|376:64|404:88|440:104|440:104|436:152|456:184,1,240,2|0,0:0|0:0,0:0:0:0:
428,260,32304,6,0,L|356:312,1,80,2|0,0:0|0:0,0:0:0:0:
312,244,33054,2,0,L|264:320,1,80
200,268,33804,2,0,L|180:356,1,80,2|0,0:0|0:0,0:0:0:0:
104,344,34554,1,0,0:0:0:0:
48,288,34929,1,0,0:0:0:0:
96,224,35304,6,0,P|128:180|124:136,1,80,2|0,0:0|0:0,0:0:0:0:
88,88,36054,1,0,0:0:0:0:
156,44,36429,1,0,0:0:0:0:
236,56,36804,2,0,L|316:88,2,80,2|0|0,0:0|0:0|0:0,0:0:0:0:
196,124,37929,1,0,0:0:0:0:
180,204,38304,6,0,P|228:252|256:264,1,80,2|0,0:0|0:0,0:0:0:0:
316,280,39054,2,0,B|360:284|392:308|392:308|400:272|428:240,1,160,0|2,0:0|0:0,0:0:0:0:
476,176,40179,1,0,0:0:0:0:
480,96,40554,2,0,P|432:68|392:64,1,80
328,75,41304,6,0,B|336:116|292:140|292:140|212:140|212:140|173:145|149:189,1,240,2|0,0:0|0:0,0:0:0:0:
225,219,42804,2,0,P|253:251|273:303,1,80,2|0,0:0|0:0,0:0:0:0:
336,328,43554,1,0,0:0:0:0:
412,304,43929,1,0,0:0:0:0:
412,224,44304,6,0,P|436:176|476:152,2,80,2|0|0,0:0|0:0|0:0,0:0:0:0:
412,304,45429,1,0,0:0:0:0:
336,328,45804,2,0,P|284:332|240:324,2,80,2|0|0,0:0|0:0|0:0,0:0:0:0:
412,304,46929,1,0,0:0:0:0:
372,236,47304,6,0,L|288:172,1,80,2|0,0:0|0:0,0:0:0:0:
232,164,48054,1,0,0:0:0:0:
208,240,48429,1,0,0:0:0:0:
128,252,48804,2,0,L|44:188,1,80,2|0,0:0|0:0,0:0:0:0:
52,124,49554,1,0,0:0:0:0:
104,64,49929,1,0,0:0:0:0:
184,60,50304,6,0,P|260:72|340:52,2,160,2|0|2,0:0|0:0|0:0,0:0:0:0:
108,80,52179,1,0,0:0:0:0:
56,140,52554,2,0,P|60:196|76:236,1,80
140,247,53304,6,0,P|215:223|291:242,1,160,2|0,0:0|0:0,0:0:0:0:
348,300,54429,1,0,0:0:0:0:
412,348,54804,2,0,P|468:284|480:208,1,160,2|0,0:0|0:0,0:0:0:0:
428,152,55929,1,0,0:0:0:0:
364,104,56304,6,0,P|312:104|272:88,1,80,2|0,0:0|0:0,0:0:0:0:
236,156,57054,2,0,P|184:104|176:80,1,80,2|0,0:0|0:0,0:0:0:0:
116,56,57804,2,0,P|92:108|88:144,1,80,2|0,0:0|0:0,0:0:0:0:
16,168,58554,2,0,P|44:220|72:240,1,80,2|0,0:0|0:0,0:0:0:0:
256,192,59304,12,0,62304,0:0:0:0:
260,60,71284,6,0,P|336:104|316:192,1,160,4|8,0:0|0:0,0:0:0:0:
176,184,72784,2,0,P|155:271|220:316,1,160,0|8,0:0|0:0,0:0:0:0:
360,336,74284,6,0,B|392:308|400:268|400:268|368:228|368:188,1,160,0|8,0:0|0:0,0:0:0:0:
416,132,75409,1,0,0:0:0:0:
432,52,75784,2,0,P|352:32|272:68,1,160,0|8,0:0|0:0,0:0:0:0:
176,180,77284,6,0,B|174:216|140:248|140:248|104:260|72:292,2,160,0|8|0,0:0|0:0|0:0,0:0:0:0:
180,100,79159,1,0,0:0:0:0:
112,56,79534,1,8,0:0:0:0:
272,36,80284,6,0,P|351:68|399:137,1,160,0|8,0:0|0:0,0:0:0:0:
260,212,81784,2,0,P|200:228|172:252,1,80
108,232,82534,2,0,P|68:252|8:256,1,80,8|0,0:0|0:0,0:0:0:0:
28,176,83284,6,0,P|56:120|152:76,1,160,0|8,0:0|0:0,0:0:0:0:
200,128,84409,1,0,2:0:0:0:
264,76,84784,2,0,P|328:48|356:48,2,80,0|0|8,0:0|2:0|0:0,0:0:0:0:
296,148,85909,1,0,2:0:0:0:
352,204,86284,6,0,B|368:240|354:283|354:283|324:292|284:324,1,160,0|8,0:0|0:0,0:0:0:0:
208,300,87409,1,0,0:0:0:0:
140,344,87784,2,0,P|64:320|44:240,1,160,0|8,0:0|0:0,0:0:0:0:
144,124,89284,6,0,P|220:144|304:132,1,160,0|8,0:0|0:0,0:0:0:0:
436,52,90784,2,0,P|456:108|456:140,2,80,0|0|8,0:0|0:0|0:0,0:0:0:0:
376,200,92284,6,0,P|376:244|404:308,1,80,0|0,0:0|2:0,0:0:0:0:
320,324,93034,2,0,P|264:304|232:300,1,80,8|0,0:0|2:0,0:0:0:0:
176,344,93784,1,0,2:0:0:0:
108,304,94159,1,0,2:0:0:0:
80,228,94534,2,0,B|92:188|92:188|132:140,1,80,8|2,0:0|3:0,0:0:0:0:
196,140,95284,6,0,B|272:168|272:168|312:160|352:176,2,160,4|8|0,0:0|0:0|0:0,0:0:0:0:
336,64,97534,2,0,P|375:69|423:98,1,80,8|0,0:0|2:0,0:0:0:0:
448,160,98284,6,0,P|428:212|428:252,2,80,0|0|8,0:0|2:0|0:0,0:0:0:0:
492,92,99409,1,0,0:0:0:0:
420,56,99784,2,0,P|340:80|256:64,1,160,0|8,0:0|0:0,0:0:0:0:
104,72,101284,6,0,B|67:146|67:146|95:218,1,160,0|8,0:0|0:0,0:0:0:0:
164,264,102409,1,0,2:0:0:0:
236,228,102784,2,0,P|304:208|344:208,2,80,0|0|8,0:0|0:0|0:0,0:0:0:0:
376,304,104284,6,0,P|424:240|416:160,1,160,0|8,0:0|0:0,0:0:0:0:
304,52,105784,2,0,B|265:41|265:41|226:45,1,80
256,120,106534,2,0,B|217:124|217:124|178:113,1,80,8|0,0:0|0:0,0:0:0:0:
104,84,107284,6,0,P|60:160|64:240,1,160,4|8,0:0|0:0,0:0:0:0:
128,272,108409,1,0,2:0:0:0:
204,252,108784,2,0,B|268:209|268:209|308:228|358:200,1,160,0|8,0:0|0:0,0:0:0:0:
304,136,109909,1,0,2:0:0:0:
364,84,110284,6,0,B|440:104|440:104|488:172,2,160,0|8|0,0:0|0:0|0:0,0:0:0:0:
284,68,112159,1,0,2:0:0:0:
204,72,112534,2,0,P|172:96|112:108,1,80,8|0,0:0|2:0,0:0:0:0:
72,156,113284,6,0,P|68:236|112:300,1,160,0|8,0:0|0:0,0:0:0:0:
192,288,114409,1,0,2:0:0:0:
256,240,114784,1,0,0:0:0:0:
320,288,115159,1,0,0:0:0:0:
400,299,115534,2,0,P|444:240|448:216,1,80,8|0,0:0|2:0,0:0:0:0:
452,156,116284,6,0,L|380:104,1,80,0|8,0:0|0:0,0:0:0:0:
308,104,117034,2,0,L|284:156,2,40,8|8|0,0:0|0:0|0:0,0:0:0:0:
260,40,117784,2,0,B|220:40|220:40|184:56,1,80,8|2,0:0|3:0,0:0:0:0:
164,132,118534,1,12,0:0:0:0:
100,176,118909,1,8,0:0:0:0:
48,236,119284,6,0,P|56:296|152:352,1,160,4|8,0:0|0:0,0:0:0:0:
292,328,120784,2,0,P|348:300|384:292,2,80,0|0|8,0:0|0:0|0:0,0:0:0:0:
448,368,122284,6,0,P|474:291|431:208,1,160,0|8,0:0|0:0,0:0:0:0:
368,196,123409,1,0,0:0:0:0:
288,200,123784,2,0,P|260:144|260:108,1,80,0|0,0:0|2:0,0:0:0:0:
280,52,124534,2,0,P|241:40|192:44,1,80,8|0,0:0|2:0,0:0:0:0:
136,84,125284,6,0,B|104:124|76:136|76:136|96:164|100:216,1,160,0|8,0:0|0:0,0:0:0:0:
88,292,126409,1,0,2:0:0:0:
144,348,126784,2,0,P|196:356|232:348,1,80
280,296,127534,1,8,0:0:0:0:
364,160,128284,6,0,P|328:88|256:72,2,160,0|8|0,0:0|0:0|0:0,0:0:0:0:
328,232,130159,1,0,0:0:0:0:
256,268,130534,1,8,0:0:0:0:
184,232,130909,1,0,0:0:0:0:
128,176,131284,6,0,P|88:192|48:236,1,80,4|0,0:0|2:0,0:0:0:0:
92,292,132034,2,0,P|136:312|168:344,1,80,8|0,0:0|2:0,0:0:0:0:
240,348,132784,2,0,P|280:332|320:304,1,80
308,232,133534,1,8,0:0:0:0:
248,82,134284,6,0,P|171:82|130:147,1,160,0|8,0:0|0:0,0:0:0:0:
210,154,135409,1,0,0:0:0:0:
291,161,135784,2,0,P|249:225|171:226,1,160,0|8,0:0|0:0,0:0:0:0:
40,316,137284,6,0,L|132:352,1,80,0|0,0:0|2:0,0:0:0:0:
148,272,138034,2,0,L|224:340,1,80,8|0,0:0|2:0,0:0:0:0:
268,276,138784,1,0,0:0:0:0:
308,344,139159,1,0,0:0:0:0:
384,320,139534,1,8,0:0:0:0:
456,168,140284,6,0,P|404:156|376:128,1,80,4|12,0:0|3:0,0:0:0:0:
376,60,141034,2,0,L|268:40,1,80,12|12,3:0|3:0,0:0:0:0:
214,45,141784,2,0,L|136:60,1,80,14|14,3:0|3:0,0:0:0:0:
127,139,142534,2,0,P|95:162|56:168,1,80,14|4,3:0|0:0,0:0:0:0:
36,244,143284,5,4,0:0:0:0:
256,192,144034,12,0,146659,2:0:0:0:
