osu file format v12

[General]
AudioFilename: 09 - A Rose For Epona.mp3
AudioLeadIn: 0
PreviewTime: 216577
Countdown: 0
SampleSet: Normal
StackLeniency: 0.7
Mode: 0
LetterboxInBreaks: 1
WidescreenStoryboard: 0

[Editor]
DistanceSpacing: 1
BeatDivisor: 4
GridSize: 4
TimelineZoom: 1

[Metadata]
Title:A Rose for Epona
TitleUnicode:A Rose for Epona
Artist:Eluveitie
ArtistUnicode:Eluveitie
Creator:DexFrild
Version:Normal
Source:
Tags:AlexaBM switzerland suisse folk melodic death pagan celtic metal helvetios and touring 2012 chrigel glanzmann meri tadic merlin sutter rafael salzmann ivo henzi anna murphy kay brem patrick kistler mandola whistles pipes gaita acoustic guitar bodhran harp violin hurdy gurdy 2014 rock elu
BeatmapID:371386
BeatmapSetID:140301

[Difficulty]
HPDrainRate:3
CircleSize:3
OverallDifficulty:5
ApproachRate:5
SliderMultiplier:1.7
SliderTickRate:1

[Events]
//Background and Video events
0,0,"ELUVEITIE_BG.jpg",0,0
//Break Periods
2,48590,66577
2,111176,119377
2,192777,210577
//Storyboard Layer 0 (Background)
//Storyboard Layer 1 (Fail)
//Storyboard Layer 2 (Pass)
//Storyboard Layer 3 (Foreground)
//Storyboard Sound Samples
//Background Colour Transformations
3,100,0,0,0

[TimingPoints]
577,600,4,1,1,100,1,0
48577,-100,4,2,1,50,0,0
67777,-100,4,1,1,100,0,0
91777,-100,4,1,1,100,0,1
92377,-100,4,1,2,100,0,1
100177,-100,4,1,1,100,0,0
101377,-100,4,1,1,100,0,1
101977,-100,4,1,2,100,0,1
109777,-100,4,1,1,100,0,1
110977,-100,4,1,1,100,0,0
134977,-100,4,1,1,100,0,1
135577,-100,4,1,2,100,0,1
143377,-100,4,1,1,100,0,0
144577,-100,4,1,1,100,0,1
145177,-100,4,1,2,100,0,1
152977,-100,4,1,1,100,0,1
154177,-100,4,1,1,100,0,0
173377,-100,4,1,1,100,0,1
173977,-100,4,1,2,100,0,1
180577,-100,4,1,2,100,0,0
211777,-100,4,2,2,100,0,0
221377,-100,4,1,1,100,0,1
221977,-100,4,1,2,100,0,1
229777,-100,4,1,1,100,0,0
230977,-100,4,1,1,100,0,1
231577,-100,4,1,2,100,0,1
239377,-100,4,1,1,100,0,0
240577,-100,4,1,1,100,0,1
241177,-100,4,1,2,100,0,1
249577,-100,4,1,1,100,0,1
250177,-100,4,1,1,100,0,0
250777,-100,4,1,2,100,0,0
258577,-100,4,1,1,100,0,0

[Colours]
Combo1 : 187,87,28
Combo2 : 27,176,0
Combo3 : 7,114,184
Combo4 : 148,75,156
SliderBorder : 94,138,72

[HitObjects]
320,256,24577,6,0,P|348:292|400:320,2,85,4|0|8,0:0|0:0|0:0,0:0:0:0:
288,88,25777,2,0,P|352:56|452:96,1,170,0|8,0:0|0:0,0:0:0:0:
496,244,26977,2,0,B|464:276|464:276|404:292,1,85
340,284,27577,1,8,0:0:0:0:
172,276,28177,2,0,B|121:276|104:236|104:236|132:196|108:152,2,170,0|8|0,0:0|0:0|0:0,0:0:0:0:
335,236,29977,6,0,P|331:154|259:116,1,170,8|0,0:0|0:0,0:0:0:0:
260,200,30877,1,0,0:0:0:0:
252,284,31177,2,0,P|184:240|188:156,1,170,8|0,0:0|0:0,0:0:0:0:
332,80,32377,1,8,0:0:0:0:
460,192,32977,2,0,P|432:228|392:256,1,85,8|0,0:0|0:0,0:0:0:0:
328,292,33577,2,4,P|292:316|264:368,2,85,4|0|4,0:0|0:0|0:0,0:0:0:0:
484,228,34777,6,0,P|428:164|336:136,1,170,8|0,0:0|0:0,0:0:0:0:
256,280,35977,1,8,0:0:0:0:
162,136,36577,2,0,P|83:164|28:228,1,170,0|8,0:0|0:0,0:0:0:0:
152,344,37777,2,0,P|208:308|216:284,1,85
298,293,38377,2,0,P|321:328|360:344,1,85,8|0,0:0|0:0,0:0:0:0:
444,324,38977,5,0,0:0:0:0:
464,240,39277,1,0,0:0:0:0:
380,260,39577,2,0,B|355:214|316:208|316:208|304:168|340:128,1,170,8|0,0:0|0:0,0:0:0:0:
496,72,40777,2,0,B|474:32|474:32|436:16,2,85,8|8|0,0:0|0:0|0:0,0:0:0:0:
472,240,41977,1,8,0:0:0:0:
320,316,42577,6,0,B|287:342|242:335|242:335|214:293|175:288|175:288|204:262|204:210|204:210|237:177|283:187,1,340,8|4,0:0|0:0,0:0:0:0:
332,136,67777,6,0,P|256:104|172:144,1,170,0|8,0:0|0:0,0:0:0:0:
28,216,68977,2,0,P|51:251|87:271,2,85,0|0|8,0:0|0:0|0:0,0:0:0:0:
104,64,70177,6,0,B|140:40|140:40|208:48,1,85
256,84,70777,1,8,0:0:0:0:
330,44,71077,2,0,B|372:40|372:40|408:64,2,85
256,84,71977,2,0,B|228:128|256:164|284:208|256:252,1,170,8|0,0:0|0:0,0:0:0:0:
172,248,72877,6,0,P|196:306|237:323,1,85,0|8,0:0|0:0,0:0:0:0:
300,316,73477,2,0,P|331:287|340:247,1,85,0|0,0:0|0:0,0:0:0:0:
364,164,74077,1,0,0:0:0:0:
300,108,74377,1,8,0:0:0:0:
144,48,74977,6,0,P|76:88|72:172,1,170,0|8,0:0|0:0,0:0:0:0:
148,132,75877,2,0,P|145:213|76:256,1,170,0|0,0:0|0:0,0:0:0:0:
20,320,76777,2,8,P|56:340|116:332,1,85
180,308,77377,6,0,B|240:272|248:204|248:204|308:200,1,170,0|8,0:0|0:0,0:0:0:0:
376,216,78277,1,0,0:0:0:0:
460,236,78577,2,0,P|444:156|364:128,1,170,0|8,0:0|0:0,0:0:0:0:
260,252,79777,6,0,P|268:292|260:336,2,85,0|0|8,0:0|0:0|0:0,0:0:0:0:
211,182,80677,1,8,0:0:0:0:
127,190,80977,2,0,P|140:228|182:261,1,85
260,252,81577,1,8,0:0:0:0:
416,188,82177,5,0,0:0:0:0:
408,104,82477,2,0,P|364:120|336:156,1,85,0|8,0:0|0:0,0:0:0:0:
324,232,83077,2,0,P|304:272|268:296,2,85
288,156,83977,1,8,0:0:0:0:
136,76,84577,6,0,B|92:152|136:192|184:228|136:340,2,255,0|0|8,0:0|0:0|0:0,0:0:0:0:
256,192,86977,12,0,90577,0:0:0:0:
380,80,91777,5,4,0:0:0:0:
312,132,92077,1,0,0:0:0:0:
392,164,92377,2,0,P|372:240|284:276,1,170,12|4,0:0|0:0,0:0:0:0:
208,280,93277,2,0,P|216:236|248:204,1,85,0|12,0:0|0:0,0:0:0:0:
368,92,94177,6,0,B|348:48|308:36|308:36|264:48|220:40,1,170,4|12,0:0|0:0,0:0:0:0:
56,64,95377,2,0,P|68:120|88:140,1,85,4|0,0:0|0:0,0:0:0:0:
172,148,95977,1,12,0:0:0:0:
216,220,96277,1,0,0:0:0:0:
156,276,96577,2,0,P|232:304|296:244,1,170,4|12,0:0|0:0,0:0:0:0:
308,168,97477,1,0,0:0:0:0:
348,96,97777,6,0,P|376:124|388:192,1,85,4|0,0:0|0:0,0:0:0:0:
356,244,98377,1,12,0:0:0:0:
200,308,98977,1,4,0:0:0:0:
124,348,99277,2,0,B|104:304|128:264,1,85,0|12,0:0|0:0,0:0:0:0:
152,132,100177,6,0,B|180:100|176:56|176:56|228:56|256:25|256:25|284:56|336:56|336:56|332:104|360:132,1,340,8|4,0:0|0:0,0:0:0:0:
476,256,101977,6,0,P|432:328|340:348,2,170,12|4|12,0:0|0:0|0:0,0:0:0:0:
436,92,103777,2,0,P|400:116|368:156,1,85,4|0,0:0|0:0,0:0:0:0:
364,232,104377,1,12,0:0:0:0:
332,312,104677,2,0,P|296:288|276:240,2,85,0|4|0,0:0|0:0|0:0,0:0:0:0:
416,304,105577,2,0,P|444:272|452:220,1,85,12|0,0:0|0:0,0:0:0:0:
420,152,106177,6,0,B|372:164|340:136|340:136|344:88|292:48,1,170,4|12,0:0|0:0,0:0:0:0:
256,128,107077,1,0,0:0:0:0:
204,60,107377,2,0,B|168:88|172:136|172:136|140:164|92:152,1,170,4|12,0:0|0:0,0:0:0:0:
176,300,108577,1,4,0:0:0:0:
256,324,108877,1,0,0:0:0:0:
336,300,109177,1,12,0:0:0:0:
360,152,109777,6,0,B|332:120|336:76|336:76|284:76|256:108|256:108|228:76|176:76|176:76|188:120|152:152,1,340,8|4,0:0|0:0,0:0:0:0:
364,323,120577,6,0,P|435:282|449:201,1,170,0|8,0:0|0:0,0:0:0:0:
372,168,121477,2,0,P|340:196|296:208,1,85
212,207,122077,2,0,P|171:195|139:167,1,85,0|8,0:0|0:0,0:0:0:0:
256,40,122977,6,0,L|256:132,2,85,0|0|8,0:0|0:0|0:0,0:0:0:0:
340,28,123877,1,0,0:0:0:0:
420,52,124177,2,0,B|400:100|360:108|360:108|328:152|348:208,1,170,0|8,2:0|0:0,0:0:0:0:
400,248,125077,2,0,P|422:209|424:168,1,85
276,88,125977,2,0,P|208:132|216:216,2,170,8|0|8,0:0|0:0|0:0,0:0:0:0:
428,168,127777,6,0,B|424:248|348:264|348:264|340:188|260:160,2,255,0|0|8,0:0|0:0|0:0,0:0:0:0:
256,192,130177,12,0,133777,0:0:0:0:
216,116,134977,5,4,0:0:0:0:
292,76,135277,1,0,0:0:0:0:
372,104,135577,2,0,P|364:196|276:232,2,170,12|4|12,0:0|0:0|0:0,0:0:0:0:
208,64,137377,6,0,B|200:108|152:120|152:120|124:160|148:224,1,170,4|12,0:0|0:0,0:0:0:0:
168,284,138277,1,0,0:0:0:0:
240,332,138577,2,0,P|284:324|340:300,1,85,4|0,0:0|0:0,0:0:0:0:
396,272,139177,1,12,0:0:0:0:
428,192,139477,1,0,0:0:0:0:
344,204,139777,6,0,P|268:176|260:72,1,170,4|12,0:0|0:0,0:0:0:0:
312,36,140677,1,0,0:0:0:0:
392,60,140977,2,0,P|368:100|316:120,2,85,4|0|12,0:0|0:0|0:0,0:0:0:0:
500,192,142177,6,0,B|496:248|468:268|468:268|424:264|384:288,1,170,4|12,0:0|0:0,0:0:0:0:
308,316,143077,1,0,0:0:0:0:
224,336,143377,6,0,B|176:344|146:309|146:309|139:273|98:244|98:244|127:202|120:163|120:163|137:119|200:112,1,340,8|4,0:0|0:0,0:0:0:0:
352,152,145177,6,0,P|384:108|384:64,1,85,12|0,0:0|0:0,0:0:0:0:
312,36,145777,1,4,0:0:0:0:
236,72,146077,1,0,0:0:0:0:
268,152,146377,1,12,0:0:0:0:
408,248,146977,6,4,P|396:328|320:352,1,170,4|12,0:0|0:0,0:0:0:0:
256,296,147877,1,0,0:0:0:0:
192,351,148177,2,4,P|115:327|104:248,1,170,4|12,0:0|0:0,0:0:0:0:
140,172,149077,1,0,0:0:0:0:
224,152,149377,6,0,P|224:192|200:232,2,85,4|0|12,0:0|0:0|0:0,0:0:0:0:
204,68,150277,2,0,P|248:68|288:92,1,85,0|4,0:0|0:0,0:0:0:0:
324,164,150877,1,0,0:0:0:0:
368,92,151177,1,12,0:0:0:0:
492,208,151777,6,0,P|456:288|376:296,1,170,4|12,0:0|0:0,0:0:0:0:
212,288,152977,2,0,P|224:244|256:208,1,85,8|0,0:0|0:0,0:0:0:0:
304,148,153577,2,0,P|328:180|331:231,2,85,8|2|4,3:0|3:0|0:0,3:0:0:0:
148,76,154777,6,0,P|94:137|120:216,1,170,8|0,0:0|0:0,0:0:0:0:
203,234,155677,1,0,0:0:0:0:
258,170,155977,2,0,P|218:151|171:156,1,85,8|0,0:0|0:0,0:0:0:0:
118,214,156577,6,0,P|140:296|220:320,1,170,0|8,0:0|0:0,0:0:0:0:
392,324,157777,1,0,0:0:0:0:
432,248,158077,1,0,0:0:0:0:
444,164,158377,2,0,P|400:168|360:208,1,85,8|0,0:0|0:0,0:0:0:0:
320,260,158977,6,0,P|255:312|175:284,1,170,0|8,0:0|0:0,0:0:0:0:
239,224,159877,1,0,0:0:0:0:
300,164,160177,2,0,P|221:140|159:191,1,170,0|8,0:0|0:0,0:0:0:0:
124,269,161077,1,0,0:0:0:0:
39,268,161377,6,0,P|51:220|83:192,1,85
160,193,161977,1,8,0:0:0:0:
240,161,162277,1,0,0:0:0:0:
244,76,162577,2,0,P|201:82|168:113,1,85,8|0,0:0|0:0,0:0:0:0:
92,145,163177,2,0,P|72:105|76:57,1,85,8|8,0:0|0:0,0:0:0:0:
144,21,163777,5,0,0:0:0:0:
312,32,164377,2,0,P|386:65|384:156,1,170,8|0,0:0|0:0,0:0:0:0:
320,192,165277,1,0,0:0:0:0:
260,252,165577,2,0,P|300:276|356:268,1,85,8|0,0:0|0:0,0:0:0:0:
400,220,166177,6,0,P|388:140|292:112,2,170,0|8|0,0:0|0:0|0:0,0:0:0:0:
364,296,167677,1,0,0:0:0:0:
280,308,167977,1,8,0:0:0:0:
224,244,168277,1,0,0:0:0:0:
252,164,168577,6,8,P|172:176|140:252,1,170
128,336,169477,1,0,0:0:0:0:
64,280,169777,2,8,P|72:184|132:108,1,170
184,80,170677,1,0,0:0:0:0:
268,92,170977,6,0,P|316:84|360:64,2,85,8|0|0,0:0|0:0|0:0,0:0:0:0:
184,80,171877,1,0,0:0:0:0:
184,164,172177,2,0,P|200:208|200:256,2,85,8|8|0,0:0|0:0|3:0,0:0:0:0:
108,124,173077,1,2,3:0:0:0:
24,139,173377,6,0,P|41:180|76:204,1,85,4|0,0:0|0:0,0:0:0:0:
156,192,173977,1,12,0:0:0:0:
240,212,174277,1,0,0:0:0:0:
244,296,174577,2,0,B|288:308|320:268|320:268|316:220|348:188,1,170,4|12,0:0|0:0,0:0:0:0:
404,252,175477,1,0,0:0:0:0:
469,306,175777,6,0,P|487:227|431:169,1,170,4|12,0:0|0:0,0:0:0:0:
352,140,176677,1,0,0:0:0:0:
272,164,176977,1,4,0:0:0:0:
204,112,177277,1,0,0:0:0:0:
160,40,177577,2,0,P|124:80|120:120,1,85,12|0,0:0|0:0,0:0:0:0:
156,188,178177,6,0,P|188:216|204:272,1,85,4|0,0:0|0:0,0:0:0:0:
172,332,178777,1,12,0:0:0:0:
88,344,179077,1,0,0:0:0:0:
32,280,179377,2,0,P|18:199|77:142,1,170,4|8,0:0|0:0,0:0:0:0:
100,224,180277,1,8,3:0:0:0:
140,300,180577,6,0,B|196:304|216:272|216:272|204:224|232:184,1,170,4|12,0:0|0:0,0:0:0:0:
296,240,181477,2,0,P|336:208|352:156,2,85,0|12|0,0:0|0:0|0:0,0:0:0:0:
223,283,182377,2,8,P|253:314|293:325,1,85,12|8,0:0|0:0,0:0:0:0:
372,292,182977,5,4,0:0:0:0:
420,224,183277,1,0,0:0:0:0:
415,139,183577,2,0,P|350:90|270:110,1,170,12|4,0:0|0:0,0:0:0:0:
224,180,184477,2,0,P|194:150|188:108,2,85,0|12|0,0:0|0:0|0:0,0:0:0:0:
292,228,185377,6,0,P|216:264|148:216,1,170,4|12,0:0|0:0,0:0:0:0:
112,144,186277,1,0,0:0:0:0:
32,120,186577,2,0,P|32:168|56:204,1,85,4|0,0:0|0:0,0:0:0:0:
124,244,187177,1,8,0:0:0:0:
184,304,187477,1,8,3:0:0:0:
260,340,187777,6,0,P|304:296|312:260,1,85,4|0,0:0|0:0,0:0:0:0:
332,192,188377,1,12,0:0:0:0:
344,108,188677,2,0,P|361:69|394:43,1,85,0|4,0:0|0:0,0:0:0:0:
480,56,189277,1,0,0:0:0:0:
428,120,189577,2,0,P|444:180|472:208,1,85,12|0,0:0|0:0,0:0:0:0:
256,192,190177,12,4,192577,0:0:0:0:
80,124,211777,6,0,B|100:208|100:208|181:228,1,170,0|8,0:0|0:0,0:0:0:0:
256,188,212677,1,8,0:0:0:0:
330,228,212977,2,0,B|412:208|412:208|432:124,1,170,0|8,0:0|0:0,0:0:0:0:
288,36,214177,6,0,B|260:68|208:56|208:56|156:64|136:120,1,170,0|8,0:0|0:0,0:0:0:0:
120,184,215077,1,8,0:0:0:0:
84,260,215377,2,0,P|48:232|36:188,2,85,0|0|8,0:0|0:0|0:0,0:0:0:0:
252,296,216577,5,0,0:0:0:0:
328,256,216877,1,0,0:0:0:0:
412,236,217177,2,8,P|410:279|389:313,2,85,8|8|0,0:0|0:0|0:0,0:0:0:0:
392,152,218077,1,0,0:0:0:0:
320,108,218377,1,8,0:0:0:0:
156,67,218977,6,0,P|144:108|156:148,1,85
232,188,219577,2,8,P|244:147|232:107,1,85
228,23,220177,2,0,P|310:23|366:83,1,170,0|8,0:0|0:0,0:0:0:0:
428,244,221377,6,0,P|392:269|332:288,1,85,4|0,0:0|0:0,0:0:0:0:
268,272,221977,1,12,0:0:0:0:
196,224,222277,1,0,0:0:0:0:
124,184,222577,2,0,P|112:228|140:284,2,85,4|0|12,0:0|0:0|0:0,0:0:0:0:
216,40,223777,6,0,P|132:41|67:94,1,170,4|12,0:0|0:0,0:0:0:0:
36,176,224677,1,0,0:0:0:0:
52,260,224977,2,0,P|85:281|131:283,1,85,4|0,0:0|0:0,0:0:0:0:
196,222,225577,2,0,P|159:200|117:197,1,85,12|0,0:0|0:0,0:0:0:0:
36,175,226177,6,0,P|55:139|95:118,1,85,4|0,0:0|0:0,0:0:0:0:
176,100,226777,1,12,0:0:0:0:
256,132,227077,1,0,0:0:0:0:
336,100,227377,1,4,0:0:0:0:
418,118,227677,2,0,P|455:138|476:175,1,85,0|12,0:0|0:0,0:0:0:0:
416,332,228577,2,0,P|334:343|271:289,1,170,4|12,0:0|0:0,0:0:0:0:
300,120,229777,6,0,P|340:136|364:176,2,85,8|0|8,0:0|0:0|3:0,0:0:0:0:
216,100,230677,1,2,3:0:0:0:
160,36,230977,1,4,0:0:0:0:
108,204,231577,6,0,P|135:235|175:249,1,85,12|0,0:0|0:0,0:0:0:0:
256,276,232177,1,4,0:0:0:0:
336,249,232477,2,0,P|376:235|404:204,1,85,0|12,0:0|0:0,0:0:0:0:
416,36,233377,5,4,0:0:0:0:
340,76,233677,1,0,0:0:0:0:
300,152,233977,2,0,P|268:188|216:204,1,85,12|0,0:0|0:0,0:0:0:0:
152,176,234577,1,4,0:0:0:0:
133,95,234877,1,0,0:0:0:0:
192,36,235177,2,0,P|212:68|212:120,1,85,12|0,0:0|0:0,0:0:0:0:
236,196,235777,6,0,P|308:236|388:208,1,170,4|12,0:0|0:0,0:0:0:0:
436,140,236677,2,0,P|392:124|344:136,1,85,0|4,0:0|0:0,0:0:0:0:
272,124,237277,1,0,0:0:0:0:
188,112,237577,1,12,0:0:0:0:
20,120,238177,2,4,P|48:200|128:248,1,170,4|12,0:0|0:0,0:0:0:0:
284,208,239377,6,0,B|296:164|260:132|260:132|284:92|268:52|268:52|304:52|352:28|352:28|384:64|432:52,1,340,8|4,0:0|0:0,0:0:0:0:
472,216,241177,6,0,P|470:257|446:291,1,85,12|0,0:0|0:0,0:0:0:0:
364,324,241777,2,0,P|336:292|296:272,1,85,4|0,0:0|0:0,0:0:0:0:
213,272,242377,2,0,P|175:292|148:324,1,85,12|0,0:0|0:0,0:0:0:0:
64,336,242977,5,4,0:0:0:0:
32,256,243277,1,0,0:0:0:0:
68,180,243577,2,0,P|140:140|224:148,2,170,12|4|12,0:0|0:0|0:0,0:0:0:0:
108,344,245377,6,0,P|152:340|200:308,1,85,4|0,0:0|0:0,0:0:0:0:
256,268,245977,1,12,0:0:0:0:
324,320,246277,2,4,P|361:340|404:344,2,85,0|4|0,0:0|0:0|0:0,0:0:0:0:
256,268,247177,2,0,L|256:156,1,85,12|8,0:0|0:0,0:0:0:0:
212,111,247777,6,0,P|181:140|171:181,1,85,4|0,0:0|0:0,0:0:0:0:
104,248,248377,2,0,P|80:172|112:88,1,170,12|12,0:0|0:0,0:0:0:0:
284,44,249577,1,4,0:0:0:0:
352,96,249877,1,0,0:0:0:0:
352,180,250177,5,4,0:0:0:0:
232,300,250777,2,0,P|300:348|392:340,2,170,12|4|12,0:0|0:0|0:0,0:0:0:0:
124,168,252577,6,0,P|84:188|60:220,1,85,4|0,0:0|0:0,0:0:0:0:
60,304,253177,1,12,0:0:0:0:
132,348,253477,1,0,0:0:0:0:
211,324,253777,2,0,P|248:303|269:267,1,85,4|0,0:0|0:0,0:0:0:0:
268,184,254377,2,0,P|312:192|344:224,1,85,12|0,0:0|0:0,0:0:0:0:
372,296,254977,5,4,0:0:0:0:
424,228,255277,1,0,0:0:0:0:
424,144,255577,1,12,0:0:0:0:
372,79,255877,2,0,P|341:106|300:116,1,85,0|4,0:0|0:0,0:0:0:0:
212,116,256477,2,0,P|171:107|140:80,2,85,0|12|8,0:0|0:0|0:0,0:0:0:0:
296,100,257377,6,4,P|276:178|198:202,1,170,4|12,0:0|0:0,0:0:0:0:
112,208,258277,1,0,0:0:0:0:
160,276,258577,2,0,P|208:288|252:280,1,85,8|0,3:0|0:0,0:0:0:0:
320,248,259177,2,0,P|356:212|372:164,2,85,8|2|4,3:0|3:0|0:0,0:0:0:0:
