osu file format v12

[General]
AudioFilename: 09 - A Rose For Epona.mp3
AudioLeadIn: 0
PreviewTime: 216577
Countdown: 0
SampleSet: Normal
StackLeniency: 0.7
Mode: 0
LetterboxInBreaks: 1
WidescreenStoryboard: 0

[Editor]
DistanceSpacing: 1.1
BeatDivisor: 6
GridSize: 4
TimelineZoom: 1.7

[Metadata]
Title:A Rose for Epona
TitleUnicode:A Rose for Epona
Artist:Eluveitie
ArtistUnicode:Eluveitie
Creator:DexFrild
Version:Insane
Source:
Tags:AlexaBM switzerland suisse folk melodic death pagan celtic metal helvetios and touring 2012 chrigel glanzmann meri tadic merlin sutter rafael salzmann ivo henzi anna murphy kay brem patrick kistler mandola whistles pipes gaita acoustic guitar bodhran harp violin hurdy gurdy 2014 rock elu
BeatmapID:350513
BeatmapSetID:140301

[Difficulty]
HPDrainRate:6
CircleSize:4
OverallDifficulty:8
ApproachRate:8
SliderMultiplier:3
SliderTickRate:2

[Events]
//Background and Video events
0,0,"ELUVEITIE_BG.jpg",0,0
//Break Periods
2,192777,211027
//Storyboard Layer 0 (Background)
//Storyboard Layer 1 (Fail)
//Storyboard Layer 2 (Pass)
//Storyboard Layer 3 (Foreground)
//Storyboard Sound Samples
//Background Colour Transformations
3,100,0,0,0

[TimingPoints]
577,600,4,1,1,75,1,0
42577,-100,4,1,1,50,0,0
43777,-100,4,1,1,75,0,0
48577,-100,4,2,2,50,0,0
53077,-100,4,2,2,15,0,0
53152,-100,4,2,2,25,0,0
53227,-100,4,2,2,35,0,0
53302,-100,4,2,2,45,0,0
53377,-100,4,2,2,50,0,0
55327,-100,4,2,2,40,0,0
55477,-100,4,2,2,30,0,0
55627,-100,4,2,2,20,0,0
55777,-100,4,2,2,50,0,0
57727,-100,4,2,2,40,0,0
57877,-100,4,2,2,30,0,0
58027,-100,4,2,2,20,0,0
58177,-100,4,2,2,50,0,0
60127,-100,4,2,2,50,0,0
60277,-100,4,2,2,40,0,0
60427,-100,4,2,2,30,0,0
60577,-100,4,2,2,50,0,0
62677,-100,4,2,2,15,0,0
62752,-100,4,2,2,25,0,0
62827,-100,4,2,2,35,0,0
62902,-100,4,2,2,45,0,0
62977,-100,4,2,2,50,0,0
63277,-100,4,2,2,40,0,0
63427,-100,4,2,2,50,0,0
64477,-100,4,2,2,40,0,0
64627,-100,4,2,2,50,0,0
66877,-100,4,2,2,30,0,0
67027,-100,4,2,2,50,0,0
67777,-100,4,1,1,75,0,0
91777,-100,4,1,1,75,0,1
92377,-100,4,1,2,75,0,1
100177,-100,4,1,1,50,0,0
101377,-100,4,1,1,75,0,1
101977,-100,4,1,2,75,0,1
109777,-100,4,1,1,50,0,1
110977,-100,4,1,1,75,0,0
134977,-100,4,1,1,75,0,1
135577,-100,4,1,2,75,0,1
143377,-100,4,1,1,50,0,0
144577,-100,4,1,1,75,0,1
145177,-100,4,1,2,75,0,1
152977,-100,4,1,1,50,0,1
154177,-100,4,1,1,75,0,0
173377,-100,4,1,1,75,0,1
173977,-100,4,1,2,75,0,1
177877,-100,4,1,1,55,0,1
178177,-100,4,1,2,75,0,1
180577,-100,4,1,2,75,0,0
191002,-100,4,1,1,35,0,0
191077,-100,4,1,1,45,0,0
191152,-100,4,1,1,55,0,0
191227,-100,4,1,1,65,0,0
191302,-100,4,1,1,75,0,0
192277,-100,4,1,1,45,0,0
192577,-100,4,1,1,75,0,0
211777,-100,4,2,2,50,0,0
213727,-100,4,2,2,40,0,0
213877,-100,4,2,2,30,0,0
214027,-100,4,2,2,20,0,0
214177,-100,4,2,2,50,0,0
220777,-100,4,2,2,55,0,0
220927,-100,4,2,2,60,0,0
221077,-100,4,2,2,70,0,0
221227,-100,4,2,2,90,0,0
221377,-100,4,1,1,75,0,1
221677,-100,4,1,2,75,0,1
229777,-100,4,1,1,50,0,0
230977,-100,4,1,1,75,0,1
231577,-100,4,1,2,75,0,1
239377,-100,4,1,1,50,0,0
240577,-100,4,1,1,75,0,1
241177,-100,4,1,2,75,0,1
249577,-100,4,1,1,75,0,1
249877,-100,4,1,1,45,0,1
250177,-100,4,1,1,75,0,0
250777,-100,4,1,2,75,0,0
258577,-100,4,1,1,50,0,0
259777,-100,4,1,1,75,0,0

[Colours]
Combo1 : 187,87,28
Combo2 : 27,176,0
Combo3 : 7,114,184
Combo4 : 148,75,156
SliderBorder : 94,138,72

[HitObjects]
184,288,24577,6,0,P|152:312|97:332,2,75,4|0|0,0:0|0:0|0:0,0:0:0:0:
344,216,25177,1,8,0:0:0:0:
344,216,25327,2,0,P|312:152|229:146,1,150,0|8,0:0|0:0,0:0:0:0:
256,224,25777,2,0,L|352:96,2,150,0|0|8,0:0|0:0|0:0,0:0:0:0:
232,304,26527,1,0,0:0:0:0:
176,240,26677,1,0,0:0:0:0:
72,112,26977,6,0,P|32:128|0:168,2,75
236,112,27577,1,8,0:0:0:0:
314,113,27727,2,0,P|275:42|204:40,1,150,0|8,0:0|0:0,0:0:0:0:
140,80,28177,1,0,0:0:0:0:
176,240,28477,2,0,P|244:280|320:232,1,150,0|8,0:0|0:0,0:0:0:0:
364,196,28927,1,0,0:0:0:0:
388,276,29077,1,0,0:0:0:0:
240,352,29377,5,0,0:0:0:0:
160,336,29527,1,0,0:0:0:0:
216,276,29677,1,0,0:0:0:0:
364,196,29977,1,8,0:0:0:0:
432,148,30127,2,0,P|368:112|292:156,1,150,0|8,0:0|0:0,0:0:0:0:
364,196,30577,2,0,P|296:224|228:180,1,150,0|0,0:0|0:0,0:0:0:0:
116,88,31177,2,0,P|80:104|56:152,1,75,8|0,0:0|0:0,0:0:0:0:
52,216,31477,1,8,0:0:0:0:
128,180,31627,1,8,0:0:0:0:
194,126,31777,6,0,P|211:159|208:196,1,75
172,272,32077,1,0,0:0:0:0:
96,300,32227,2,8,P|105:336|130:365,2,75,0|8|0,0:0|0:0|0:0,0:0:0:0:
72,220,32677,1,0,0:0:0:0:
92,140,32827,1,0,0:0:0:0:
128,64,32977,6,0,P|85:55|38:78,2,75,8|0|0,0:0|0:0|0:0,0:0:0:0:
200,108,33427,1,8,0:0:0:0:
224,188,33577,2,4,B|256:184|280:140|280:140|320:132|352:144,1,150,4|0,0:0|0:0,0:0:0:0:
400,296,34177,6,0,P|388:328|356:368,2,75,4|0|0,0:0|0:0|0:0,0:0:0:0:
392,132,34777,1,8,0:0:0:0:
413,51,34927,2,0,P|337:65|307:134,1,150,0|8,0:0|0:0,0:0:0:0:
370,212,35377,2,0,P|445:197|475:128,2,150,0|0|8,0:0|0:0|0:0,0:0:0:0:
300,256,36127,1,0,0:0:0:0:
372,292,36277,1,0,0:0:0:0:
476,136,36577,6,0,P|456:108|420:92,1,75
336,100,36877,1,0,0:0:0:0:
204,200,37177,2,0,P|240:216|300:208,1,75,8|0,0:0|0:0,0:0:0:0:
420,92,37627,1,8,0:0:0:0:
336,100,37777,2,0,P|272:120|200:72,2,150,0|0|8,0:0|0:0|0:0,0:0:0:0:
384,164,38527,2,0,P|408:192|412:244,1,75
328,340,38977,6,0,P|288:332|264:308,1,75
220,240,39277,1,0,0:0:0:0:
256,80,39577,1,8,0:0:0:0:
312,140,39727,2,0,P|236:160|176:96,1,150,0|8,0:0|0:0,0:0:0:0:
108,84,40177,1,0,0:0:0:0:
20,224,40477,2,0,P|44:296|136:308,1,150,0|8,0:0|0:0,0:0:0:0:
176,268,40927,1,0,0:0:0:0:
220,336,41077,1,8,0:0:0:0:
300,316,41227,1,8,0:0:0:0:
256,248,41377,6,0,L|244:144,1,75
200,116,41677,2,0,P|164:100|132:64,1,75
88,20,41977,1,8,0:0:0:0:
40,80,42127,2,0,P|20:116|12:148,1,75
20,224,42427,1,0,0:0:0:0:
68,292,42577,6,8,L|104:260,3,37.5
132,244,42877,2,0,L|180:256,3,37.5,0|0|8|8,0:0|0:0|3:0|3:0,0:0:0:0:
212,248,43177,2,8,L|248:232,3,37.5,8|8|0|0,3:0|3:0|0:0|0:0,0:0:0:0:
280,204,43477,1,2,3:0:0:0:
324,196,43552,1,2,3:0:0:0:
368,200,43627,1,2,3:0:0:0:
408,216,43702,1,2,3:0:0:0:
440,248,43777,1,4,0:0:0:0:
256,192,43927,12,0,47377,0:0:0:0:
116,172,48577,5,8,0:0:0:0:
252,268,48877,1,0,0:0:0:0:
308,208,49027,1,0,0:0:0:0:
352,136,49177,2,8,P|328:212|384:268,1,150
500,172,49777,1,0,0:0:0:0:
480,92,49927,1,8,0:0:0:0:
420,148,50077,2,0,P|384:156|344:140,1,75
292,84,50377,1,8,0:0:0:0:
32,288,50977,6,0,P|88:340|156:312,1,150
196,248,51427,1,0,0:0:0:0:
216,164,51577,2,8,P|272:204|272:284,1,150
100,272,52177,1,0,0:0:0:0:
80,192,52327,1,8,0:0:0:0:
160,212,52477,2,0,P|196:200|212:164,1,75
200,88,52777,1,8,0:0:0:0:
360,44,53077,1,8,0:0:0:0:
400,56,53152,1,8,0:0:0:0:
432,84,53227,1,8,0:0:0:0:
444,124,53302,1,8,0:0:0:0:
448,164,53377,6,0,P|432:232|368:272,1,150
284,256,53827,1,0,0:0:0:0:
232,192,53977,2,8,B|188:228|204:280|204:280|163:325,1,150
4,332,54577,1,0,0:0:0:0:
28,252,54727,1,8,0:0:0:0:
104,288,54877,2,0,P|128:236|116:204,1,75
104,140,55177,2,0,P|136:112|184:96,1,75,8|8,0:0|0:0,0:0:0:0:
248,116,55477,1,8,0:0:0:0:
296,48,55627,1,8,0:0:0:0:
372,76,55777,5,0,0:0:0:0:
399,239,56077,2,0,P|436:234|468:215,1,75
404,156,56377,2,8,P|336:132|264:156,1,150
112,239,56977,6,0,P|75:235|43:215,1,75,0|8,0:0|0:0,0:0:0:0:
72,140,57277,1,0,0:0:0:0:
152,116,57427,1,0,0:0:0:0:
232,140,57577,1,8,0:0:0:0:
312,120,57727,2,0,P|352:124|392:148,2,75,8|8|8,0:0|0:0|0:0,0:0:0:0:
232,140,58177,6,0,B|212:212|212:212|232:264|192:296,1,150
132,244,58627,1,0,0:0:0:0:
84,176,58777,2,8,B|55:193|36:233|36:233|46:278|73:299,1,150
228,348,59377,2,0,P|268:344|312:316,1,75,0|8,0:0|0:0,0:0:0:0:
336,256,59677,1,0,0:0:0:0:
264,216,59827,1,0,0:0:0:0:
232,140,59977,2,8,P|208:108|172:92,1,75
100,68,60277,1,8,0:0:0:0:
40,124,60427,1,8,0:0:0:0:
28,204,60577,6,0,P|36:276|96:328,1,150
160,280,61027,1,0,0:0:0:0:
216,344,61177,2,0,P|252:340|288:324,1,75,8|0,0:0|0:0,0:0:0:0:
352,276,61477,1,8,0:0:0:0:
440,136,61777,5,0,0:0:0:0:
356,140,61927,2,0,P|324:120|312:84,1,75,8|0,0:0|0:0,0:0:0:0:
256,28,62227,1,0,0:0:0:0:
200,86,62377,2,0,P|187:120|156:140,1,75,8|0,0:0|0:0,0:0:0:0:
72,136,62677,1,8,0:0:0:0:
48,172,62752,1,8,0:0:0:0:
48,212,62827,1,8,0:0:0:0:
60,252,62902,1,8,0:0:0:0:
84,284,62977,6,0,P|152:324|240:292,1,150
292,272,63427,1,0,0:0:0:0:
364,228,63577,2,8,P|372:304|304:356,2,150,8|8|0,0:0|0:0|0:0,0:0:0:0:
320,156,64327,1,8,0:0:0:0:
264,92,64477,1,0,0:0:0:0:
180,68,64627,1,0,0:0:0:0:
100,80,64777,2,8,B|88:112|52:136|52:136|68:212,1,150,8|0,0:0|0:0,0:0:0:0:
212,292,65377,5,0,0:0:0:0:
376,284,65677,1,0,2:0:0:0:
442,229,65827,1,0,2:0:0:0:
376,284,65977,2,8,P|356:214|404:156,1,150,8|8,0:0|0:0,2:0:0:0:
304,24,66577,2,0,L|208:36,1,75
148,48,66877,1,0,0:0:0:0:
76,88,67027,1,0,0:0:0:0:
44,164,67177,2,0,P|40:204|52:240,1,75,8|0,0:0|0:0,0:0:0:0:
204,276,67477,2,0,P|212:240|204:204,1,75,0|8,0:0|0:0,0:0:0:0:
196,120,67777,5,4,0:0:0:0:
352,72,68077,2,0,P|392:76|444:108,2,75,0|0|8,0:0|0:0|0:0,0:0:0:0:
196,120,68677,1,0,0:0:0:0:
144,184,68827,2,0,P|213:203|271:159,1,150
60,188,69277,2,0,P|96:256|188:276,1,150,0|8,0:0|0:0,0:0:0:0:
460,128,70177,6,0,P|396:96|312:124,1,150
256,164,70627,1,0,0:0:0:0:
200,224,70777,2,0,P|133:253|69:218,1,150,8|0,0:0|0:0,0:0:0:0:
44,140,71227,1,0,0:0:0:0:
188,60,71527,1,0,0:0:0:0:
264,96,71677,1,0,0:0:0:0:
396,192,71977,1,8,0:0:0:0:
252,316,72277,1,0,2:0:0:0:
212,312,72352,1,0,2:0:0:0:
176,292,72427,1,0,2:0:0:0:
156,256,72502,1,0,2:0:0:0:
152,216,72577,6,0,P|220:196|244:124,1,150
164,136,73027,1,0,0:0:0:0:
92,164,73177,1,8,0:0:0:0:
228,240,73477,2,0,P|268:248|308:240,1,75
372,208,73777,1,0,2:0:0:0:
416,144,73927,1,0,0:0:0:0:
432,64,74077,2,0,B|376:56|348:100|348:100|280:92,1,150,0|8,0:0|0:0,0:0:0:0:
136,80,74677,1,0,2:0:0:0:
80,236,74977,6,0,P|104:304|184:320,1,150
256,308,75427,1,0,0:0:0:0:
320,256,75577,1,8,0:0:0:0:
336,336,75727,2,0,P|400:352|476:316,2,150
192,256,76627,2,0,P|232:192|320:180,1,150
320,256,77077,1,8,0:0:0:0:
256,308,77227,1,8,0:0:0:0:
180,336,77377,6,0,P|96:332|68:272,1,150
96,200,77827,1,0,0:0:0:0:
152,140,77977,2,0,L|88:76,1,75,8|0,0:0|0:0,0:0:0:0:
180,56,78277,2,0,L|264:48,1,75
336,44,78577,1,0,2:0:0:0:
412,72,78727,1,0,0:0:0:0:
472,128,78877,2,0,P|400:156|332:92,1,150,0|8,0:0|0:0,0:0:0:0:
180,56,79477,1,0,2:0:0:0:
52,148,79777,6,0,P|116:180|178:144,1,150,0|0,0:0|0:0,0:0:0:0:
180,56,80227,1,0,0:0:0:0:
114,109,80377,2,0,P|114:180|176:217,1,150,8|0,0:0|0:0,0:0:0:0:
256,192,80827,1,0,0:0:0:0:
324,148,80977,2,0,P|360:124|408:128,1,75,0|0,2:0|0:0,0:0:0:0:
384,204,81277,2,0,P|393:275|340:323,1,150,0|8,0:0|0:0,0:0:0:0:
176,328,81877,1,0,2:0:0:0:
140,312,81952,1,0,2:0:0:0:
116,280,82027,1,0,2:0:0:0:
112,240,82102,1,0,2:0:0:0:
124,200,82177,6,0,P|152:152|244:144,1,150
288,164,82577,1,0,0:0:0:0:
340,184,82677,1,0,0:0:0:0:
392,164,82777,1,8,0:0:0:0:
476,24,83077,1,0,0:0:0:0:
476,24,83227,2,0,P|408:72|344:72,1,150
268,36,83677,1,0,0:0:0:0:
108,76,83977,1,8,0:0:0:0:
48,228,84277,1,0,2:0:0:0:
152,348,84577,6,0,P|228:340|276:280,1,150
256,208,85027,1,0,0:0:0:0:
228,132,85177,2,0,P|252:100|300:76,1,75,8|0,0:0|0:0,0:0:0:0:
436,40,85627,2,0,B|500:72|500:72|516:120|500:160,1,150
444,208,86077,2,0,L|360:256,1,75
300,276,86377,2,8,P|320:308|360:328,1,75,8|0,0:0|0:0,0:0:0:0:
436,324,86677,1,8,0:0:0:0:
496,268,86827,1,8,0:0:0:0:
480,156,86977,6,0,P|432:104|352:112,1,150,4|0,0:0|0:0,0:0:0:0:
256,240,87577,1,8,0:0:0:0:
196,296,87727,1,0,0:0:0:0:
20,236,88027,1,8,0:0:0:0:
32,156,88177,2,0,P|80:104|160:112,1,150,0|0,0:0|0:0,0:0:0:0:
256,240,88777,1,8,0:0:0:0:
508,24,89377,6,0,B|464:16|440:32|440:32|432:80|376:88,1,150
228,52,89977,1,8,0:0:0:0:
152,84,90127,1,0,0:0:0:0:
152,248,90427,1,0,0:0:0:0:
228,280,90577,1,4,0:0:0:0:
420,92,91777,5,4,0:0:0:0:
268,28,92077,2,0,P|222:63|236:158,1,150,0|12,0:0|0:0,0:0:0:0:
312,156,92527,2,0,P|280:220|208:230,1,150,0|8,0:0|0:0,0:0:0:0:
144,176,92977,1,4,0:0:0:0:
48,284,93277,1,0,0:0:0:0:
204,336,93577,2,0,B|268:340|268:340|284:296|336:280,1,150,12|0,0:0|2:0,0:0:0:0:
464,144,94177,5,4,0:0:0:0:
336,40,94477,1,0,0:0:0:0:
324,204,94777,2,0,P|364:188|392:136,1,75,12|0,0:0|0:0,0:0:0:0:
256,60,95227,1,8,0:0:0:0:
256,144,95377,2,0,P|320:111|336:40,1,150,4|0,0:0|0:0,0:0:0:0:
92,164,95977,1,12,0:0:0:0:
268,332,96277,1,0,2:0:0:0:
416,120,96577,6,0,B|388:148|352:144|352:144|316:176|328:224,1,150,4|0,0:0|0:0,0:0:0:0:
376,352,97177,1,12,0:0:0:0:
408,276,97327,2,0,P|328:288|296:348,1,150,0|8,0:0|0:0,0:0:0:0:
216,343,97777,2,0,P|176:282|104:275,2,150,4|0|12,0:0|0:0|0:0,0:0:0:0:
8,264,98677,1,0,2:0:0:0:
68,128,98977,6,0,B|116:120|120:72|120:72|144:40|192:48,1,150,4|0,0:0|0:0,0:0:0:0:
312,144,99577,1,12,0:0:0:0:
256,204,99727,2,0,P|228:136|276:72,1,150
384,64,100177,5,8,0:0:0:0:
416,87,100252,1,8,0:0:0:0:
429,125,100327,1,8,0:0:0:0:
433,165,100402,1,8,0:0:0:0:
420,203,100477,1,0,0:0:0:0:
336,260,100627,1,8,3:0:0:0:
296,276,100702,1,8,3:0:0:0:
256,292,100777,1,8,3:0:0:0:
216,276,100852,1,8,3:0:0:0:
176,260,100927,1,0,0:0:0:0:
92,203,101077,1,2,3:0:0:0:
79,165,101152,1,10,3:0:0:0:
83,125,101227,1,10,3:0:0:0:
96,87,101302,1,10,3:0:0:0:
128,64,101377,5,4,0:0:0:0:
336,40,101677,2,0,P|404:60|419:138,1,150,0|12,0:0|0:0,0:0:0:0:
368,192,102127,1,0,0:0:0:0:
256,312,102427,1,8,0:0:0:0:
192,260,102577,2,0,P|256:228|328:268,1,150,4|0,0:0|0:0,0:0:0:0:
464,348,103177,1,12,0:0:0:0:
256,156,103477,1,0,2:0:0:0:
60,284,103777,6,0,P|103:341|176:344,1,150,4|0,0:0|0:0,0:0:0:0:
328,276,104377,1,12,0:0:0:0:
376,208,104527,2,0,P|308:180|292:108,1,150,0|8,0:0|0:0,0:0:0:0:
368,128,104977,1,4,0:0:0:0:
460,244,105277,1,0,0:0:0:0:
220,268,105577,2,0,B|180:216|232:172|192:120,1,150,12|0,0:0|0:0,0:0:0:0:
28,32,106177,6,0,B|12:68|20:104|20:104|64:120|76:164,1,150,4|0,0:0|0:0,0:0:0:0:
124,295,106777,2,0,P|152:315|200:319,1,75,12|0,0:0|0:0,0:0:0:0:
324,215,107227,2,0,P|292:195|254:190,1,75,8|4,0:0|0:0,0:0:0:0:
376,300,107677,2,0,P|421:242|410:170,2,150,0|12|0,0:0|0:0|0:0,0:0:0:0:
136,304,108577,5,4,0:0:0:0:
256,184,108877,1,0,0:0:0:0:
376,304,109177,1,12,0:0:0:0:
376,304,109327,2,0,B|332:296|304:328|304:328|264:344|216:324,1,150
136,304,109777,5,8,0:0:0:0:
160,272,109852,1,8,0:0:0:0:
176,232,109927,1,8,0:0:0:0:
176,192,110002,1,8,0:0:0:0:
168,152,110077,1,0,0:0:0:0:
176,60,110227,1,8,3:0:0:0:
216,44,110302,1,8,3:0:0:0:
256,28,110377,1,8,3:0:0:0:
296,44,110452,1,8,3:0:0:0:
336,60,110527,1,0,0:0:0:0:
344,152,110677,1,2,3:0:0:0:
336,192,110752,1,2,3:0:0:0:
336,232,110827,1,2,3:0:0:0:
352,272,110902,1,2,3:0:0:0:
376,304,110977,5,4,0:0:0:0:
484,180,111277,2,0,P|512:128|512:96,2,75,0|0|8,0:0|0:0|0:0,0:0:0:0:
412,328,111877,1,0,0:0:0:0:
332,348,112027,2,0,B|278:338|256:328|256:328|233:340|188:348,1,150
108,332,112477,2,0,P|68:264|88:196,1,150,0|8,0:0|0:0,0:0:0:0:
236,136,113077,1,0,2:0:0:0:
300,84,113227,1,0,2:0:0:0:
236,136,113377,6,0,P|264:204|344:212,1,150
388,152,113827,1,0,0:0:0:0:
308,148,113977,2,0,P|264:204|188:192,1,150,8|0,0:0|0:0,0:0:0:0:
160,120,114427,1,0,0:0:0:0:
84,84,114577,1,0,2:0:0:0:
32,148,114727,1,0,0:0:0:0:
108,184,114877,2,0,P|136:256|92:320,1,150,0|8,0:0|0:0,0:0:0:0:
160,120,115477,1,0,2:0:0:0:
188,92,115552,1,0,2:0:0:0:
228,80,115627,1,0,2:0:0:0:
268,84,115702,1,0,2:0:0:0:
300,108,115777,5,0,0:0:0:0:
436,204,116077,2,0,P|476:192|516:160,2,75,0|0|8,0:0|0:0|0:0,0:0:0:0:
324,328,116677,2,0,L|340:248,1,75
256,220,116977,1,0,2:0:0:0:
173,254,117127,2,0,L|187:327,1,75
256,176,117577,2,0,B|288:120|224:88|256:32,1,150,8|0,0:0|2:0,0:0:0:0:
388,35,118177,6,0,P|457:60|484:128,1,150
432,192,118627,1,0,0:0:0:0:
372,248,118777,1,8,0:0:0:0:
440,296,118927,1,0,0:0:0:0:
284,348,119227,2,0,B|238:343|208:359|208:359|188:334|145:317,1,150
68,176,119827,2,0,P|96:144|136:124,1,75,0|8,0:0|0:0,0:0:0:0:
204,108,120127,1,0,0:0:0:0:
256,44,120277,1,8,0:0:0:0:
340,36,120427,1,8,0:0:0:0:
404,88,120577,6,0,P|401:154|328:194,1,150,0|0,2:0|0:0,0:0:0:0:
329,114,121027,1,0,0:0:0:0:
264,163,121177,2,0,P|269:235|331:271,1,150,8|0,0:0|0:0,0:0:0:0:
416,272,121627,1,0,0:0:0:0:
372,344,121777,1,0,2:0:0:0:
288,348,121927,2,0,P|244:336|213:304,1,75
236,152,122377,1,8,0:0:0:0:
384,64,122677,1,0,2:0:0:0:
480,192,122977,6,0,P|468:264|388:296,1,150
340,248,123427,1,0,0:0:0:0:
292,316,123577,1,8,0:0:0:0:
128,324,123877,2,0,P|104:292|104:244,1,75
144,188,124177,1,0,2:0:0:0:
176,112,124327,1,0,0:0:0:0:
228,48,124477,2,0,P|153:30|100:84,1,150,0|8,0:0|0:0,0:0:0:0:
88,240,125077,1,0,2:0:0:0:
164,268,125227,1,0,2:0:0:0:
212,204,125377,6,0,P|248:140|324:128,1,150
364,160,125777,1,0,0:0:0:0:
416,180,125877,1,0,0:0:0:0:
464,152,125977,1,8,0:0:0:0:
384,12,126277,1,0,0:0:0:0:
304,28,126427,2,0,P|264:32|224:56,2,75,0|0|0,0:0|2:0|0:0,0:0:0:0:
360,88,126877,2,0,P|396:152|372:232,1,150,0|8,0:0|0:0,0:0:0:0:
156,240,127477,5,0,2:0:0:0:
232,252,127627,1,0,2:0:0:0:
240,332,127777,2,0,P|168:304|160:224,1,150
220,184,128227,1,0,0:0:0:0:
252,108,128377,1,8,0:0:0:0:
220,32,128527,2,0,P|164:12|84:60,1,150
60,132,128977,1,0,2:0:0:0:
128,180,129127,2,0,P|168:248|120:320,1,150
84,248,129577,5,8,0:0:0:0:
232,176,129877,1,8,0:0:0:0:
304,208,130027,1,8,0:0:0:0:
360,148,130177,6,0,P|304:96|208:112,1,150,4|0,0:0|0:0,0:0:0:0:
76,144,130777,2,0,P|53:111|57:71,1,75,8|0,0:0|0:0,0:0:0:0:
196,20,131227,1,8,0:0:0:0:
236,96,131377,2,0,P|200:168|128:176,1,150
60,32,131977,1,8,0:0:0:0:
388,76,132577,5,0,0:0:0:0:
484,212,132877,1,0,0:0:0:0:
388,348,133177,2,0,P|348:328|324:296,1,75,8|0,0:0|0:0,0:0:0:0:
256,156,133627,1,0,0:0:0:0:
256,240,133777,1,4,0:0:0:0:
120,40,134977,5,4,0:0:0:0:
232,160,135277,1,0,0:0:0:0:
284,316,135577,2,0,P|324:308|360:272,1,75,12|0,0:0|0:0,0:0:0:0:
436,144,136027,1,8,0:0:0:0:
480,72,136177,2,0,P|396:68|356:120,2,150,4|0|12,0:0|0:0|0:0,0:0:0:0:
500,288,137077,1,0,2:0:0:0:
316,360,137377,6,0,P|248:348|212:280,1,150,4|0,0:0|0:0,0:0:0:0:
256,120,137977,2,0,P|224:96|176:92,1,75,12|0,0:0|0:0,0:0:0:0:
40,160,138427,1,8,0:0:0:0:
76,232,138577,2,0,P|160:216|196:164,1,150,4|0,0:0|0:0,0:0:0:0:
256,12,139177,1,12,0:0:0:0:
424,24,139477,1,0,2:0:0:0:
476,156,139777,6,0,P|448:224|376:236,1,150,4|0,0:0|0:0,0:0:0:0:
256,128,140377,1,12,0:0:0:0:
184,88,140527,2,0,P|164:160|184:232,1,150,0|8,0:0|0:0,0:0:0:0:
256,204,140977,1,4,0:0:0:0:
336,60,141277,1,0,0:0:0:0:
472,164,141577,2,0,B|480:224|480:224|476:268|400:292,1,150,12|0,0:0|2:0,0:0:0:0:
212,352,142177,5,4,0:0:0:0:
68,272,142477,2,0,P|112:212|196:204,1,150,0|12,0:0|0:0,0:0:0:0:
252,248,142927,2,0,P|324:264|404:224,1,150
464,160,143377,6,0,L|424:136,3,37.5,8|8|8|8,0:0|0:0|0:0|0:0,0:0:0:0:
392,144,143677,2,0,L|344:168,3,37.5,0|0|8|8,0:0|0:0|3:0|3:0,0:0:0:0:
320,160,143977,2,0,L|280:136,3,37.5,8|8|0|0,3:0|3:0|0:0|0:0,0:0:0:0:
248,128,144277,1,2,3:0:0:0:
208,120,144352,1,2,3:0:0:0:
168,120,144427,1,2,3:0:0:0:
128,136,144502,1,2,3:0:0:0:
96,168,144577,5,4,0:0:0:0:
44,324,144877,1,0,0:0:0:0:
204,356,145177,2,0,P|236:336|260:304,1,75,12|0,0:0|0:0,0:0:0:0:
280,144,145627,2,0,P|314:129|357:126,1,75,8|4,0:0|0:0,0:0:0:0:
492,88,146077,2,0,P|460:28|384:20,2,150,0|12|0,0:0|0:0|2:0,0:0:0:0:
356,184,146977,5,4,0:0:0:0:
192,168,147277,1,0,0:0:0:0:
256,312,147577,2,0,P|288:288|308:248,1,75,12|0,0:0|0:0,0:0:0:0:
360,100,148027,1,8,0:0:0:0:
380,20,148177,2,0,P|431:59|425:150,1,150,4|0,0:0|0:0,0:0:0:0:
316,256,148777,1,12,0:0:0:0:
84,304,149077,1,0,2:0:0:0:
84,304,149377,6,0,P|136:252|132:180,1,150,4|0,0:0|0:0,0:0:0:0:
64,28,149977,2,0,P|112:16|160:28,1,75,12|0,0:0|0:0,0:0:0:0:
260,128,150427,1,8,0:0:0:0:
308,196,150577,2,0,P|229:208|181:138,2,150,4|0|12,0:0|0:0|0:0,0:0:0:0:
488,120,151477,1,0,2:0:0:0:
488,120,151777,6,0,P|504:196|464:252,1,150,4|0,0:0|0:0,0:0:0:0:
264,284,152377,1,12,0:0:0:0:
324,340,152527,2,0,P|260:364|180:304,1,150
208,232,152977,6,0,L|264:204,3,37.5,8|8|8|8,0:0|0:0|0:0|0:0,0:0:0:0:
284,216,153277,2,0,L|340:228,3,37.5,0|0|8|8,0:0|0:0|3:0|3:0,0:0:0:0:
360,208,153577,1,8,3:0:0:0:
384,172,153652,1,8,3:0:0:0:
388,132,153727,1,0,0:0:0:0:
380,92,153802,1,0,0:0:0:0:
352,60,153877,1,2,3:0:0:0:
312,48,153952,1,2,3:0:0:0:
272,52,154027,1,2,3:0:0:0:
240,76,154102,1,2,3:0:0:0:
224,116,154177,5,4,0:0:0:0:
312,256,154477,1,0,2:0:0:0:
240,292,154627,1,0,0:0:0:0:
160,288,154777,2,0,P|116:224|136:160,1,150,8|0,0:0|0:0,0:0:0:0:
208,120,155227,1,0,2:0:0:0:
252,48,155377,1,0,0:0:0:0:
412,84,155677,2,0,P|431:153|380:204,1,150,0|8,0:0|0:0,0:0:0:0:
300,200,156127,1,0,0:0:0:0:
268,276,156277,1,0,0:0:0:0:
120,352,156577,6,0,P|72:296|80:216,1,150
136,164,157027,1,0,0:0:0:0:
108,88,157177,1,8,0:0:0:0:
256,16,157477,2,0,L|256:196,1,150
376,164,158077,1,0,0:0:0:0:
404,88,158227,1,0,0:0:0:0:
476,48,158377,1,8,0:0:0:0:
488,128,158527,2,0,P|492:164|472:212,1,75
360,316,158977,6,0,P|296:352|196:332,1,150
84,252,159577,1,8,0:0:0:0:
239,209,159877,2,0,P|256:280|220:348,1,150
56,332,160477,1,0,0:0:0:0:
84,252,160627,1,0,0:0:0:0:
160,224,160777,2,0,P|164:180|144:132,1,75,8|0,0:0|0:0,0:0:0:0:
80,112,161077,1,0,0:0:0:0:
228,36,161377,6,0,P|328:44|364:96,1,150
320,152,161827,1,0,0:0:0:0:
404,152,161977,1,8,0:0:0:0:
404,152,162277,5,0,0:0:0:0:
364,224,162427,1,0,0:0:0:0:
448,220,162577,1,8,0:0:0:0:
448,220,162877,5,0,0:0:0:0:
488,292,163027,2,0,P|460:320|424:332,1,75,8|0,0:0|2:0,0:0:0:0:
344,320,163327,1,0,0:0:0:0:
296,252,163477,2,8,P|328:228|368:224,1,75
448,220,163777,6,0,P|416:156|340:140,1,150
216,244,164377,1,8,0:0:0:0:
84,344,164677,1,0,2:0:0:0:
32,280,164827,1,0,2:0:0:0:
68,204,164977,2,0,P|124:160|124:76,2,150,0|0|8,0:0|0:0|0:0,0:0:0:0:
40,112,165727,2,0,P|36:72|56:32,1,75
216,32,166177,6,0,P|260:88|336:76,1,150
484,20,166777,1,8,0:0:0:0:
424,176,167077,1,0,2:0:0:0:
380,336,167377,2,0,B|347:360|308:356|308:356|280:328|220:328,1,150
160,320,167827,1,0,0:0:0:0:
124,248,167977,1,8,0:0:0:0:
208,252,168127,2,0,P|240:236|259:203,1,75
331,54,168577,6,0,P|259:35|188:56,1,150,8|0,0:0|0:0,0:0:0:0:
84,184,169177,2,0,P|112:216|124:248,1,75,8|0,0:0|0:0,0:0:0:0:
176,308,169477,1,0,0:0:0:0:
256,332,169627,1,0,0:0:0:0:
336,308,169777,1,8,0:0:0:0:
388,245,169927,2,0,P|402:211|428:184,1,75,0|0,0:0|0:0,0:0:0:0:
472,24,170377,2,0,P|424:76|340:80,1,150,8|0,0:0|0:0,0:0:0:0:
192,132,170977,6,0,P|156:156|136:188,1,75,8|0,0:0|0:0,0:0:0:0:
124,264,171277,1,0,0:0:0:0:
188,316,171427,1,0,0:0:0:0:
272,308,171577,2,0,P|308:288|325:258,1,75,8|0,0:0|0:0,0:0:0:0:
344,180,171877,1,0,0:0:0:0:
296,112,172027,1,0,0:0:0:0:
216,240,172177,6,0,L|260:224,3,37.5,8|8|8|0,0:0|0:0|0:0|0:0,0:0:0:0:
292,232,172477,2,0,L|344:244,3,37.5,0|0|0|8,0:0|0:0|0:0|3:0,0:0:0:0:
376,224,172777,2,0,P|384:204|384:176,3,37.5,0|0|8|8,3:0|3:0|3:0|3:0,0:0:0:0:
376,144,173077,1,2,3:0:0:0:
352,112,173152,1,2,3:0:0:0:
316,92,173227,1,0,0:0:0:0:
272,88,173302,1,0,0:0:0:0:
232,84,173377,6,0,P|216:50|214:7,2,75,12|0|0,0:0|0:0|0:0,0:0:0:0:
292,232,173977,1,12,0:0:0:0:
336,300,174127,2,0,P|364:274|372:224,2,75
250,303,174577,2,0,B|216:288|208:248|208:248|164:232|159:193,1,150,4|0,0:0|0:0,0:0:0:0:
200,48,175177,6,0,P|220:80|264:96,1,75,12|0,0:0|0:0,0:0:0:0:
324,56,175477,1,0,0:0:0:0:
372,124,175627,1,0,0:0:0:0:
452,112,175777,2,0,P|440:76|408:48,1,75,4|8,0:0|0:0,0:0:0:0:
324,56,176077,6,0,P|284:116|324:188,1,150,0|12,0:0|0:0,0:0:0:0:
388,216,176527,1,0,0:0:0:0:
356,292,176677,1,0,0:0:0:0:
284,332,176827,1,0,0:0:0:0:
200,336,176977,2,0,P|164:320|136:284,1,75,12|0,0:0|0:0,0:0:0:0:
144,212,177277,2,0,P|184:228|212:268,2,75,0|0|12,0:0|0:0|0:0,0:0:0:0:
64,236,177727,1,0,0:0:0:0:
80,156,177877,2,0,P|128:128|160:136,1,75,2|2,3:0|3:0,0:0:0:0:
216,172,178177,6,0,P|284:140|288:64,1,150,12|0,0:0|0:0,0:0:0:0:
132,28,178777,2,0,P|100:48|78:78,1,75,12|0,0:0|0:0,0:0:0:0:
80,156,179077,1,0,0:0:0:0:
64,236,179227,2,0,P|84:264|120:288,1,75,0|12,0:0|0:0,0:0:0:0:
280,324,179677,6,0,P|344:276|344:200,1,150,0|12,0:0|0:0,0:0:0:0:
292,152,180127,2,0,P|324:132|368:132,2,75
232,208,180577,2,0,P|156:244|108:200,1,150,12|0,0:0|0:0,0:0:0:0:
116,48,181177,5,12,0:0:0:0:
196,36,181327,1,0,0:0:0:0:
276,48,181477,2,0,P|260:84|224:108,1,75
156,120,181777,1,12,0:0:0:0:
96,176,181927,1,0,0:0:0:0:
72,256,182077,2,0,P|112:256|156:232,1,75
200,184,182377,1,12,0:0:0:0:
248,116,182527,1,8,0:0:0:0:
308,172,182677,1,8,0:0:0:0:
348,100,182827,1,8,0:0:0:0:
448,72,182977,5,4,0:0:0:0:
468,108,183052,1,0,0:0:0:0:
468,148,183127,1,0,0:0:0:0:
404,200,183277,2,0,P|368:216|348:256,1,75
324,328,183577,2,0,P|256:356|180:320,1,150,12|0,0:0|0:0,0:0:0:0:
162,245,184027,2,0,P|142:214|108:200,1,75,0|4,0:0|0:0,0:0:0:0:
124,28,184477,6,0,P|160:36|192:60,1,75
256,112,184777,1,12,0:0:0:0:
256,112,184927,1,0,0:0:0:0:
321,58,185077,2,0,P|351:36|388:28,1,75
468,60,185377,5,4,0:0:0:0:
484,100,185452,1,0,0:0:0:0:
476,140,185527,1,0,0:0:0:0:
400,176,185677,2,0,P|424:208|464:224,1,75
472,304,185977,2,0,P|400:328|332:296,1,150,12|0,0:0|0:0,0:0:0:0:
256,272,186427,1,0,0:0:0:0:
180,300,186577,6,0,P|148:320|128:352,2,75,4|0|0,0:0|0:0|0:0,0:0:0:0:
256,272,187027,1,0,0:0:0:0:
328,232,187177,2,0,P|301:205|267:190,1,75,12|0,0:0|0:0,0:0:0:0:
192,220,187477,1,0,0:0:0:0:
204,140,187627,1,0,0:0:0:0:
260,80,187777,6,0,L|308:92,2,50,4|0|0,0:0|0:0|0:0,0:0:0:0:
180,68,188077,2,0,P|144:88|128:124,1,75
184,180,188377,2,0,P|240:232|232:316,1,150,12|0,0:0|0:0,0:0:0:0:
168,344,188827,1,0,0:0:0:0:
84,352,188977,2,0,P|28:300|36:216,1,150,4|0,0:0|0:0,0:0:0:0:
72,160,189427,1,0,0:0:0:0:
156,152,189577,2,0,P|196:152|232:172,1,75,12|0,0:0|0:0,0:0:0:0:
280,232,189877,2,0,P|316:220|348:192,1,75
400,136,190177,6,0,L|357:109,3,37.5,8|8|8|8,0:0|0:0|0:0|0:0,0:0:0:0:
328,112,190477,2,0,L|263:120,3,37.5
256,104,190777,1,8,0:0:0:0:
216,96,190852,1,8,0:0:0:0:
176,96,190927,1,0,0:0:0:0:
136,112,191002,1,0,0:0:0:0:
104,144,191077,1,8,0:0:0:0:
96,184,191152,1,8,0:0:0:0:
104,224,191227,1,8,0:0:0:0:
128,256,191302,1,8,0:0:0:0:
168,272,191377,5,8,0:0:0:0:
240,240,191527,1,8,3:0:0:0:
240,320,191677,1,2,3:0:0:0:
160,352,191827,1,0,0:0:0:0:
80,328,191977,2,0,P|48:296|24:240,1,75,8|8,0:0|0:0,0:0:0:0:
79,57,192277,2,0,P|52:82|33:114,1,75,4|0,0:0|0:0,0:0:0:0:
136,192,192577,1,4,0:0:0:0:
272,132,211777,5,0,0:0:0:0:
428,188,212077,1,0,0:0:0:0:
432,272,212227,1,0,0:0:0:0:
356,304,212377,2,8,P|280:280|204:316,1,150
56,344,212977,2,0,P|36:272|84:204,1,150
156,212,213427,1,0,0:0:0:0:
176,132,213577,1,8,0:0:0:0:
212,56,213727,2,0,P|184:28|144:16,2,75,8|8|8,0:0|0:0|0:0,0:0:0:0:
256,128,214177,6,0,P|328:152|396:112,1,150
388,36,214627,1,0,0:0:0:0:
456,80,214777,2,8,P|484:128|472:232,1,150
360,336,215377,2,0,P|328:304|320:260,1,75,0|8,0:0|0:0,0:0:0:0:
340,196,215677,1,0,0:0:0:0:
420,216,215827,1,0,0:0:0:0:
396,136,215977,1,8,0:0:0:0:
272,28,216277,2,8,P|236:48|212:92,1,75
204,156,216577,5,0,0:0:0:0:
180,320,216877,2,0,P|137:324|97:304,1,75,0|0,0:0|0:0,0:0:0:0:
76,236,217177,1,8,0:0:0:0:
88,72,217477,1,8,0:0:0:0:
248,28,217777,2,0,P|264:68|292:88,1,75,0|8,0:0|0:0,0:0:0:0:
372,84,218077,2,0,P|400:107|412:142,1,75,0|0,0:0|0:0,0:0:0:0:
336,176,218377,2,0,B|348:212|384:224|384:224|412:268|388:308,1,150,8|0,0:0|0:0,0:0:0:0:
236,352,218977,5,0,0:0:0:0:
76,320,219277,1,0,0:0:0:0:
44,244,219427,1,0,0:0:0:0:
124,256,219577,2,0,P|140:200|84:124,1,150,8|8,0:0|0:0,0:0:0:0:
236,44,220177,2,0,P|276:88|308:92,1,75
356,40,220477,2,0,P|400:36|444:44,1,75
440,124,220777,2,8,P|424:168|424:204,1,75,8|8,0:0|0:0,0:0:0:0:
476,260,221077,1,8,0:0:0:0:
408,308,221227,1,8,0:0:0:0:
328,284,221377,5,4,0:0:0:0:
164,284,221677,2,8,P|208:344|288:336,1,150,0|12,0:0|0:0,0:0:0:0:
244,268,222127,1,0,0:0:0:0:
236,104,222427,1,8,0:0:0:0:
312,76,222577,2,0,P|309:148|248:186,1,150,4|0,0:0|0:0,0:0:0:0:
84,204,223177,1,12,0:0:0:0:
224,28,223477,1,0,2:0:0:0:
412,156,223777,6,0,P|432:220|388:292,1,150,4|0,0:0|0:0,0:0:0:0:
228,300,224377,2,0,P|186:292|153:252,1,75,12|0,0:0|0:0,0:0:0:0:
72,100,224827,1,8,0:0:0:0:
152,76,224977,2,0,B|161:123|133:157|133:157|148:198|193:216,1,150,4|0,1:0|0:0,3:0:0:0:
339,205,225577,2,0,B|363:198|378:157|378:157|350:123|360:76,1,150,12|0,1:0|0:0,3:0:0:0:
492,180,226177,5,4,0:0:0:0:
420,328,226477,2,0,B|360:312|328:336|328:336|264:320,1,150,0|12,0:0|0:0,0:0:0:0:
216,264,226927,1,0,0:0:0:0:
64,328,227227,2,0,P|32:288|24:248,1,75,8|4,0:0|0:0,0:0:0:0:
84,112,227677,1,0,0:0:0:0:
256,32,227977,1,12,0:0:0:0:
428,112,228277,1,0,2:0:0:0:
456,336,228577,6,0,P|380:348|312:312,1,150,4|0,0:0|0:0,0:0:0:0:
184,216,229177,1,12,0:0:0:0:
164,136,229327,2,0,P|228:84|308:92,1,150
389,103,229777,5,8,0:0:0:0:
416,134,229852,1,8,0:0:0:0:
428,173,229927,1,8,0:0:0:0:
430,214,230002,1,8,0:0:0:0:
412,251,230077,1,0,0:0:0:0:
336,308,230227,1,8,3:0:0:0:
294,308,230302,1,8,3:0:0:0:
255,293,230377,1,8,3:0:0:0:
216,308,230452,1,8,3:0:0:0:
174,308,230527,1,0,0:0:0:0:
100,251,230677,1,2,3:0:0:0:
82,214,230752,1,2,3:0:0:0:
84,173,230827,1,2,3:0:0:0:
96,134,230902,1,2,3:0:0:0:
123,103,230977,5,4,0:0:0:0:
288,124,231277,1,0,0:0:0:0:
428,212,231577,1,12,0:0:0:0:
456,292,231727,2,0,P|396:336|320:308,1,150,0|8,0:0|0:0,0:0:0:0:
256,272,232177,1,4,0:0:0:0:
55,291,232477,2,0,P|113:335|183:316,1,150,0|12,0:0|0:0,0:0:0:0:
256,178,233077,1,0,2:0:0:0:
256,32,233377,6,0,B|228:84|288:120|248:200,1,150,4|0,0:0|0:0,0:0:0:0:
128,284,233977,1,12,0:0:0:0:
100,208,234127,1,0,0:0:0:0:
220,96,234427,1,8,0:0:0:0:
296,100,234577,2,0,P|256:164|180:160,2,150,4|0|12,0:0|0:0|0:0,0:0:0:0:
464,52,235477,1,0,2:0:0:0:
468,252,235777,6,0,P|418:331|353:339,1,150,4|0,0:0|0:0,0:0:0:0:
200,276,236377,1,12,0:0:0:0:
136,328,236527,1,0,0:0:0:0:
56,184,236827,2,0,P|60:140|92:104,1,75,8|4,0:0|0:0,0:0:0:0:
232,60,237277,1,0,0:0:0:0:
384,184,237577,1,12,0:0:0:0:
240,316,237877,1,0,2:0:0:0:
44,332,238177,6,0,P|28:260|80:200,2,150,4|0|12,0:0|0:0|0:0,0:0:0:0:
112,280,238927,2,0,P|156:222|139:151,1,150
92,92,239377,6,0,L|121:68,3,37.5,8|8|8|8,0:0|0:0|0:0|0:0,0:0:0:0:
164,44,239677,2,0,L|201:39,3,37.5,0|0|8|8,0:0|0:0|0:0|0:0,0:0:0:0:
237,48,239977,1,8,0:0:0:0:
267,75,240052,1,8,0:0:0:0:
281,114,240127,1,0,0:0:0:0:
284,156,240202,1,0,0:0:0:0:
307,189,240277,1,8,0:0:0:0:
344,208,240352,1,8,0:0:0:0:
385,207,240427,1,8,0:0:0:0:
422,188,240502,1,8,0:0:0:0:
445,153,240577,6,0,P|440:104|416:76,1,75,4|0,0:0|0:0,0:0:0:0:
362,38,240877,1,0,0:0:0:0:
212,108,241177,2,0,P|200:160|212:192,1,75,12|0,0:0|0:0,0:0:0:0:
332,288,241627,1,8,0:0:0:0:
404,332,241777,2,0,P|339:370|268:342,1,150,4|0,0:0|0:0,0:0:0:0:
168,220,242377,1,12,0:0:0:0:
100,176,242527,1,0,0:0:0:0:
20,188,242677,1,0,0:0:0:0:
52,352,242977,6,0,P|88:352|136:332,1,75,4|0,0:0|0:0,0:0:0:0:
196,296,243277,1,0,0:0:0:0:
312,180,243577,1,12,0:0:0:0:
392,168,243727,2,8,P|380:100|300:64,1,150,0|8,0:0|0:0,0:0:0:0:
198,63,244177,2,8,P|134:96|120:168,1,150,4|0,0:0|0:0,0:0:0:0:
184,320,244777,1,12,0:0:0:0:
256,356,244927,1,0,0:0:0:0:
328,320,245077,1,0,0:0:0:0:
436,192,245377,6,0,P|424:140|396:112,1,75,4|0,0:0|0:0,0:0:0:0:
336,84,245677,1,0,0:0:0:0:
208,180,245977,2,0,P|244:208|284:216,1,75,12|0,0:0|0:0,0:0:0:0:
436,192,246427,1,8,0:0:0:0:
500,244,246577,2,0,P|440:288|352:272,1,150,4|0,0:0|0:0,0:0:0:0:
204,284,247177,2,0,L|112:312,1,75,12|0,0:0|0:0,0:0:0:0:
60,264,247477,1,8,0:0:0:0:
52,180,247627,1,8,0:0:0:0:
108,120,247777,5,4,0:0:0:0:
192,124,247927,1,0,0:0:0:0:
232,196,248077,1,0,0:0:0:0:
284,260,248227,2,0,P|336:240|356:208,2,75,0|12|0,0:0|0:0|0:0,0:0:0:0:
128,316,248827,1,0,0:0:0:0:
60,264,248977,2,0,P|64:224|92:184,1,75,12|0,0:0|0:0,0:0:0:0:
288,169,249427,2,0,P|274:203|244:224,1,75,8|4,0:0|0:0,0:0:0:0:
408,56,249877,1,4,0:0:0:0:
504,192,250177,6,0,P|468:248|444:256,1,75,4|0,0:0|0:0,0:0:0:0:
384,268,250477,1,0,0:0:0:0:
228,320,250777,1,12,0:0:0:0:
148,340,250927,2,0,P|104:300|112:200,1,150,0|8,0:0|0:0,0:0:0:0:
168,164,251377,1,4,0:0:0:0:
328,200,251677,2,0,P|388:144|368:84,1,150,0|12,0:0|0:0,0:0:0:0:
292,56,252127,1,0,0:0:0:0:
320,132,252277,1,0,0:0:0:0:
404,272,252577,6,0,P|448:296|500:304,2,75,4|0|0,0:0|0:0|0:0,0:0:0:0:
256,200,253177,1,12,0:0:0:0:
208,132,253327,2,0,P|136:164|128:236,1,150,0|8,0:0|0:0,0:0:0:0:
176,292,253777,1,4,0:0:0:0:
336,336,254077,1,0,0:0:0:0:
460,228,254377,2,0,P|464:188|448:152,1,75,12|0,0:0|0:0,0:0:0:0:
384,112,254677,1,0,0:0:0:0:
208,132,254977,6,0,P|172:160|156:216,1,75,4|0,0:0|0:0,0:0:0:0:
176,268,255277,1,0,0:0:0:0:
336,336,255577,1,12,0:0:0:0:
420,336,255727,2,0,P|420:260|360:216,1,150,0|8,0:0|0:0,0:0:0:0:
296,176,256177,2,0,P|228:208|156:184,1,150,4|0,0:0|0:0,0:0:0:0:
68,52,256777,2,0,P|12:84|-4:108,2,75,12|0|8,0:0|0:0|0:0,0:0:0:0:
152,60,257227,1,8,0:0:0:0:
224,104,257377,6,0,P|252:136|256:180,1,75,4|0,0:0|0:0,0:0:0:0:
228,244,257677,1,0,0:0:0:0:
152,280,257827,1,0,0:0:0:0:
112,208,257977,1,12,0:0:0:0:
152,280,258127,2,0,P|72:284|32:212,1,150
32,144,258577,5,8,0:0:0:0:
48,120,258652,1,8,0:0:0:0:
72,104,258727,1,8,0:0:0:0:
104,96,258802,1,8,0:0:0:0:
136,96,258877,1,0,1:0:0:0:
168,96,258952,1,0,1:0:0:0:
200,96,259027,1,8,3:0:0:0:
232,88,259102,1,8,3:0:0:0:
256,80,259177,1,8,3:0:0:0:
280,88,259252,1,8,3:0:0:0:
312,96,259327,1,0,0:0:0:0:
344,96,259402,1,0,0:0:0:0:
376,96,259477,1,2,3:0:0:0:
408,96,259552,1,2,3:0:0:0:
440,104,259627,1,2,3:0:0:0:
464,120,259702,1,2,3:0:0:0:
480,144,259777,1,4,1:0:0:0:
