osu file format v12

[General]
AudioFilename: 09 - A Rose For Epona.mp3
AudioLeadIn: 0
PreviewTime: 216577
Countdown: 0
SampleSet: Soft
StackLeniency: 0.7
Mode: 0
LetterboxInBreaks: 1
WidescreenStoryboard: 0

[Editor]
DistanceSpacing: 0.8
BeatDivisor: 4
GridSize: 4
TimelineZoom: 1

[Metadata]
Title:A Rose for Epona
TitleUnicode:A Rose for Epona
Artist:Eluveitie
ArtistUnicode:Eluveitie
Creator:DexFrild
Version:Easy
Source:
Tags:AlexaBM switzerland suisse folk melodic death pagan celtic metal helvetios and touring 2012 chrigel glanzmann meri tadic merlin sutter rafael salzmann ivo henzi anna murphy kay brem patrick kistler mandola whistles pipes gaita acoustic guitar bodhran harp violin hurdy gurdy 2014 rock elu
BeatmapID:351357
BeatmapSetID:140301

[Difficulty]
HPDrainRate:2
CircleSize:3
OverallDifficulty:2
ApproachRate:3
SliderMultiplier:1.5
SliderTickRate:1

[Events]
//Background and Video events
0,0,"ELUVEITIE_BG.jpg",0,0
//Break Periods
2,48590,66337
2,154377,162337
2,192777,210337
//Storyboard Layer 0 (Background)
//Storyboard Layer 1 (Fail)
//Storyboard Layer 2 (Pass)
//Storyboard Layer 3 (Foreground)
//Storyboard Sound Samples
//Background Colour Transformations
3,100,0,0,0

[TimingPoints]
577,600,4,1,1,100,1,0
34777,-100,4,1,1,100,0,0
67777,-100,4,1,1,100,0,0
91777,-100,4,1,1,100,0,1
92377,-100,4,1,2,100,0,1
100177,-100,4,1,1,100,0,0
101377,-100,4,1,1,100,0,1
101977,-100,4,1,2,100,0,1
109777,-100,4,1,1,100,0,1
110977,-100,4,1,1,100,0,0
134977,-100,4,1,1,100,0,1
135577,-100,4,1,2,100,0,1
143377,-100,4,1,1,100,0,0
144577,-100,4,1,1,100,0,1
145177,-100,4,1,2,100,0,1
152977,-100,4,1,1,100,0,1
154177,-100,4,1,1,100,0,0
173377,-100,4,1,2,100,0,1
180577,-100,4,1,2,100,0,0
211777,-100,4,2,2,100,0,0
221377,-100,4,1,1,100,0,1
221977,-100,4,1,2,100,0,1
229777,-100,4,1,1,100,0,0
230977,-100,4,1,1,100,0,1
231577,-100,4,1,2,100,0,1
239377,-100,4,1,1,100,0,0
240577,-100,4,1,1,100,0,1
241177,-100,4,1,2,100,0,1
250177,-100,4,1,1,100,0,0
250777,-100,4,1,2,100,0,0
258577,-100,4,1,1,100,0,0

[Colours]
Combo1 : 187,87,28
Combo2 : 27,176,0
Combo3 : 7,114,184
Combo4 : 148,75,156
SliderBorder : 94,138,72

[HitObjects]
108,312,24577,6,0,B|132:232|212:216|212:216|296:232|360:168,1,300,4|0,0:0|0:0,0:0:0:0:
296,72,26377,1,8,0:0:0:0:
176,52,26977,2,0,P|112:84|92:164,2,150,0|8|0,0:0|0:0|0:0,0:0:0:0:
232,72,28477,1,0,0:0:0:0:
280,116,28777,6,0,P|332:168|416:180,1,150,8|0,0:0|0:0,0:0:0:0:
500,108,29977,1,8,0:0:0:0:
504,228,30577,2,0,P|456:288|380:292,1,150,0|8,0:0|0:0,0:0:0:0:
328,284,31477,1,8,0:0:0:0:
276,252,31777,6,0,P|228:216|132:228,1,150,0|8,0:0|0:0,0:0:0:0:
66,315,32977,1,8,0:0:0:0:
42,199,33577,2,0,P|42:159|58:107,2,75,4|0|4,0:0|0:0|0:0,0:0:0:0:
66,314,34777,6,0,P|196:262|191:122,1,300,8|8,0:0|0:0,0:0:0:0:
256,20,36577,1,0,0:0:0:0:
320,122,37177,2,0,P|315:262|445:314,1,300,8|8,0:0|0:0,0:0:0:0:
420,196,38977,5,0,0:0:0:0:
324,120,39577,2,0,P|384:76|464:80,2,150,8|0|8,0:0|0:0|0:0,0:0:0:0:
332,240,41377,2,0,P|272:296|192:292,1,150,0|8,0:0|0:0,0:0:0:0:
92,268,42577,2,0,P|88:228|112:188,1,75,8|0,0:0|0:0,0:0:0:0:
156,168,43177,2,0,P|192:179|232:174,1,75,8|2,3:0|3:0,0:0:0:0:
272,136,43777,5,4,0:0:0:0:
356,224,67777,6,0,B|384:194|420:192|420:192|444:172|452:112,2,150,4|8|0,0:0|0:0|0:0,0:0:0:0:
316,272,69277,2,0,P|284:292|244:300,1,75,0|8,0:0|0:0,0:0:0:0:
156,224,70177,6,0,B|128:194|92:192|92:192|68:172|60:112,2,150,0|8|0,0:0|0:0|0:0,0:0:0:0:
196,272,71677,2,0,P|228:292|268:300,1,75,0|8,0:0|0:0,0:0:0:0:
384,324,72577,6,0,P|382:251|336:193,1,150,0|8,0:0|0:0,0:0:0:0:
256,285,73777,1,0,0:0:0:0:
176,193,74377,2,0,P|130:251|129:325,2,150,8|0|8,0:0|0:0|0:0,0:0:0:0:
212,145,75877,1,0,0:0:0:0:
248,96,76177,2,0,P|176:67|100:92,1,150,0|8,0:0|0:0,0:0:0:0:
100,204,77377,6,0,B|148:268|220:292|220:292|296:292|380:244,1,300
404,208,78877,2,0,P|428:160|424:116,1,75,0|8,0:0|0:0,0:0:0:0:
320,84,79777,6,0,P|252:100|212:176,2,150,0|8|0,0:0|0:0|0:0,0:0:0:0:
376,100,81277,2,0,P|408:128|452:140,1,74.9999999999999,0|8,0:0|0:0,0:0:0:0:
496,244,82177,6,0,B|464:312|464:312|426:325|388:324,1,150,0|8,0:0|0:0,0:0:0:0:
340,288,83077,2,0,P|308:252|312:184,2,112.5,0|0|8,0:0|0:0|0:0,0:0:0:0:
236,348,84577,6,0,P|108:284|120:132,1,300
220,88,86377,2,0,P|252:80|292:52,2,74.9999999999999,8|8|4,0:0|0:0|0:0,0:0:0:0:
100,96,87577,6,0,P|68:144|76:240,1,150,8|0,0:0|0:0,0:0:0:0:
176,296,88777,1,0,0:0:0:0:
292,324,89377,2,0,P|360:308|400:236,2,150,0|8|4,0:0|0:0|0:0,0:0:0:0:
144,160,91777,5,4,0:0:0:0:
177,45,92377,2,0,P|248:88|260:155,2,150,12|4|12,0:0|0:0|0:0,0:0:0:0:
88,124,94177,6,0,B|76:158|83:199|83:199|106:233|147:250,1,150,4|12,0:0|0:0,0:0:0:0:
256,224,95377,2,0,L|256:132,2,75,4|0|12,0:0|0:0|0:0,0:0:0:0:
372,246,96577,6,0,B|405:233|428:199|428:199|435:158|424:124,1,150,4|12,0:0|0:0,0:0:0:0:
340,40,97777,2,0,P|303:50|272:80,2,75,4|0|12,0:0|0:0|0:0,0:0:0:0:
424,124,98977,2,4,P|388:188|312:224,1,150,4|12,0:0|0:0,0:0:0:0:
200,220,100177,6,0,P|204:264|220:292,2,75,8|0|8,3:0|0:0|3:0,0:0:0:0:
228,168,101077,2,0,P|224:136|208:96,1,75,0|4,3:0|0:0,0:0:0:0:
92,76,101977,6,0,P|52:128|72:212,2,150,12|4|12,0:0|0:0|0:0,0:0:0:0:
184,156,103777,2,4,P|256:176|328:156,1,150,4|12,0:0|0:0,0:0:0:0:
432,96,104977,2,0,P|448:128|447:168,2,75,4|0|12,0:0|0:0|0:0,0:0:0:0:
316,64,106177,6,0,P|256:112|268:188,1,150,4|12,0:0|0:0,0:0:0:0:
296,292,107377,2,4,P|256:300|208:280,2,75,4|0|12,0:0|0:0|0:0,0:0:0:0:
384,208,108577,2,4,P|256:140|128:208,1,300,4|8,0:0|0:0,0:0:0:0:
328,340,110977,5,4,0:0:0:0:
424,256,111577,2,0,B|362:200|284:221|284:221|196:150|268:69,1,300,8|8,0:0|0:0,0:0:0:0:
378,93,113377,6,0,P|351:117|316:139,2,75,0|0|8,0:0|0:0|0:0,0:0:0:0:
492,52,114577,2,0,P|492:132|432:200,1,150,0|8,0:0|0:0,0:0:0:0:
332,204,115777,5,0,0:0:0:0:
288,316,116377,2,8,P|156:280|180:144,1,300
289,97,118177,6,0,P|238:39|159:27,1,150,0|8,0:0|0:0,0:0:0:0:
60,76,119377,1,0,0:0:0:0:
40,196,119977,2,0,P|40:236|56:280,2,75,8|8|0,0:0|0:0|0:0,0:0:0:0:
140,128,121177,6,0,P|196:176|284:168,1,150,8|0,0:0|0:0,0:0:0:0:
352,88,122377,1,8,0:0:0:0:
460,140,122977,6,0,B|468:216|468:216|432:232|400:272,1,150,0|8,0:0|0:0,0:0:0:0:
296,300,124177,2,0,P|256:308|212:296,2,75,0|0|8,0:0|0:0|0:0,0:0:0:0:
324,184,125377,6,0,P|256:156|176:200,1,150,0|8,0:0|0:0,0:0:0:0:
124,284,126577,2,0,B|44:264|36:176|36:176|120:152|144:48,1,300
256,52,128377,5,8,0:0:0:0:
375,73,128977,2,0,P|416:140|476:176,1,150,0|8,0:0|0:0,0:0:0:0:
256,192,130177,12,0,133777,0:0:0:0:
344,100,134977,6,0,P|412:128|440:196,1,150,4|12,0:0|0:0,0:0:0:0:
356,280,136177,1,4,0:0:0:0:
256,344,136777,1,12,0:0:0:0:
156,280,137377,6,0,B|145:190|66:174|66:174|64:81|144:45,1,300,4|4,0:0|0:0,0:0:0:0:
256,60,139177,1,12,0:0:0:0:
377,50,139777,6,0,B|447:81|448:168|448:168|366:190|356:280,1,300,4|4,0:0|0:0,0:0:0:0:
476,284,141577,1,12,0:0:0:0:
384,360,142177,2,0,B|312:352|312:352|288:312|232:296,1,150,4|12,0:0|0:0,0:0:0:0:
132,308,143377,6,0,B|90:294|72:263|72:263|75:222|65:189|65:189|92:169|112:133|112:133|147:119|188:133,1,300,8|4,0:0|0:0,0:0:0:0:
256,232,145177,6,0,P|328:224|384:152,1,150,12|4,0:0|0:0,0:0:0:0:
320,64,146377,1,12,0:0:0:0:
200,48,146977,2,4,B|160:60|128:56|128:56|112:96|128:152,1,150,4|12,0:0|0:0,0:0:0:0:
123,252,148177,2,0,B|112:288|128:328|128:328|160:324|200:336,1,150,4|12,0:0|0:0,0:0:0:0:
320,324,149377,6,4,B|336:245|406:207|406:207|424:128|372:64,1,300
256,44,151177,1,12,0:0:0:0:
136,60,151777,2,4,P|168:132|244:164,1,150,4|12,0:0|0:0,0:0:0:0:
344,132,152977,6,0,B|383:119|418:133|418:133|438:169|465:189|465:189|455:222|458:263|458:263|440:294|399:308,1,300,8|4,0:0|0:0,0:0:0:0:
152,232,163777,6,0,P|92:192|84:120,1,150,0|8,0:0|0:0,0:0:0:0:
188,60,164977,2,0,B|256:92|256:92|324:60,1,150,0|8,0:0|0:0,0:0:0:0:
427,119,166177,2,0,P|420:191|360:232,1,150,0|8,0:0|0:0,0:0:0:0:
256,296,167377,2,0,L|256:376,2,75,0|0|8,0:0|0:0|0:0,0:0:0:0:
140,268,168577,6,8,B|64:276|24:192|24:192|64:108|160:120,1,300,0|8,0:0|0:0,0:0:0:0:
256,76,170377,1,8,0:0:0:0:
368,120,170977,2,8,B|449:110|489:194|489:194|449:278|373:270,1,300
256,292,172777,1,8,3:0:0:0:
256,192,173377,12,4,178177,0:0:0:0:
324,280,179377,6,4,P|256:304|184:280,1,150,4|12,0:0|0:0,0:0:0:0:
104,192,180577,1,4,0:0:0:0:
152,80,181177,1,12,0:0:0:0:
256,136,181777,1,12,0:0:0:0:
360,80,182377,2,8,P|388:108|412:160,2,75,12|8|4,0:0|0:0|0:0,0:0:0:0:
292,180,183577,6,4,P|304:252|384:268,1,150,12|4,0:0|0:0,0:0:0:0:
448,180,184777,1,12,0:0:0:0:
352,108,185377,2,4,P|284:84|216:128,1,150,4|12,0:0|0:0,0:0:0:0:
168,228,186577,2,4,P|120:284|40:288,1,150,4|12,0:0|0:0,0:0:0:0:
24,236,187477,1,8,3:0:0:0:
32,176,187777,6,4,B|52:104|52:104|92:104|152:72,1,150,4|12,0:0|0:0,0:0:0:0:
240,60,188977,2,4,P|320:92|348:152,1,150,4|12,0:0|0:0,0:0:0:0:
256,192,190177,12,4,192577,0:0:0:0:
320,276,211777,6,0,P|372:220|348:136,1,150,0|8,0:0|0:0,0:0:0:0:
256,92,212977,2,0,L|256:0,2,75,0|0|8,0:0|0:0|0:0,0:0:0:0:
150,152,214177,6,0,P|141:224|192:276,1,150,0|8,0:0|0:0,0:0:0:0:
312,268,215377,1,0,0:0:0:0:
404,192,215977,1,8,0:0:0:0:
424,312,216577,5,0,0:0:0:0:
312,268,217177,2,0,P|240:248|152:264,1,150,8|0,0:0|0:0,0:0:0:0:
72,332,218377,1,8,0:0:0:0:
24,224,218977,6,0,B|24:148|24:148|88:104,1,150,0|8,0:0|0:0,0:0:0:0:
204,104,220177,2,0,P|243:116|280:140,1,75
324,168,220777,1,8,0:0:0:0:
368,284,221377,6,4,P|432:248|448:160,2,150,4|12|4,0:0|0:0|0:0,0:0:0:0:
256,328,223177,1,12,0:0:0:0:
144,284,223777,2,4,P|80:248|64:160,1,150,4|12,0:0|0:0,0:0:0:0:
124,76,224977,6,0,P|180:88|212:108,1,75,4|0,0:0|0:0,0:0:0:0:
256,108,225577,1,12,0:0:0:0:
316,96,225877,2,0,P|350:81|388:76,1,75,0|4,0:0|0:0,0:0:0:0:
436,184,226777,2,4,P|376:228|296:224,2,150,12|4|12,0:0|0:0|0:0,0:0:0:0:
452,64,228577,6,0,L|376:32,2,75,4|0|12,0:0|0:0|0:0,0:0:0:0:
468,184,229777,2,0,B|460:228|428:244|428:244|428:284|400:312|400:312|356:316|332:288|332:288|288:288|264:252,1,300,8|4,0:0|0:0,0:0:0:0:
276,136,231577,6,4,P|228:72|148:60,1,150,12|4,0:0|0:0,0:0:0:0:
100,160,232777,1,12,0:0:0:0:
44,264,233377,2,4,P|92:320|188:312,1,150,4|12,0:0|0:0,0:0:0:0:
256,244,234577,2,0,L|256:148,2,75,4|0|12,0:0|0:0|0:0,0:0:0:0:
347,324,235777,6,4,P|420:319|468:264,1,150,4|12,0:0|0:0,0:0:0:0:
428,152,236977,2,4,B|404:128|361:125|361:125|316:64,1,150,4|12,0:0|0:0,0:0:0:0:
196,64,238177,2,4,B|150:125|150:125|108:128|84:152,1,150,4|12,0:0|0:0,0:0:0:0:
124,268,239377,2,0,P|256:332|396:248,1,300,8|4,0:0|0:0,0:0:0:0:
328,160,241177,6,4,B|288:160|256:140|256:140|224:160|176:160,1,150,12|4,0:0|0:0,0:0:0:0:
92,232,242377,2,4,P|128:296|216:324,1,150,12|4,0:0|0:0,0:0:0:0:
316,324,243577,2,0,P|383:295|420:231,1,150,12|4,0:0|0:0,0:0:0:0:
352,132,244777,2,0,P|384:92|420:72,2,75,12|0|4,0:0|0:0|0:0,0:0:0:0:
256,204,245977,1,12,0:0:0:0:
160,132,246577,2,0,P|128:92|92:72,2,75,4|0|12,0:0|0:0|0:0,0:0:0:0:
132,248,247777,6,4,B|148:292|176:304|176:304|252:284,1,150,4|12,0:0|0:0,0:0:0:0:
364,252,248977,2,4,P|324:187|246:168,1,150,12|12,0:0|0:0,0:0:0:0:
140,188,250177,5,4,0:0:0:0:
128,308,250777,2,0,P|64:288|24:216,1,150,12|4,0:0|0:0,0:0:0:0:
76,112,251977,1,12,0:0:0:0:
188,72,252577,6,4,P|256:100|328:68,1,150,4|12,0:0|0:0,0:0:0:0:
424,136,253777,1,4,0:0:0:0:
488,236,254377,1,12,0:0:0:0:
420,336,254977,6,0,P|344:332|304:268,1,150,4|12,0:0|0:0,0:0:0:0:
256,164,256177,2,0,L|256:64,2,75,4|0|12,0:0|0:0|0:0,0:0:0:0:
207,275,257377,2,4,P|164:334|92:336,1,150,4|12,0:0|0:0,0:0:0:0:
128,220,258577,6,0,P|256:152|384:220,1,300,8|4,0:0|0:0,0:0:0:0:
