osu file format v5

[General]
AudioFilename: Elton John - The Bitch Is Back.mp3
AudioLeadIn: 0
PreviewTime: -1
Countdown: 1
SampleSet: Normal
StackLeniency: 1
Mode: 0
LetterboxInBreaks: 1

[Metadata]
Title:The Bitch Is Back
Artist:Elton John
Creator:ButtMaster69
Version:
Source:
Tags:

[Difficulty]
HPDrainRate:5
CircleSize:7
OverallDifficulty:6
SliderMultiplier:1.4
SliderTickRate:1

[Events]
//Background and Video events
//Break Periods
2,71700,84925
2,118825,124675
//Storyboard Layer 0 (Background)
//Storyboard Layer 1 (Failing)
//Storyboard Layer 2 (Passing)
//Storyboard Layer 3 (Foreground)
//Storyboard Sound Samples
//Background Colour Transformations
3,100,108,255,0

[TimingPoints]
0,996.652,4,1,0,100,1
0,1000,4,1,0,100,1

[Colours]
Combo1 : 184,250,250
Combo2 : 243,1,225
Combo3 : 146,24,186
Combo4 : 245,198,7

[HitObjects]
128,160,17441,1,0
224,160,18188,1,0
320,160,19185,1,0
320,256,19683,1,0
160,224,21054,1,0
224,192,21801,1,0
288,192,22424,1,0
320,160,22922,1,0
320,128,23296,1,0
128,160,24667,5,0
224,160,25125,5,0
320,192,25625,1,0
256,224,26125,1,0
256,160,26500,1,0
192,160,27250,1,0
128,192,27875,1,0
128,256,28375,1,0
192,256,28750,1,0
224,256,29250,1,0
288,256,29750,1,0
352,256,30250,1,0
256,192,31250,1,0
256,192,31500,1,0
256,192,31750,1,0
128,192,39250,5,0
192,192,39625,1,0
256,192,40125,1,0
320,192,40875,1,0
384,192,41375,1,0
448,192,41875,1,0
96,96,42875,5,0
160,96,43625,1,0
224,96,44250,1,0
288,96,44625,1,0
352,96,45125,1,0
256,352,46375,5,0
256,288,47125,1,0
256,224,47750,1,0
256,192,48125,1,0
256,160,48625,1,0
256,128,49000,1,0
64,192,49625,1,0
128,192,50125,1,0
192,192,50500,1,0
256,192,51125,1,0
320,192,51500,1,0
384,192,51875,1,0
448,192,52625,1,0
256,192,53125,5,0
256,192,53250,1,0
256,192,53500,1,0
96,192,56875,5,0
96,192,57125,1,0
96,192,57250,1,0
160,192,57750,1,0
160,192,58000,1,0
160,192,58250,1,0
224,192,58625,1,0
224,192,58875,1,0
224,192,59125,1,0
224,192,59375,1,0
288,192,59750,1,0
160,192,60250,6,0,B|0:160,3,157.5
96,192,64125,5,0
160,192,64500,1,0
224,192,65000,1,0
288,192,65500,1,0
352,192,65875,1,0
256,128,66375,1,0
256,192,67000,1,0
96,192,67750,5,0
160,192,68125,1,0
224,192,68625,1,0
288,128,70000,5,0
288,192,70625,1,0
192,192,71125,1,0
192,192,71250,1,0
192,192,71500,1,0
128,192,86125,5,0
128,192,86625,1,0
128,192,86875,1,0
384,192,87750,1,0
384,192,88000,1,0
384,192,88250,1,0
384,192,88500,1,0
256,128,89750,5,0
256,192,90250,1,0
256,256,90500,1,0
256,256,91500,5,0
256,192,91875,1,0
256,128,92125,1,0
128,192,93500,5,0
192,192,94125,1,0
256,192,94625,1,0
320,192,95000,1,0
384,192,95500,1,0
256,192,96000,1,0
160,192,96625,5,0
224,192,97125,1,0
288,192,97500,1,0
352,192,98000,1,0
256,256,98375,1,0
256,192,98875,1,0
256,192,99914,1,0
256,192,100163,1,0
256,192,100412,1,0
96,192,103776,5,0
96,192,104025,1,0
96,192,104274,1,0
448,192,104648,1,0
448,192,104897,1,0
448,192,105146,1,0
288,192,105645,1,0
288,192,105894,1,0
288,192,106143,1,0
224,192,106766,1,0
96,192,107000,6,0,B|192:192,5,87.5
256,192,110379,1,0
128,192,111375,1,0
192,192,111874,1,0
256,192,112372,1,0
320,192,112870,1,0
352,192,113369,1,0
416,192,113742,1,0
128,224,114614,1,0
192,224,115113,1,0
256,224,115487,1,0
320,224,115985,1,0
384,224,116359,1,0
384,160,116857,1,0
320,160,117355,1,0
224,160,117729,1,0
128,160,118227,1,0
256,192,125875,12,0,129625
256,192,132625,12,0,136500
256,192,137911,12,0,139780
256,192,143375,5,0
256,192,143625,1,0
256,192,143875,1,0
192,192,144375,1,0
192,192,144500,1,0
192,192,144750,1,0
320,192,145125,1,0
320,192,145375,1,0
320,192,145625,1,0
320,192,145875,1,0
320,192,146250,1,0
96,192,147375,2,0,B|320:192,2,210
64,128,150619,5,0
64,128,150743,1,0
64,128,150992,1,0
288,128,151491,1,0
288,128,151740,1,0
288,128,151864,1,0
192,224,152363,1,0
192,224,152612,1,0
192,224,152861,1,0
192,224,153110,1,0
192,224,153235,1,0
192,224,153484,1,0
64,128,154125,5,0
128,128,154500,1,0
192,128,155000,1,0
256,128,155500,1,0
320,128,156000,1,0
384,128,156500,1,0
384,192,156875,1,0
384,256,157375,1,0
384,320,157500,5,0
384,320,157625,1,0
384,320,157875,1,0
