osu file format v5

[General]
AudioFilename: Elton John - The Bitch Is Back.mp3
AudioLeadIn: 0
PreviewTime: -1
Countdown: 1
SampleSet: Normal
StackLeniency: 1
Mode: 0
LetterboxInBreaks: 1

[Metadata]
Title:The Bitch Is Back
Artist:Elton John
Creator:ButtMaster69
Version:Hard
Source:
Tags:

[Difficulty]
HPDrainRate:10
CircleSize:10
OverallDifficulty:10
SliderMultiplier:1.4
SliderTickRate:1

[Events]
//Background and Video events
//Break Periods
2,71700,84925
2,118825,124675
//Storyboard Layer 0 (Background)
//Storyboard Layer 1 (Failing)
//Storyboard Layer 2 (Passing)
//Storyboard Layer 3 (Foreground)
//Storyboard Sound Samples
//Background Colour Transformations
3,100,108,255,0

[TimingPoints]
0,996.652,4,1,0,100,1
0,1000,4,1,0,100,1

[Colours]
Combo1 : 184,250,250
Combo2 : 243,1,225
Combo3 : 146,24,186
Combo4 : 245,198,7

[HitObjects]
128,160,17441,1,0
224,160,18188,1,0
320,160,19185,1,0
320,224,19310,1,0
320,256,19683,1,0
160,224,21054,1,0
256,224,21801,1,0
288,192,22424,1,0
320,160,22922,1,0
320,128,23296,1,0
128,160,24667,5,0
192,192,24916,1,0
224,160,25125,5,0
320,192,25625,1,0
256,224,26125,1,0
256,160,26500,1,0
192,160,27250,1,0
128,192,27875,1,0
128,256,28375,1,0
192,256,28750,1,0
224,256,29250,1,0
288,256,29750,1,0
352,256,30250,1,0
256,192,31250,1,0
256,192,31500,1,0
256,192,31750,1,0
128,192,39250,5,0
192,192,39625,1,0
256,192,40125,1,0
320,192,40875,1,0
384,192,41375,1,0
448,192,41875,1,0
96,96,42875,5,0
160,96,43625,1,0
224,96,44250,1,0
288,96,44625,1,0
352,96,45125,1,0
384,96,45223,1,0
256,352,46375,5,0
256,288,47125,1,0
320,256,47714,1,0
256,224,47750,1,0
352,224,47839,1,0
352,160,47963,1,0
256,192,48125,1,0
128,128,48213,1,0
128,192,48586,1,0
256,160,48625,1,0
128,224,48711,1,0
160,288,48835,1,0
256,128,49000,1,0
256,288,49085,1,0
64,192,49625,1,0
128,192,50125,1,0
192,192,50500,1,0
384,128,50829,1,0
384,160,50953,1,0
288,192,51078,1,0
256,192,51125,1,0
96,192,51327,1,0
160,128,51452,1,0
320,192,51500,1,0
224,96,51701,1,0
320,96,51825,1,0
384,192,51875,1,0
384,192,51950,1,0
352,352,52199,1,0
224,320,52448,1,0
96,288,52573,1,0
448,192,52625,1,0
96,288,52697,1,0
128,160,53071,1,0
256,192,53125,5,0
192,160,53196,1,0
256,192,53250,1,0
224,224,53320,1,0
224,256,53445,1,0
256,192,53500,1,0
320,256,53694,1,0
224,160,55563,1,0
192,192,55937,1,0
96,192,56310,1,0
160,128,56435,1,0
224,128,56560,1,0
288,128,56809,1,0
96,192,56875,5,0
320,160,56933,1,0
96,192,57125,1,0
320,256,57182,1,0
96,192,57250,1,0
256,288,57307,1,0
160,192,57750,1,0
160,288,57805,1,0
160,192,58000,1,0
128,256,58054,1,0
160,192,58250,1,0
224,192,58625,1,0
256,192,58677,1,0
224,192,58875,1,0
288,224,59051,1,0
224,192,59125,1,0
352,224,59300,1,0
224,192,59375,1,0
352,224,59549,1,0
288,192,59750,1,0
352,192,59799,1,0
160,128,60671,1,0
160,160,60920,1,0
160,224,61044,1,0
352,256,61667,1,0
384,160,62041,1,0
352,128,62166,1,0
256,128,62290,1,0
256,160,62539,1,0
256,160,62664,1,0
288,256,62789,1,0
288,288,62913,1,0
224,288,63038,1,0
128,320,63162,1,0
96,320,63411,1,0
128,288,63536,1,0
160,192,60250,6,0,B|0:160,3,157.5
192,256,63661,1,0
320,224,63910,1,0
416,224,64034,1,0
96,192,64125,5,0
384,160,64159,1,0
288,128,64408,1,0
160,192,64500,1,0
224,128,64533,1,0
160,128,64657,1,0
128,160,64782,1,0
224,192,65000,1,0
96,288,65156,1,0
192,288,65280,1,0
256,288,65405,1,0
288,192,65500,1,0
288,256,65654,1,0
288,256,65779,1,0
352,192,65875,1,0
256,224,65903,1,0
192,256,66028,1,0
192,256,66152,1,0
256,128,66375,1,0
192,256,66401,1,0
256,256,66526,1,0
256,256,66651,1,0
352,256,66775,1,0
256,192,67000,1,0
384,256,67024,1,0
384,256,67149,1,0
256,320,67523,1,0
192,320,67647,1,0
96,192,67750,5,0
128,288,67772,1,0
128,288,68021,1,0
160,192,68125,1,0
160,288,68146,1,0
192,256,68270,1,0
224,256,68519,1,0
224,192,68625,1,0
320,256,68893,1,0
288,160,69142,1,0
256,128,69391,1,0
160,96,69516,1,0
160,96,69641,1,0
128,96,69765,1,0
96,160,69890,1,0
288,128,70000,5,0
96,192,70014,1,0
128,224,70263,1,0
160,256,70388,1,0
224,288,70513,1,0
288,192,70625,1,0
288,288,70762,1,0
352,256,70886,1,0
384,224,71011,1,0
192,192,71125,1,0
192,192,71250,1,0
384,192,71260,1,0
192,192,71500,1,0
384,192,71509,1,0
288,160,71634,1,0
256,96,71758,1,0
224,96,72008,1,0
160,128,72132,1,0
128,128,72257,1,0
128,160,72381,1,0
128,192,72506,1,0
160,224,72755,1,0
224,224,72880,1,0
288,224,73004,1,0
320,224,73253,1,0
384,192,73378,1,0
352,160,73752,1,0
256,160,73876,1,0
224,160,74001,1,0
224,160,74125,1,0
256,192,74250,1,0
256,224,74499,1,0
192,256,74624,1,0
160,224,74873,1,0
160,192,74998,1,0
160,160,75247,1,0
224,128,75371,1,0
288,128,75496,1,0
352,160,75745,1,0
384,224,75994,1,0
288,288,76243,1,0
192,288,76368,1,0
96,288,76493,1,0
64,224,76742,1,0
96,160,76866,1,0
96,160,76991,1,0
128,128,77240,1,0
192,128,77365,1,0
224,128,77489,1,0
256,160,77614,1,0
288,160,77863,1,0
288,192,77988,1,0
192,256,78237,1,0
128,256,78361,1,0
96,256,78486,1,0
128,224,78610,1,0
160,192,78860,1,0
224,192,78984,1,0
224,192,83469,1,0
256,192,83718,1,0
256,192,83843,1,0
256,192,84092,1,0
224,192,84590,1,0
224,192,84715,1,0
224,192,84840,1,0
224,192,84964,5,0
192,192,85089,1,0
192,192,85213,1,0
192,192,85462,1,0
192,192,85587,1,0
192,192,85712,1,0
192,192,85836,1,0
224,256,86085,1,0
128,192,86125,5,0
256,256,86334,1,0
128,192,86625,1,0
256,256,86708,1,0
256,256,86833,1,0
128,192,86875,1,0
256,256,86957,1,0
224,256,87705,1,0
384,192,87750,1,0
384,192,88000,1,0
224,256,88079,1,0
384,192,88250,1,0
224,256,88328,1,0
224,256,88452,1,0
384,192,88500,1,0
224,256,88577,1,0
224,256,88702,1,0
224,256,88826,1,0
224,256,89200,1,0
224,256,89324,1,0
224,256,89698,1,0
256,128,89750,5,0
224,256,89823,1,0
288,256,90072,1,0
384,256,90197,1,0
256,192,90250,1,0
416,160,90321,1,0
256,256,90500,1,0
96,64,90695,1,0
64,96,90819,1,0
160,224,91069,1,0
160,256,91193,1,0
224,256,91318,1,0
256,256,91500,5,0
384,128,91691,1,0
416,160,91816,1,0
256,192,91875,1,0
416,288,91941,1,0
256,128,92125,1,0
288,320,92190,1,0
160,320,92314,1,0
128,224,92439,1,0
192,96,92813,1,0
416,96,93062,1,0
448,160,93186,1,0
448,256,93436,1,0
128,192,93500,5,0
352,256,93560,1,0
320,288,93685,1,0
288,288,93809,1,0
224,288,94059,1,0
192,192,94125,1,0
64,224,94432,1,0
96,128,94557,1,0
256,192,94625,1,0
352,32,94931,1,0
320,192,95000,1,0
384,32,95055,1,0
320,96,95180,1,0
224,160,95429,1,0
384,192,95500,1,0
192,192,95554,1,0
160,288,95927,1,0
256,192,96000,1,0
224,288,96052,1,0
288,256,96301,1,0
416,192,96550,1,0
160,192,96625,5,0
384,128,96799,1,0
384,128,96924,1,0
224,192,97125,1,0
320,96,97173,1,0
224,96,97298,1,0
160,96,97422,1,0
288,192,97500,1,0
128,160,97547,1,0
96,256,97671,1,0
352,192,98000,1,0
256,288,98170,1,0
256,256,98375,1,0
288,320,98419,1,0
352,288,98543,1,0
416,256,98793,1,0
256,192,98875,1,0
416,192,98917,1,0
416,128,99166,1,0
352,64,99291,1,0
288,64,99540,1,0
192,96,99665,1,0
160,96,99914,1,0
128,96,100038,1,0
256,192,100163,1,0
128,128,100288,1,0
160,224,100412,1,0
224,256,100786,1,0
320,256,101035,1,0
352,256,101160,1,0
352,224,101409,1,0
96,192,103776,5,0
96,192,104025,1,0
96,192,104274,1,0
448,192,104648,1,0
448,192,104897,1,0
448,192,105146,1,0
288,192,105645,1,0
288,192,105894,1,0
288,192,106143,1,0
256,160,106392,1,0
192,160,106641,1,0
128,128,106766,1,0
96,128,106890,1,0
224,352,107264,1,0
288,320,107389,1,0
352,288,107513,1,0
384,160,107887,1,0
320,128,108012,1,0
224,128,108136,1,0
224,128,108385,1,0
192,128,108510,1,0
160,96,108635,1,0
128,96,109008,1,0
128,96,109133,1,0
128,96,109382,1,0
128,96,109507,1,0
128,96,109631,1,0
128,96,109880,1,0
128,96,110005,1,0
96,192,107000,6,0,B|192:192,5,87.5
128,96,110130,1,0
128,96,110254,1,0
256,192,110379,1,0
128,96,110503,1,0
128,96,110628,1,0
128,96,110752,1,0
128,96,111002,1,0
128,96,111126,1,0
128,96,111251,1,0
128,96,111375,1,0
128,96,111500,1,0
128,96,111749,1,0
128,96,111874,1,0
128,96,111998,1,0
128,96,112123,1,0
128,96,112372,1,0
320,160,112621,1,0
384,160,112870,1,0
448,160,112995,1,0
352,192,113369,1,0
256,288,113493,1,0
192,288,113742,1,0
160,256,113867,1,0
128,224,113992,1,0
128,192,114241,1,0
224,96,114614,1,0
288,96,114739,1,0
320,64,114864,1,0
352,96,115113,1,0
384,192,115362,1,0
256,224,115487,1,0
416,288,115736,1,0
320,224,115985,1,0
256,320,116109,1,0
384,224,116359,1,0
128,256,116483,1,0
96,224,116732,1,0
96,160,116857,1,0
64,128,116982,1,0
96,128,117231,1,0
96,96,117355,1,0
192,64,117604,1,0
256,64,117729,1,0
288,64,117854,1,0
352,96,118103,1,0
384,96,118227,1,0
384,128,118352,1,0
416,160,118477,1,0
448,192,118726,1,0
416,256,119224,1,0
288,256,119349,1,0
128,288,119598,1,0
96,288,119722,1,0
64,288,119971,1,0
64,192,120221,1,0
128,160,120594,1,0
160,128,120844,1,0
192,128,120968,1,0
256,160,121217,1,0
288,160,121342,1,0
352,160,121591,1,0
352,160,121840,1,0
416,160,121965,1,0
416,192,122214,1,0
416,192,122339,1,0
416,224,122588,1,0
416,256,122961,1,0
384,288,123211,1,0
224,288,125578,5,0
224,288,125951,1,0
192,288,126076,1,0
160,288,126325,1,0
160,288,126574,1,0
128,256,126699,1,0
192,160,126948,1,0
288,128,127073,1,0
416,160,127197,1,0
384,288,127446,1,0
320,320,127571,1,0
224,256,127820,1,0
256,128,128194,1,0
320,128,128318,1,0
384,224,128443,1,0
320,288,128692,1,0
192,288,128817,1,0
160,96,129066,1,0
224,128,129315,1,0
288,192,129440,1,0
320,256,129564,1,0
256,192,125875,12,0,129625
160,256,129938,1,0
256,160,130436,1,0
320,192,130685,1,0
256,288,130810,1,0
192,256,130935,1,0
288,128,131308,1,0
352,192,131558,1,0
128,224,131682,1,0
192,96,132056,1,0
256,160,132180,1,0
288,256,132305,1,0
160,288,132554,1,0
320,96,135544,1,0
384,256,135793,1,0
320,224,136042,1,0
256,192,136167,1,0
256,192,136416,1,0
256,192,132625,12,0,136500
256,192,136541,1,0
256,192,136790,1,0
256,192,136915,1,0
256,192,137039,1,0
256,192,137288,1,0
256,192,137413,1,0
256,192,137662,1,0
256,192,137911,1,0
256,192,138036,1,0
256,192,138160,1,0
256,192,138285,1,0
256,192,138534,1,0
256,192,138783,1,0
256,192,139032,1,0
256,192,139157,1,0
256,192,139282,1,0
256,192,139406,1,0
256,192,139655,1,0
256,192,139780,1,0
256,192,139905,1,0
256,192,140154,1,0
256,192,140278,1,0
256,192,140403,1,0
256,192,140652,1,0
256,192,140777,1,0
256,192,140901,1,0
256,192,141026,1,0
256,192,141275,1,0
256,192,141400,1,0
256,192,141524,1,0
256,192,141773,1,0
256,192,142147,1,0
256,192,142272,1,0
256,192,142396,1,0
256,192,142521,1,0
256,192,142894,1,0
256,192,143019,1,0
256,192,143375,5,0
256,192,143393,1,0
256,192,143517,1,0
256,192,143625,1,0
256,192,143642,1,0
256,192,143767,1,0
256,192,143875,1,0
256,192,143891,1,0
256,192,144140,1,0
256,192,144265,1,0
192,192,144375,1,0
256,192,144389,1,0
192,192,144500,1,0
256,192,144639,1,0
192,192,144750,1,0
256,192,144763,1,0
256,192,144888,1,0
256,192,145012,1,0
320,192,145125,1,0
256,192,145262,1,0
320,192,145375,1,0
256,192,145386,1,0
256,192,145511,1,0
320,192,145625,1,0
256,192,145760,1,0
320,192,145875,1,0
256,192,145884,1,0
256,192,146009,1,0
256,192,146134,1,0
320,192,146250,1,0
256,192,146383,1,0
256,192,146507,1,0
256,192,146632,1,0
256,192,146881,1,0
256,192,147006,1,0
256,192,147130,1,0
256,192,147379,1,0
256,192,147504,1,0
320,256,147878,1,0
352,288,148002,1,0
192,320,148376,1,0
192,320,148501,1,0
192,320,148750,1,0
192,320,148874,1,0
192,320,148999,1,0
224,320,149373,1,0
224,320,149497,1,0
320,320,149622,1,0
448,224,149871,1,0
448,192,149996,1,0
448,128,150120,1,0
384,96,150369,1,0
96,192,147375,2,0,B|320:192,2,210
320,64,150494,1,0
288,64,150619,1,0
64,128,150743,1,0
288,64,150868,1,0
288,64,150992,1,0
288,64,151117,1,0
224,128,151366,1,0
192,160,151491,1,0
160,192,151740,1,0
192,224,151864,1,0
288,224,151989,1,0
320,224,152238,1,0
192,224,152363,1,0
384,160,152612,1,0
384,160,152736,1,0
384,160,152861,1,0
352,128,152986,1,0
352,128,153110,1,0
320,128,153235,1,0
256,160,153359,1,0
192,224,153484,1,0
224,160,153608,1,0
224,160,153733,1,0
224,160,154107,1,0
64,128,154125,5,0
256,96,154481,1,0
128,128,154500,1,0
288,96,154730,1,0
352,128,154854,1,0
352,160,154979,1,0
192,128,155000,1,0
352,192,155228,1,0
256,192,155353,1,0
224,224,155477,1,0
256,128,155500,1,0
192,224,155726,1,0
160,224,155851,1,0
128,224,155976,1,0
320,128,156000,1,0
96,192,156100,1,0
96,160,156349,1,0
96,96,156474,1,0
384,128,156500,1,0
96,96,156598,1,0
96,96,156723,1,0
128,96,156848,1,0
384,192,156875,1,0
160,96,157097,1,0
160,128,157221,1,0
160,160,157346,1,0
384,256,157375,1,0
160,192,157471,1,0
384,320,157500,5,0
384,320,157625,1,0
160,192,157720,1,0
192,224,157844,1,0
384,320,157875,1,0
256,224,157969,1,0
256,192,158218,1,0
256,160,158716,1,0
224,160,158841,1,0
224,160,158965,1,0
192,160,159215,1,0
192,160,159464,1,0
160,128,159588,1,0
160,128,159713,1,0
192,128,159962,1,0
224,128,160211,1,0
288,128,160460,1,0
288,160,160585,1,0
288,160,160710,1,0
256,192,160834,1,0
256,192,160959,1,0
224,192,161208,1,0
224,192,161333,1,0
224,192,161457,1,0
224,192,161706,1,0
224,192,161831,1,0
224,192,161955,1,0
224,192,162205,1,0
224,192,162329,1,0
256,192,162454,1,0
320,160,162578,1,0
320,160,162828,1,0
256,128,163077,1,0
256,160,163575,1,0
256,160,163949,1,0
256,160,164198,1,0
160,160,164322,1,0
160,160,164447,1,0
160,160,164572,1,0
160,160,164696,1,0
160,160,164945,1,0
160,160,165195,1,0
160,160,165319,1,0
160,160,165444,1,0
160,160,165568,1,0
160,160,165817,1,0
160,160,165942,1,0
160,160,166191,1,0
160,160,166440,1,0
160,160,166565,1,0
160,160,166690,1,0
160,160,166814,1,0
160,160,167063,1,0
160,160,167188,1,0
160,160,167312,1,0
160,160,167437,1,0
256,160,168309,1,0
320,160,168558,1,0
320,160,168683,1,0
352,160,168932,1,0
352,192,169057,1,0
384,192,169181,1,0
352,224,169430,1,0
288,224,169555,1,0
224,192,170801,1,0
224,192,170925,1,0
192,192,171174,1,0
128,192,171424,1,0
192,288,172420,1,0
224,288,173292,1,0
192,192,175037,1,0
224,192,175286,1,0
256,192,175909,1,0
288,192,176407,1,0
320,192,176781,1,0
320,192,177279,1,0
352,192,177777,1,0
352,192,178400,1,0
256,192,197586,1,0
256,192,197960,1,0
256,192,198209,1,0
256,192,198458,1,0
256,192,198582,1,0
256,192,198956,1,0
256,192,199205,1,0
256,192,199330,1,0
256,192,199704,1,0
256,192,199953,1,0
256,192,200327,1,0
256,192,200451,1,0
256,192,200700,1,0
256,192,200949,1,0
256,192,201199,1,0
256,192,201323,1,0
256,192,201822,1,0
256,192,201946,1,0
256,192,202071,1,0
256,192,202320,1,0
256,192,202444,1,0
256,192,202818,1,0
256,192,203067,1,0
256,192,203192,1,0
256,192,203441,1,0
256,192,203815,1,0
256,192,204189,1,0
256,192,204313,1,0
256,192,204562,1,0
256,192,204811,1,0
256,192,205061,1,0
192,256,225750,1,0
