osu file format v11

[General]
AudioFilename: Your Song.mp3
AudioLeadIn: 0
PreviewTime: 65439
Countdown: 1
SampleSet: None
StackLeniency: 0.7
Mode: 0
LetterboxInBreaks: 1

[Editor]
DistanceSpacing: 0.9
BeatDivisor: 4
GridSize: 4

[Metadata]
Title:Your Song
TitleUnicode:Your Song
Artist:Ellie Goulding
ArtistUnicode:Ellie Goulding
Creator:noneed
Version:Hard
Source:
Tags:Elton John
BeatmapID:210573
BeatmapSetID:74060

[Difficulty]
HPDrainRate:7
CircleSize:5
OverallDifficulty:6
ApproachRate:7
SliderMultiplier:1.6
SliderTickRate:1

[Events]
//Background and Video events
Video,0,"Ellie Goulding 'Your Song'.flv"
0,0,"Ellie.jpg"
//Break Periods
2,126093,135739
//Storyboard Layer 0 (Background)
//Storyboard Layer 1 (Fail)
//Storyboard Layer 2 (Pass)
//Storyboard Layer 3 (Foreground)
//Storyboard Sound Samples
//Background Colour Transformations
3,100,163,162,255

[TimingPoints]
520,447.761194029851,4,2,0,50,1,0
84709,-133.333333333333,4,2,0,30,0,0
93888,-133.333333333333,4,2,0,5,0,0
94335,-100,4,2,0,50,0,0
168888,-133.333333333333,4,2,0,30,0,0

[HitObjects]
256,120,4102,1,0,0:0:0
216,256,4549,1,0,0:0:0
256,192,4773,1,0,0:0:0
296,256,4997,1,0,0:0:0
376,136,5445,1,0,0:0:0
256,48,5893,6,0,B|256:96|200:128,1,80
144,120,6340,2,0,B|144:72|200:40,1,80
256,48,6788,2,0,B|293:67|293:115,1,80
264,184,7236,2,0,B|226:164|226:116,1,80
181,53,7684,1,0,0:0:0
331,53,8131,1,0,0:0:0
331,53,8355,6,0,B|400:24|416:144|496:64,2,160
280,104,9475,2,0,B|211:133|195:13|115:93,2,160
331,53,10594,1,0,0:0:0
280,104,10818,2,0,B|256:168|280:288,1,160
392,184,11714,5,0,0:0:0
352,120,11937,1,0,0:0:0
280,104,12161,2,0,B|216:112|184:176|200:248,1,160
256,264,12833,1,0,0:0:0
197,222,13057,2,0,B|146:182|78:205|38:267,1,160
112,288,13728,2,0,B|160:224|120:176|80:112|144:56,1,240
256,152,14848,5,0,0:0:0
374,61,15296,2,0,B|432:112|392:176|352:224|400:288,2,240
256,152,17087,1,0,0:0:0
220,216,17311,1,0,0:0:0
292,216,17534,1,0,0:0:0
256,80,17982,1,0,0:0:0
216,16,18206,6,0,B|256:0|296:16,1,80
336,152,18878,1,0,0:0:0
292,216,19102,1,0,0:0:0
248,272,19325,1,0,0:0:0
208,216,19549,2,0,B|208:168|176:120|104:96,1,160
56,144,20221,2,0,B|136:112|152:16,2,160
150,24,21564,1,0,0:0:0
256,120,22012,1,0,0:0:0
362,24,22460,5,0,0:0:0
456,144,22908,2,0,B|376:112|360:16,2,160
398,99,24251,2,0,B|336:120|304:168|304:216,1,160
256,352,25146,1,0,0:0:0
208,216,25594,2,0,B|208:168|176:120|113:99,1,160
112,168,26266,5,0,0:0:0
128,240,26490,1,0,0:0:0
184,288,26714,1,0,0:0:0
256,296,26937,1,0,0:0:0
328,288,27161,1,0,0:0:0
384,240,27385,2,0,B|448:168|432:40|328:-8|216:0|144:88|192:176,1,480
256,296,29176,5,0,0:0:0
326,160,29624,2,0,B|368:88|296:0|184:-8|80:40|64:168|128:240,1,480
256,296,31415,1,0,0:0:0
376,224,31863,1,0,0:0:0
376,80,32311,1,0,0:0:0
256,160,32758,1,0,0:0:0
136,80,33206,1,0,0:0:0
136,224,33654,1,0,0:0:0
256,296,34102,5,0,0:0:0
258,160,34549,2,0,B|210:184|210:232,1,80
306,221,34997,2,0,B|306:184|258:160,1,80
184,152,35445,2,0,B|112:136|96:72|128:0,1,160
192,32,36117,1,0,0:0:0
232,96,36340,1,0,0:0:0
184,152,36564,2,0,B|112:176|112:288,1,160
184,296,37236,5,0,0:0:0
256,312,37460,1,0,0:0:0
328,296,37684,1,0,0:0:0
256,176,38131,1,0,0:0:0
176,56,38579,2,0,B|256:40|352:64,1,160
312,128,39251,1,0,0:0:0
240,112,39475,2,0,B|161:131|81:115,2,160
376,168,40818,5,0,0:0:0
312,128,41042,1,0,0:0:0
240,112,41266,1,0,0:0:0
256,256,41714,1,0,0:0:0
120,304,42161,2,0,B|200:336|280:320,1,160
168,224,43057,1,0,0:0:0
277,321,43505,2,0,B|325:241|325:145,2,160
256,32,45296,5,0,0:0:0
176,152,45743,2,0,B|256:120|360:168,2,160
256,272,47087,5,0,0:0:0
384,192,47534,1,0,0:0:0
392,48,47982,1,0,0:0:0
256,104,48430,1,0,0:0:0
120,48,48878,1,0,0:0:0
128,192,49325,1,0,0:0:0
256,272,49773,6,0,B|296:296|368:272,2,80
224,336,50445,1,0,0:0:0
224,336,50669,2,0,B|168:304|176:216|240:160|328:236,1,240
256,272,51564,1,0,0:0:0
168,160,52012,1,0,0:0:0
344,160,52460,1,0,0:0:0
256,48,52908,2,0,B|208:104|304:136|248:208,2,160
344,160,54251,6,0,B|400:216|376:312,1,160
135,308,55146,2,0,B|112:216|168:160,1,160
256,48,56042,1,0,0:0:0
256,48,56490,6,0,B|160:0|104:120|16:16,1,240
479,31,57833,2,0,B|404:120|348:0|252:48,2,240
392,144,59624,1,0,0:0:0
256,192,60072,1,0,0:0:0
120,144,60520,1,0,0:0:0
256,104,60967,1,0,0:0:0
256,192,61415,12,0,64102,0:0:0
192,232,65669,5,0,0:0:0
224,168,65893,1,0,0:0:0
256,232,66117,1,0,0:0:0
288,168,66340,1,0,0:0:0
320,232,66564,1,0,0:0:0
288,168,66788,6,0,B|208:56|256:-24|304:56|224:168,2,280
336,120,68579,1,0,0:0:0
256,0,69027,1,0,0:0:0
176,120,69475,1,0,0:0:0
192,192,69699,1,0,0:0:0
256,232,69922,1,0,0:0:0
320,192,70146,1,0,0:0:0
336,120,70370,6,0,B|304:48|184:60,2,160
176,120,71714,2,0,B|208:48|328:60,2,160
200,184,72833,1,0,0:0:0
256,232,73057,1,0,0:0:0
304,288,73281,1,0,0:0:0
256,344,73505,2,0,B|184:288|240:184,1,160
256,136,74176,1,0,0:0:0
304,184,74400,2,0,B|376:240|320:344,2,160
256,48,75743,5,0,0:0:0
208,184,76191,1,0,0:0:0
216,256,76415,1,0,0:0:0
256,320,76639,1,0,0:0:0
296,256,76863,1,0,0:0:0
304,184,77087,2,0,B|304:88|384:176|376:48,2,160
256,320,78430,1,0,0:0:0
208,184,78878,1,0,0:0:0
152,56,79325,5,0,0:0:0
216,24,79549,1,0,0:0:0
296,24,79773,1,0,0:0:0
280,92,79997,2,0,B|224:76|200:124,3,80
176,176,80893,1,0,0:0:0
196,244,81117,1,0,0:0:0
256,284,81340,1,0,0:0:0
316,244,81564,2,0,B|380:204|356:92,2,160
256,112,82908,5,0,0:0:0
140,200,83355,1,0,0:0:0
168,136,83579,1,0,0:0:0
228,176,83803,1,0,0:0:0
256,112,84027,2,0,B|352:112,1,80
312,180,84475,1,0,0:0:0
336,112,84699,2,0,B|400:112|448:192|400:272|336:272,2,239.999992847443
176,112,87385,6,0,B|112:112|64:192|112:272|176:272,2,239.999992847443
256,192,89624,1,0,0:0:0
328,272,90072,2,0,B|328:144,1,119.999996423721
184,112,90967,2,0,B|184:240,1,119.999996423721
256,192,91863,12,0,94102,0:0:0
256,192,97236,5,0,0:0:0
384,248,97684,1,0,0:0:0
368,176,97908,1,0,0:0:0
308,136,98131,1,0,0:0:0
256,192,98355,1,0,0:0:0
204,248,98579,1,0,0:0:0
144,208,98803,1,0,0:0:0
128,136,99027,6,0,B|92:96|96:36|144:-12,2,160
208,136,100146,1,0,0:0:0
256,80,100370,1,0,0:0:0
184,64,100594,1,0,0:0:0
208,136,100818,2,0,B|340:240,1,160
384,284,101490,1,0,0:0:0
440,240,101714,1,0,0:0:0
496,196,101937,6,0,B|448:192|432:140|440:96|492:76,1,160
448,16,102609,2,0,B|368:72|376:164,1,160
360,216,103281,1,0,0:0:0
360,288,103505,1,0,0:0:0
396,348,103728,1,0,0:0:0
436,136,104400,6,0,B|376:80|280:96,1,160
224,160,105072,2,0,B|196:208|256:240|316:212|288:156,1,160
225,94,105743,2,0,B|136:80|76:136,2,160
256,160,106863,2,0,B|284:224|216:252|260:320,1,160
316,272,107534,1,0,0:0:0
196,196,107982,1,0,0:0:0
257,314,108430,6,0,B|216:252|284:224|256:160,2,160
196,196,109773,2,0,B|152:176|84:180|36:212,2,160
268,320,111117,1,0,0:0:0
256,160,111564,2,0,B|302:143|347:92|358:35,1,160
256,160,112460,5,0,0:0:0
208,212,112684,1,0,0:0:0
208,284,112908,1,0,0:0:0
256,336,113131,2,0,B|300:336|308:280,1,80
304,212,113579,1,0,0:0:0
256,160,113803,6,0,B|292:100|216:68|256:0,1,160
312,44,114475,1,0,0:0:0
372,84,114699,1,0,0:0:0
444,84,114922,1,0,0:0:0
412,148,115146,1,0,0:0:0
472,188,115370,2,0,B|484:232|464:296|392:320|292:300,1,240
256,264,116266,1,0,0:0:0
204,302,116490,2,0,B|120:320|48:296|28:232|40:188,1,240
76,128,117385,1,0,0:0:0
208,72,117833,5,0,0:0:0
256,128,118057,1,0,0:0:0
304,72,118281,1,0,0:0:0
324,140,118505,2,0,B|296:224,1,80
214,215,118952,2,0,B|188:140,1,80
208,72,119400,2,0,B|256:136|256:136|304:72,1,160
256,12,120072,6,0,B|184:-4|96:28,2,160
304,72,121191,2,0,B|256:136|256:136|208:72,1,160
256,12,121863,1,0,0:0:0
256,12,122311,6,0,B|328:-4|416:28,2,160
208,72,123430,2,0,B|136:144|196:280|320:280|380:144|300:64,1,400
256,192,124773,12,0,125893,0:0:0
256,192,136639,12,0,140221,0:0:0
256,192,142012,12,0,145594,0:0:0
256,88,149176,5,0,0:0:0
256,88,149848,2,0,B|256:160|368:204,2,160
328,92,150967,2,0,B|348:160|220:148|248:232,1,160
264,284,151639,1,0,0:0:0
312,232,151863,2,0,B|304:180|248:140|184:124,1,160
136,100,152534,1,0,0:0:0
76,60,152758,1,0,0:0:0
20,192,153206,1,0,0:0:0
44,124,153430,1,0,0:0:0
76,60,153654,6,0,B|144:8,1,80
184,68,154102,1,0,0:0:0
256,80,154325,2,0,B|256:168,2,80
328,68,154997,1,0,0:0:0
372,11,155221,2,0,B|436:60,1,80
492,192,155893,5,0,0:0:0
448,252,156117,1,0,0:0:0
408,192,156340,1,0,0:0:0
284,120,156788,2,0,B|224:68|256:0|296:68|216:132,1,160
256,184,157460,1,0,0:0:0
232,116,157684,2,0,B|188:68|156:60|88:68,1,160
