osu file format v9

[General]
AudioFilename: 07-ellie_goulding-wish_i_stayed.mp3
AudioLeadIn: 0
PreviewTime: 63752
Countdown: 1
SampleSet: Soft
StackLeniency: 0.7
Mode: 0
LetterboxInBreaks: 1

[Editor]
DistanceSpacing: 0.97
BeatDivisor: 4
GridSize: 8

[Metadata]
Title:Wish I Stayed
Artist:Ellie Goulding
Creator:Dusty
Version:Normal
Source:
Tags:lights

[Difficulty]
HPDrainRate:3
CircleSize:3
OverallDifficulty:5
ApproachRate:5
SliderMultiplier:1.6
SliderTickRate:2

[Events]
//Background and Video events
0,0,"ellie.jpg"
//Break Periods
2,83951,91375
2,149833,157258
//Storyboard Layer 0 (Background)
//Storyboard Layer 1 (Fail)
//Storyboard Layer 2 (Pass)
//Storyboard Layer 3 (Foreground)
//Storyboard Sound Samples
//Background Colour Transformations
3,100,18,14,13

[TimingPoints]
7870,588.235294117647,4,2,1,45,1,0
63752,-100,4,2,1,70,0,0
64340,-100,4,2,1,70,0,1
83752,-100,4,2,1,70,0,0
130222,-100,4,2,1,70,0,1
149634,-100,4,2,1,70,0,0
177281,-100,4,2,1,70,0,1
196693,-100,4,2,1,70,0,0

[HitObjects]
176,112,7870,2,0,B|352:112,1,160,8|0
424,176,9046,2,0,B|368:224|416:312,2,120,8|0|8
480,240,10222,1,0
256,368,11105,6,0,B|256:104,1,240,2|0
296,48,12281,2,0,B|200:48,1,80,0|8
128,64,12870,2,0,B|16:64|16:184,1,160,2|0
112,248,14046,6,0,B|0:248|0:368,1,160,2|0
128,160,15222,2,0,B|240:160|240:280,1,160,2|0
168,304,16105,2,0,B|192:376|256:392|320:376|344:304,1,240,2|8
424,336,17281,5,0
416,248,17575,2,0,B|424:152|512:96,3,160,0|8|0|0
456,32,19634,2,0,B|416:72|352:72,1,80
256,192,20664,12,8,24340
3,117,24928,5,0
160,208,25516,1,8
160,28,26105,1,2
320,112,26693,6,0,B|384:120|400:176,1,80,4|0
320,200,27281,2,0,B|328:312|232:352,1,160,8|0
208,272,28164,2,0,B|144:264|128:208,1,80,0|8
208,184,28752,2,0,B|200:72|296:32,1,160
352,24,29634,1,8
488,176,30222,6,0,B|416:224|408:328,2,160,2|8|2
496,88,31693,1,0
416,128,31987,2,0,B|352:176|328:288,4,160,2|0|8|0|8
256,32,34928,5,2
256,128,35222,1,0
256,216,35517,2,0,B|256:320,1,80,8|8
256,384,36105,5,2
112,328,36693,2,0,B|184:296|160:192,2,120,8|0|0
80,248,37870,1,8
72,160,38164,2,0,B|24:168|0:208,2,80
160,144,39046,5,8
160,144,39340,2,2,B|232:48|392:216|472:104,1,320
384,288,41105,2,0,B|432:392,2,80,0|8|0
296,296,41987,2,0,B|272:384,2,80,0|0|8
336,216,42869,1,0
256,128,44928,5,0
120,56,45517,2,0,B|48:128|88:240,1,160,4|8
160,176,46399,2,0,B|168:248,1,40
152,336,46987,2,2,B|224:376|344:360,1,160
392,328,47869,6,0,B|464:256|424:144,1,160,4|8
352,208,48752,2,0,B|344:136,1,40
360,48,49340,2,2,B|288:8|168:24,1,160
120,40,50222,2,0,B|120:200|256:168|256:328,1,320,4|8
256,136,51987,1,10
376,40,52575,6,8,B|464:72|464:200,1,160
320,224,53752,2,8,B|256:296,1,80
184,248,54340,2,8,B|248:176,1,80,0|0
304,136,54928,6,0,B|304:16|192:16,1,160,4|8
208,112,55811,2,0,B|120:112|56:176|56:280,1,240,2|8
208,248,57281,6,0,B|208:368|320:368,1,160,0|8
304,272,58164,2,0,B|392:272|456:208|456:104,1,240,2|8
456,32,59340,1,2
288,32,59928,2,0,B|312:112|200:80|224:160,1,160
328,232,61105,5,0
256,272,61399,1,8
184,232,61693,1,0
256,368,62281,1,2
256,368,62869,1,0
256,88,63752,5,8
152,176,64340,2,0,B|160:96|48:80|32:160,1,160,4|8
72,208,65222,2,0,B|72:304,1,80
144,344,65811,2,0,B|208:344|232:288,1,80,0|8
288,360,66399,1,0
360,304,66693,6,0,B|352:384|464:400|480:320,1,160,4|8
440,272,67575,2,0,B|440:176,1,80
368,136,68164,2,0,B|304:136|280:192,1,80,0|8
224,120,68752,1,0
168,48,69046,1,2
256,40,69340,1,0
344,48,69634,1,8
408,192,70222,5,0
480,144,70517,1,0
480,224,70811,1,8
408,272,71105,1,0
344,336,71399,1,2
256,344,71693,1,0
168,336,71987,1,8
104,192,72575,5,0
32,240,72870,1,0
32,160,73164,1,8
104,112,73458,1,0
192,112,73752,6,0,B|184:32|296:16|312:96,1,160,4|8
272,144,74634,2,0,B|272:240,1,80
352,192,75222,1,0
432,184,75517,2,0,B|432:248|376:272,1,80,8|0
320,272,76105,6,0,B|328:352|216:368|200:288,1,160,4|8
240,240,76987,2,0,B|240:144,1,80
160,192,77575,1,0
80,200,77870,2,0,B|80:136|136:112,1,80,8|0
192,112,78458,2,2,B|176:56|128:24|56:24|16:80|-8:152|-8:224,2,320
240,32,81105,1,0
320,64,81399,2,0,B|456:72|464:272|280:296|240:216|272:200|232:120|48:144|56:344|192:352,1,640,4|0
368,216,92575,6,0,B|336:120|432:88,2,160,2|8|2
448,176,94046,1,0
456,264,94340,2,0,B|456:320|408:352,1,80,8|0
336,336,94928,6,0,B|168:336,2,160,8|8|8
296,248,96399,1,0
216,200,96693,1,8
160,128,96987,2,0,B|184:64|256:56|328:64|352:128,1,240,4|2
256,192,98458,12,0,101399
144,216,101987,6,0,B|176:120|80:88,2,160,0|8|0
224,368,103752,1,2
144,312,104046,2,0,B|144:368|88:400,1,80,0|8
376,352,105075,6,0,B|344:328|344:280,1,80,2|0
248,280,105664,2,0,B|216:248,1,40,0|8
296,200,106105,1,8
352,128,106399,2,0,B|328:64|256:56|184:64|160:128,1,240,4|8
216,200,107575,1,0
144,264,107869,2,0,B|88:264|40:224,1,80,2|0
32,160,108458,2,8,B|32:104|72:56,1,80
432,184,111399,6,0,B|416:280|496:360,1,160,2|8
400,384,112281,2,0,B|343:304|230:304,1,160,2|0
256,216,113164,1,8
304,128,113458,1,0
208,128,113752,1,8
40,40,114340,5,8
56,216,114928,2,0,B|120:288|56:384,1,160,2|8
168,360,115811,2,0,B|232:240|408:288,1,240,4|8
448,216,116987,1,0
360,200,117281,6,0,B|312:176|304:112,1,80
248,200,117869,2,0,B|200:176|192:112,1,80,8|0
112,104,118458,2,0,B|160:80|168:16,1,80
256,88,119046,2,0,B|304:64|312:0,1,80,8|0
368,88,119634,5,0
455,64,119928,1,0
478,152,120222,1,8
391,175,120516,1,8
296,144,120811,2,8,B|259:253|355:335|442:320|509:260,3,320,12|8|12|8
216,384,125517,6,0,B|252:274|156:192|69:207|2:267,2,320,0|8|4
104,96,128752,1,6
408,96,129634,5,4
256,40,130222,2,0,B|256:144,1,80,4|0
336,136,130811,2,0,B|336:192|376:208,1,80,8|0
448,176,131399,2,0,B|464:232|424:288|360:288,1,160,0|8
334,363,132281,1,0
256,344,132575,6,0,B|256:240,1,80,2|0
176,248,133164,2,0,B|176:192|136:176,1,80,8|0
64,208,133752,2,0,B|48:152|88:96|152:96,2,160,0|8|0
72,288,135222,1,0
24,352,135517,1,8
256,360,136105,5,0
296,288,136399,1,0
216,264,136693,1,8
256,192,136987,1,0
296,120,137281,1,0
216,96,137575,1,0
256,24,137869,1,8
488,32,138458,5,0
440,96,138753,1,0
448,176,139046,1,8
368,360,139634,6,0,B|376:304|424:288,1,80,4|0
344,224,140222,2,0,B|336:280|288:296,1,80,8|0
224,304,140811,2,0,B|112:304|88:200,1,160,0|8
48,152,141693,1,0
144,24,141987,6,0,B|136:80|88:96,1,80,2|0
168,160,142575,2,0,B|176:104|224:88,1,80,8|0
288,80,143164,2,0,B|400:80|424:184,2,160,0|8|0
256,352,144928,6,0,B|344:304,1,80,8|0
256,264,145517,2,0,B|168:216,1,80
256,176,146105,2,8,B|326:137,1,80
256,88,146693,2,0,B|185:50,1,80
112,96,147281,2,0,B|64:200|96:336|256:388|416:336|448:200|400:96,1,640,4|0
256,216,158458,6,0,B|256:392,2,160,2|8|0
344,248,159928,1,0
344,328,160222,1,8
424,368,160517,1,0
504,328,160811,6,0,B|504:144,2,160,2|8|0
424,288,162281,1,0
424,208,162575,2,0,B|424:152|392:96,1,80,8|0
352,64,163164,6,0,B|288:40|160:120|312:216|256:336,1,320,4|0
136,232,164928,1,8
135,384,165517,6,0,B|175:312,1,80,8|0
80,304,166105,2,0,B|40:232,1,80,8|0
88,152,166693,2,0,B|128:80,1,80,8|0
192,160,167281,2,0,B|232:232,1,80,8|0
280,144,167869,6,0,B|376:136|400:40,1,160,4|8
480,96,168752,2,0,B|417:169|468:254,1,160,2|0
394,300,169634,6,0,B|349:215|263:229,2,160,8|2|8
472,320,171105,2,0,B|454:393|376:400|336:384|336:328|240:344,1,240,0|8
256,192,172575,12,0,175811
256,304,176693,5,0
48,352,177281,2,0,B|96:336|112:288,1,80,4|0
32,272,177869,2,0,B|64:192,1,80,8|0
149,194,178458,2,0,B|120:120,1,80
194,90,179046,2,0,B|184:48|136:40,1,80,8|0
55,78,179634,6,0,B|62:170|150:194,1,160,0|8
234,210,180517,1,0
214,294,180811,2,0,B|278:310|342:246|318:182,2,160,2|8|2
138,344,182281,1,0
216,384,182575,1,8
416,360,183164,5,0
480,304,183458,1,0
424,240,183752,1,8
344,264,184046,1,0
264,248,184340,1,0
200,192,184634,1,0
176,112,184928,1,8
328,152,185517,6,8,B|272:112|256:8,1,160
464,32,186693,2,0,B|416:48|400:96,1,80,4|0
480,112,187281,2,0,B|448:192,1,80,8|0
363,190,187870,2,0,B|392:264,1,80,2|0
318,294,188458,2,0,B|328:336|376:344,1,80,8|0
457,305,189046,6,0,B|450:213|362:189,1,160,0|8
278,174,189929,1,0
298,90,190223,2,0,B|234:74|170:138|194:202,3,160,6|8|0|8
256,304,192575,1,2
256,192,193164,12,4,196693
