osu file format v9

[General]
AudioFilename: 07-ellie_goulding-wish_i_stayed.mp3
AudioLeadIn: 0
PreviewTime: 63752
Countdown: 1
SampleSet: Soft
StackLeniency: 0.7
Mode: 0
LetterboxInBreaks: 1

[Editor]
Bookmarks: 131399
DistanceSpacing: 1
BeatDivisor: 4
GridSize: 8

[Metadata]
Title:Wish I Stayed
Artist:Ellie Goulding
Creator:Dusty
Version:Easy
Source:
Tags:lights

[Difficulty]
HPDrainRate:2
CircleSize:3
OverallDifficulty:3
ApproachRate:3
SliderMultiplier:1.2
SliderTickRate:2

[Events]
//Background and Video events
0,0,"ellie.jpg"
//Break Periods
2,83952,91135
2,149834,156429
//Storyboard Layer 0 (Background)
//Storyboard Layer 1 (Fail)
//Storyboard Layer 2 (Pass)
//Storyboard Layer 3 (Foreground)
//Storyboard Sound Samples
//Background Colour Transformations
3,100,18,14,13

[TimingPoints]
7870,588.235294117647,4,2,1,45,1,0
63752,-100,4,2,1,70,0,0
64340,-100,4,2,1,70,0,1
83752,-100,4,2,1,70,0,0
130222,-100,4,2,1,70,0,1
149634,-100,4,2,1,70,0,0
177281,-100,4,2,1,70,0,1
196693,-100,4,2,1,70,0,0

[HitObjects]
144,336,7870,2,0,B|200:304|208:360|256:392|304:360|312:304|368:336,2,240
48,184,11105,6,0,B|112:112|256:136|256:280,1,300,2|0
336,272,12870,2,0,B|320:136,1,120,2|0
416,248,14046,6,0,B|400:112,1,120
496,224,15222,2,0,B|480:88,3,120
360,64,17575,6,0,B|280:72|248:144,1,120
144,184,18752,2,0,B|64:192|32:264,2,120
256,192,20517,12,2,24340
192,80,24928,5,2
320,80,25517,1,2
256,192,26105,1,2
256,320,26693,6,0,B|144:396|32:320,2,240,4|0|0
136,104,30222,6,0,B|152:184|232:200,1,120,2|0
256,80,31399,2,0,B|368:4|480:80,3,240
456,208,35517,1,0
336,240,36105,6,0,B|272:288|320:368,1,120,2|8
176,240,37281,2,0,B|240:288|192:368,1,120,0|8
256,192,38458,1,0
128,176,39046,5,2
128,176,39340,2,2,B|88:112|144:32|208:72|224:120|216:80|248:24|336:16|400:104,2,360,2|2|8
80,344,44928,5,0
208,336,45517,2,0,B|248:336|288:304|328:304,1,120,2|8
440,240,46693,2,0,B|400:240|360:208|320:208,1,120,0|8
192,192,47869,6,0,B|152:192|112:160|72:160,1,120,2|8
192,96,49046,2,0,B|232:96|272:64|312:64,1,120,0|8
432,104,50222,6,0,B|448:208|352:224|352:224|344:304,1,240,2|0
216,336,51987,1,8
96,272,52575,6,8,B|48:232|72:160,1,120
176,80,53752,2,8,B|312:80,2,120,8|8|12
192,208,55517,5,8
192,208,55811,1,0
320,248,56399,1,0
320,248,56693,1,8
384,360,57281,5,2
256,336,57869,1,8
256,336,58164,1,0
64,272,59046,5,8
64,272,59340,2,0,B|32:152,1,120
152,96,60517,2,0,B|182:211,1,120
329,211,61693,6,0,B|360:96,1,120
478,156,62869,2,0,B|432:331,1,180,0|8
184,352,64340,6,0,B|160:280|88:264,1,120,4|8
32,232,65222,1,0
56,152,65517,2,0,B|88:96|168:112,1,120,0|8
328,32,66693,2,0,B|352:104|424:120,1,120,0|8
480,152,67575,1,0
456,232,67870,2,0,B|424:288|344:272,1,120,0|8
256,360,69046,6,2,B|256:224,1,120,2|8
144,168,70222,2,0,B|88:120,2,60,0|0|8
256,104,71399,2,0,B|256:40,2,60,0|0|8
368,168,72575,2,0,B|424:120,2,60,0|0|8
328,352,73752,6,0,B|352:280|424:264,1,120,4|8
480,232,74634,1,0
456,152,74929,2,0,B|424:96|344:112,1,120,0|8
184,32,76105,2,0,B|160:104|88:120,1,120,0|8
32,152,76987,1,0
56,232,77282,2,0,B|88:288|168:272,1,120,0|8
256,360,78458,6,2,B|256:224,1,120,2|8
152,160,79634,1,0
256,80,80222,1,8
360,160,80811,1,0
400,280,81399,6,2,B|256:354|112:280,1,300,6|2
256,192,83752,1,0
304,360,92575,6,0,B|304:224,3,120,0|0|0|8
208,360,94928,2,0,B|208:224,3,120,0|8|0|8
184,160,96987,2,0,B|208:112|256:105|304:112|328:160,1,180,4|8
256,192,98458,12,0,101399
304,64,101987,6,0,B|304:200,3,120,0|8|0|8
208,64,104340,2,0,B|208:200,3,120,0|8|0|8
184,264,106399,2,0,B|208:312|256:319|304:312|328:264,2,180,4|8|0
256,224,108458,2,0,B|256:144,1,60,8|0
112,120,111399,6,0,B|48:144|40:240|88:280,2,180,4|0|0
200,216,113752,6,0,B|176:352,1,120,0|8
332,334,114928,2,0,B|312:216,1,120,0|8
256,160,115811,1,4
256,360,116693,5,8
128,344,117281,1,0
96,216,117869,1,8
192,128,118458,5,8
272,232,119046,1,8
400,224,119634,1,8
464,112,120222,1,8
336,128,120811,6,0,B|272:192|304:312|400:320,3,240,0|8|0|8
176,256,125517,6,0,B|240:192|208:72|112:64,2,240,0|8|4
24,192,128752,1,6
88,376,129634,1,4
240,344,130222,6,0,B|160:360|128:280,1,120,4|8
211,267,131105,1,0
288,280,131399,2,0,B|368:264|400:344,1,120,0|8
224,112,132575,2,0,B|144:96|112:176,1,120,0|8
195,189,133458,1,0
272,176,133752,2,0,B|352:192|384:112,1,120,0|8
301,99,134634,1,0
256,32,134928,1,0
112,192,135517,5,8
112,192,135811,1,0
400,192,136693,1,8
400,192,136987,1,0
256,336,137870,1,8
256,336,138164,1,0
256,192,139046,1,8
272,40,139634,6,0,B|352:24|384:104,1,120,4|8
301,117,140517,1,0
224,104,140811,2,0,B|144:120|112:40,1,120,0|8
288,272,141987,2,0,B|368:288|400:208,1,120,0|8
317,195,142870,1,0
240,208,143164,2,0,B|160:192|128:272,1,120,0|8
211,285,144046,1,0
256,352,144340,1,0
128,352,144928,5,8
56,256,145517,1,0
72,136,146105,1,8
168,64,146693,1,0
282,51,147281,6,0,B|343:95|343:165|264:192|256:192|247:192|168:218|168:288|229:332,1,360,4|4
344,320,149634,1,8
256,192,157869,5,8
168,96,158458,2,0,B|208:56|288:64,1,120,4|8
392,104,159634,2,0,B|432:144|424:224,1,120,0|8
344,288,160811,6,0,B|304:328|224:320,1,120,0|8
120,280,161987,2,0,B|80:240|88:160,1,120,0|8
160,72,163164,2,0,B|248:88|224:152|208:232|280:272,1,240,2|8
48,344,165517,5,8
168,320,166105,1,8
280,360,166693,1,10
376,288,167281,1,8
480,232,167869,6,0,B|248:136,1,240,4|0
144,104,169634,1,8
64,192,170222,6,0,B|296:288,1,240,2|0
400,320,171987,1,8
256,192,172575,12,0,176105
328,352,177281,6,0,B|352:280|424:264,1,120,4|8
480,232,178163,1,0
456,152,178458,2,0,B|424:96|344:112,1,120,0|8
184,32,179634,2,0,B|160:104|88:120,1,120,0|8
32,152,180516,1,0
56,232,180811,2,0,B|88:288|168:272,1,120,0|8
256,360,181987,6,0,B|256:224,1,120,0|8
368,168,183163,2,0,B|424:120,2,60,0|0|8
256,104,184340,2,0,B|256:40,2,60,0|0|8
144,168,185516,2,0,B|88:120,2,60,0|0|8
240,344,186693,6,0,B|160:360|128:280,1,120,4|8
211,267,187576,1,0
288,280,187870,2,0,B|368:264|400:344,1,120,0|8
224,112,189046,2,0,B|144:96|112:176,1,120,0|8
195,189,189929,1,0
272,176,190223,2,0,B|352:192|384:112,1,120,0|8
301,99,191105,1,0
256,32,191399,1,0
144,80,191987,5,8
96,192,192575,1,0
144,304,193164,1,8
256,352,193752,1,0
256,192,194340,12,0,196693
