osu file format v9

[General]
AudioFilename: 04 Under the Sheets.mp3
AudioLeadIn: 0
PreviewTime: 56538
Countdown: 1
SampleSet: Normal
StackLeniency: 0.7
Mode: 0
LetterboxInBreaks: 1

[Editor]
Bookmarks: 9479,47126,75362,84773,86832,141097,150656,176538,178891,212126,216538
DistanceSpacing: 0.9
BeatDivisor: 4
GridSize: 8

[Metadata]
Title:Under the Sheets
Artist:Ellie Goulding
Creator:RandomJibberish
Version:Normal
Source:
Tags:

[Difficulty]
HPDrainRate:5
CircleSize:3
OverallDifficulty:5
ApproachRate:5
SliderMultiplier:1.92
SliderTickRate:2

[Events]
//Background and Video events
0,0,"likealltheboysbefore.jpg"
Video,-961,"Ellie_Goulding_-_Under_The_Sheets.mp4.AVI"
//Break Periods
2,75362,83597
2,141097,149301
//Storyboard Layer 0 (Background)
//Storyboard Layer 1 (Fail)
//Storyboard Layer 2 (Pass)
//Storyboard Layer 3 (Foreground)
//Storyboard Sound Samples
//Background Colour Transformations
3,100,163,162,255

[TimingPoints]
60,588.235294117647,4,1,0,80,1,0
10636,-100,4,2,0,80,0,0
11077,-100,4,1,0,80,0,0
11371,-100,4,2,0,80,0,0
13430,-100,4,1,0,80,0,0
14018,-100,4,2,0,80,0,0
14606,-100,4,1,0,80,0,0
15342,-100,4,2,0,80,0,0
15930,-100,4,1,0,80,0,0
16077,-100,4,2,0,80,0,0
18136,-100,4,1,0,80,0,0
18356,-100,4,1,0,50,0,0
18577,-100,4,2,0,80,0,0
19312,-100,4,1,0,80,0,0
19606,-100,4,2,0,80,0,0
20636,-100,4,1,0,80,0,0
20783,-100,4,2,0,80,0,0
21665,-100,4,1,0,80,0,0
21959,-100,4,2,0,80,0,0
22842,-100,4,1,0,80,0,0
23062,-100,4,1,0,40,0,0
23283,-100,4,2,0,80,0,0
24092,-100,4,1,0,80,0,0
24312,-100,4,2,0,80,0,0
25268,-100,4,1,0,80,0,0
25415,-100,4,2,0,80,0,0
26445,-100,4,1,0,80,0,0
27400,-100,4,1,0,60,0,0
27842,-100,4,1,0,40,0,0
28283,-100,4,1,0,20,0,0
28577,-100,4,1,0,80,0,0
29165,-100,4,2,0,80,0,0
30047,-100,4,1,0,80,0,0
30195,-100,4,2,0,80,0,0
31077,-100,4,1,0,80,0,0
31371,-100,4,2,0,80,0,0
32253,-100,4,1,0,80,0,0
32474,-100,4,1,0,50,0,0
32695,-100,4,1,0,80,0,0
33871,-100,4,2,0,80,0,0
34753,-100,4,1,0,80,0,0
34900,-100,4,2,0,80,0,0
36959,-100,4,1,0,80,0,0
37180,-100,4,1,0,50,0,0
37400,-100,4,1,0,80,0,0
38871,-100,4,2,0,80,0,0
39459,-100,4,1,0,80,0,0
39606,-100,4,2,0,80,0,0
41665,-100,4,1,0,80,0,0
41886,-100,4,1,0,50,0,0
42400,-100,4,2,0,80,0,0
42915,-100,4,1,0,80,0,0
43062,-100,4,2,0,80,0,0
44092,-100,4,1,0,80,0,0
44239,-100,4,2,0,80,0,0
45268,-100,4,1,0,80,0,0
45489,-100,4,2,0,80,0,0
45783,-100,4,1,0,80,0,0
46077,-100,4,2,0,80,0,0
46371,-100,4,1,0,80,0,0
46665,-100,4,2,0,80,0,0
47400,-100,4,1,0,80,0,0
47989,-100,4,2,0,80,0,0
48577,-100,4,1,0,80,0,0
49165,-100,4,2,0,80,0,0
50047,-100,4,1,0,80,0,0
50489,-100,4,2,0,80,0,0
51224,-100,4,1,0,80,0,0
51665,-100,4,2,0,100,0,0
51959,-100,4,1,0,80,0,0
56530,-100,4,1,0,80,0,1
70930,-100,4,1,0,80,0,0
85636,-100,4,2,0,80,0,0
86518,-100,4,1,0,80,0,0
86665,-100,4,2,0,80,0,0
87547,-100,4,1,0,80,0,0
87989,-100,4,2,0,80,0,0
88724,-100,4,1,0,80,0,0
89018,-100,4,1,0,50,0,0
89165,-100,4,1,0,80,0,0
90342,-100,4,2,0,80,0,0
91224,-100,4,1,0,80,0,0
91297,-100,4,2,0,80,0,0
92253,-100,4,1,0,80,0,0
92547,-100,4,2,0,80,0,0
93430,-100,4,1,0,80,0,0
93724,-100,4,1,0,50,0,0
93871,-100,4,1,0,80,0,0
95047,-100,4,2,0,80,0,0
95930,-100,4,1,0,80,0,0
96077,-100,4,2,0,80,0,0
98136,-100,4,1,0,80,0,0
98430,-100,4,1,0,50,0,0
98577,-100,4,1,0,80,0,0
99753,-100,4,2,0,80,0,0
100636,-100,4,1,0,80,0,0
100783,-100,4,2,0,80,0,0
101665,-100,4,1,0,80,0,0
101959,-100,4,2,0,80,0,0
102842,-100,4,1,0,80,0,0
103136,-100,4,2,0,80,0,0
103283,-100,4,1,0,80,0,0
104018,-100,4,2,0,80,0,0
105342,-100,4,1,0,80,0,0
105489,-100,4,2,0,80,0,0
106371,-100,4,1,0,80,0,0
106665,-100,4,2,0,80,0,0
107695,-100,4,1,0,80,0,0
107842,-100,4,1,0,50,0,0
107989,-100,4,1,0,80,0,0
109165,-100,4,2,0,80,0,0
110047,-100,4,1,0,80,0,0
110195,-100,4,2,0,80,0,0
111077,-100,4,1,0,80,0,0
111371,-100,4,2,0,80,0,0
112400,-100,4,1,0,80,0,0
112547,-100,4,1,0,51,0,0
112695,-100,4,1,0,80,0,0
113871,-100,4,2,0,80,0,0
114753,-100,4,1,0,80,0,0
114900,-100,4,2,0,80,0,0
117400,-100,4,1,1,80,0,0
122412,-100,4,1,0,80,0,1
136812,-100,4,1,0,80,0,0
151371,-100,4,2,0,80,0,0
151665,-100,4,1,0,80,0,0
153724,-100,4,2,0,80,0,0
154018,-100,4,1,0,80,0,0
156077,-100,4,2,0,80,0,0
156371,-100,4,1,0,80,0,0
160342,-133.333333333333,4,2,0,80,0,0
169471,-100,4,1,0,80,0,1
169606,-100,4,1,0,80,0,0
171665,-100,4,1,0,80,0,0
171824,-100,4,1,0,80,0,1
171959,-100,4,1,0,80,0,0
174018,-100,4,1,0,80,0,0
174177,-100,4,1,0,80,0,1
175268,-100,4,1,0,80,0,0
175354,-100,4,1,0,80,0,1
176371,-100,4,2,0,80,0,1
176518,-100,4,1,0,80,0,0
178883,-100,4,1,0,80,0,1
195930,-100,4,1,0,80,0,0
197707,-100,4,1,0,80,0,1
211812,-100,4,1,0,40,0,0
216518,-100,4,2,0,80,0,0

[HitObjects]
40,136,9471,53,0
16,304,10060,2,0,B|48:336|48:336|80:368|128:368|128:368|216:368,1,192,4|0
336,288,11236,1,0
324,368,11530,2,0,B|384:368|384:368|432:368|464:336|464:336|496:304,1,192,2|0
256,208,13001,1,0
240,120,13295,1,0
224,32,13589,1,4
472,176,14177,5,2
496,344,14765,2,0,B|464:312|464:312|432:280|384:280|384:280|296:280,1,192,4|0
176,360,15942,1,0
188,280,16236,2,0,B|128:280|128:280|80:280|48:312|48:312|16:344,1,192,2|0
16,168,17412,1,2
304,136,18295,5,0
472,136,18883,1,0
496,304,19471,2,0,B|464:336|464:336|432:368|384:368|384:368|296:368,1,192,4|0
176,288,20648,1,0
188,368,20942,2,0,B|128:368|128:368|80:368|48:336|48:336|16:304,1,192,2|0
256,208,22412,1,0
272,120,22707,1,0
288,32,23001,1,4
264,376,24177,6,0,B|192:376|192:376|144:376|112:344|112:344|80:312,1,192
248,248,25354,2,0,B|320:248|320:248|368:248|400:216|400:216|432:184,1,192
264,120,26530,2,0,B|192:120|192:120|144:120|112:88|112:88|80:56,1,192,0|4
24,176,27560,2,0,B|70:238|171:249,2,144,0|0|0
16,304,28883,6,0,B|48:336|48:336|80:368|128:368|128:368|216:368,1,192,4|0
336,288,30060,1,0
324,368,30354,2,0,B|384:368|384:368|432:368|464:336|464:336|496:304,1,192,2|0
360,200,31530,1,0
280,168,31824,1,2
200,136,32118,1,2
120,104,32412,1,4
496,344,33589,6,0,B|464:312|464:312|432:280|384:280|384:280|296:280,1,192,4|0
176,360,34765,1,0
188,280,35060,2,0,B|128:280|128:280|80:280|48:312|48:312|16:344,1,192,2|0
16,168,36236,1,2
304,136,37118,5,0
472,136,37707,1,4
496,304,38295,2,0,B|464:336|464:336|432:368|384:368|384:368|296:368,1,192,0|0
176,288,39471,1,0
188,368,39765,2,0,B|128:368|128:368|80:368|48:336|48:336|16:304,1,192,2|0
256,208,41236,1,0
272,120,41530,1,0
288,32,41824,1,4
248,376,43001,6,0,B|320:376|320:376|368:376|400:344|400:344|432:312,1,192
264,248,44177,2,0,B|192:248|192:248|144:248|112:216|112:216|80:184,1,192
248,120,45354,2,0,B|320:120|320:120|368:120|400:88|400:88|432:56,1,192,0|4
480,128,46236,1,0
480,216,46530,1,0
480,304,46824,1,0
216,24,47707,5,2
64,104,48295,1,2
64,280,48883,1,2
216,360,49471,1,2
296,360,49765,1,8
448,280,50354,1,2
448,104,50942,1,2
296,24,51530,1,4
88,184,52412,5,0
168,336,53001,1,2
344,336,53589,1,8
424,184,54177,1,0
424,184,54471,1,0
256,192,54765,12,4,56530
256,160,57118,37,0
48,272,57707,2,0,B|72:304|72:304|96:336|136:336|136:336|216:336,1,192,0|8
297,336,58589,2,2,B|376:336|376:336|416:336|440:304|440:304|464:272,1,192,2|0
464,192,59471,1,0
389,51,60060,2,0,B|350:12|303:12|303:12|208:12|208:12|160:12|122:51,1,288,4|0
256,160,61530,5,0
256,160,61824,1,0
464,272,62412,2,0,B|440:304|440:304|416:336|376:336|376:336|296:336,1,192,0|8
215,336,63295,2,2,B|136:336|136:336|96:336|72:304|72:304|48:272,1,192,2|0
48,192,64177,1,0
123,51,64765,2,0,B|161:12|208:12|208:12|303:12|303:12|351:12|389:51,1,288,4|0
256,264,66530,5,0
48,272,67118,2,0,B|72:304|72:304|96:336|136:336|136:336|216:336,1,192,0|8
297,336,68001,2,2,B|376:336|376:336|416:336|440:304|440:304|464:272,1,192,2|0
464,192,68883,1,0
296,144,69471,5,2
344,216,69765,2,0,B|296:260|216:260|168:216,1,192,8|0
256,192,70942,12,4,73001
200,184,85354,5,4
112,40,85942,2,0,B|72:40|72:40|32:40|0:72|0:112|0:112|0:160,1,192
0,232,86824,2,0,B|0:272|0:272|0:312|32:344|72:344|72:344|112:344,1,192,2|0
192,344,87707,1,0
368,344,88295,1,2
440,304,88589,1,0
512,264,88883,1,4
312,184,90060,5,0
400,40,90648,2,0,B|440:40|440:40|480:40|512:72|512:112|512:112|512:160,1,192
512,232,91530,2,0,B|512:272|512:272|512:312|480:344|440:344|440:344|400:344,1,192,2|0
320,344,92412,1,0
144,344,93001,1,2
72,304,93295,1,0
0,264,93589,1,0
320,192,94765,5,4
400,344,95354,2,0,B|440:344|440:344|480:344|512:312|512:272|512:272|512:224,1,192
512,152,96236,2,0,B|512:113|512:113|512:73|480:41|440:41|440:41|400:41,2,192,2|0|2
384,264,98001,1,0
384,264,98295,1,4
192,192,99471,5,0
112,344,100060,2,0,B|72:344|72:344|32:344|0:312|0:272|0:272|0:224,1,192
0,152,100942,2,0,B|0:113|0:113|0:73|32:41|72:41|72:41|112:41,1,192,0|2
112,120,101824,1,0
256,256,102412,1,2
256,168,102707,1,0
256,80,103001,1,0
0,192,103589,5,0
0,344,104177,1,12
144,344,104765,2,0,B|184:344|184:344|224:344|256:312|256:272|256:272|256:224,1,192
256,152,105648,2,0,B|256:113|256:113|256:73|288:41|328:41|328:41|368:41,1,192,2|0
384,208,106824,2,0,B|336:264|256:280|176:264|128:208,1,288,2|4
512,344,108883,5,0
368,344,109471,2,0,B|328:344|328:344|288:344|256:312|256:272|256:272|256:224,1,192
256,152,110354,2,0,B|256:113|256:113|256:73|224:41|184:41|184:41|144:41,1,192,4|0
168,296,111824,2,0,B|200:328|256:340|312:328|344:296,1,192
40,248,113001,5,0
16,80,113589,2,0,B|48:48|48:48|80:16|128:16|128:16|216:16,1,192,4|0
336,96,114765,1,0
324,16,115060,2,0,B|384:16|384:16|432:16|464:48|464:48|496:80,1,192,2|0
344,168,116236,1,2
168,168,116824,1,0
168,168,117118,1,4
264,376,117707,5,0
264,376,118295,2,0,B|192:376|192:376|144:376|112:344|112:344|80:312,1,192
248,248,119471,2,0,B|320:248|320:248|368:248|400:216|400:216|432:184,1,192,0|4
256,192,120648,12,4,122412
256,160,123001,5,0
464,272,123589,2,0,B|440:304|440:304|416:336|376:336|376:336|296:336,1,192,0|8
215,336,124471,2,2,B|136:336|136:336|96:336|72:304|72:304|48:272,1,192,2|0
48,192,125354,1,0
123,51,125942,2,0,B|162:12|209:12|209:12|304:12|304:12|352:12|390:51,1,288,4|0
256,160,127412,5,0
256,160,127707,1,0
48,272,128295,2,0,B|72:304|72:304|96:336|136:336|136:336|216:336,1,192,0|8
297,336,129177,2,2,B|376:336|376:336|416:336|440:304|440:304|464:272,1,192,2|0
464,192,130060,1,0
389,51,130648,2,0,B|351:12|304:12|304:12|209:12|209:12|161:12|123:51,1,288,4|0
256,264,132412,5,0
464,272,133001,2,0,B|440:304|440:304|416:336|376:336|376:336|296:336,1,192,0|8
215,336,133883,2,2,B|136:336|136:336|96:336|72:304|72:304|48:272,1,192,2|0
48,192,134765,1,0
216,144,135354,5,2
168,216,135648,2,0,B|216:260|296:260|344:216,1,192,8|0
256,192,136824,12,4,138883
16,384,150501,6,0,B|296:384,1,240,4|0
344,384,151530,1,0
344,384,151824,1,0
496,328,152412,5,0
496,200,152854,2,0,B|216:200,1,240,4|0
168,200,153883,1,0
168,200,154177,1,0
16,144,154765,5,0
16,16,155207,2,0,B|296:16,1,240,4|0
344,16,156236,1,0
344,16,156530,1,0
432,152,157118,2,0,B|312:256|328:152|256:134|184:152|200:256|80:152,2,384,0|8|4
424,312,160648,6,0,B|408:336|408:336|392:360|360:360|360:360|280:360,1,143.999995708466
211,360,161530,2,0,B|152:360|152:360|120:360|104:336|104:336|88:312,1,143.999995708466,0|2
136,192,162707,1,0
136,192,163001,1,0
160,72,163589,2,2,B|195:32|240:32|240:32|272:32|272:32|318:32|352:72,1,215.999993562699
88,312,165354,6,0,B|104:336|104:336|120:360|152:360|152:360|232:360,1,143.999995708466
300,360,166236,2,0,B|360:360|360:360|392:360|408:336|408:336|424:312,1,143.999995708466,0|2
376,192,167412,1,0
376,192,167707,1,0
352,72,168295,2,2,B|317:32|272:32|272:32|240:32|240:32|194:32|160:72,1,215.999993562699
256,112,169471,5,4
296,360,170059,5,2
448,280,170648,1,0
448,104,171236,1,2
296,24,171824,1,4
216,24,172118,1,8
64,104,172707,1,2
64,280,173295,1,0
216,360,173883,1,0
256,288,174177,1,4
169,112,174765,6,2,B|191:84|227:84|227:84|284:84|284:84|320:84|342:112,2,192,2|6|2
256,192,176530,12,4,178883
256,160,179471,5,0
464,288,180059,2,0,B|440:320|440:320|416:352|376:352|376:352|296:352,1,192,0|8
215,352,180942,2,2,B|136:352|136:352|96:352|72:320|72:320|48:288,1,192,2|0
48,208,181824,1,0
176,72,182412,2,0,B|240:72|240:72|304:72|344:112|344:176|344:176|344:264,1,288,4|0
256,160,183883,5,0
256,160,184177,1,0
48,288,184765,2,0,B|72:320|72:320|96:352|136:352|136:352|216:352,1,192,0|8
297,352,185648,2,2,B|376:352|376:352|416:352|440:320|440:320|464:288,1,192,2|0
464,208,186530,1,0
336,72,187118,2,0,B|272:72|272:72|208:72|168:112|168:176|168:176|168:264,1,288,4|0
256,160,188883,5,0
464,288,189471,2,0,B|440:320|440:320|416:352|376:352|376:352|296:352,1,192,0|8
215,352,190354,2,2,B|136:352|136:352|96:352|72:320|72:320|48:288,1,192,2|0
48,208,191236,1,0
256,40,192118,5,0
408,120,192707,2,2,B|192:120,1,192
104,248,193883,2,0,B|320:248,1,192
408,376,195059,2,0,B|192:376,1,192,2|0
256,192,195942,12,4,197707
256,160,198295,5,0
48,272,198883,2,0,B|72:304|72:304|96:336|136:336|136:336|216:336,1,192,0|8
297,336,199765,2,2,B|376:336|376:336|416:336|440:304|440:304|464:272,1,192,2|0
464,192,200648,1,0
336,72,201236,2,0,B|272:72|272:72|208:72|168:112|168:176|168:176|168:264,1,288,4|0
256,160,202707,5,0
256,160,203001,1,0
464,272,203589,2,0,B|440:304|440:304|416:336|376:336|376:336|296:336,1,192,0|8
215,336,204471,2,2,B|136:336|136:336|96:336|72:304|72:304|48:272,1,192,2|0
48,192,205354,1,0
176,72,205942,2,0,B|240:72|240:72|304:72|344:112|344:176|344:176|344:264,1,288,4|0
256,160,207707,5,0
48,272,208295,2,0,B|72:304|72:304|96:336|136:336|136:336|216:336,1,192,0|8
297,336,209177,2,2,B|376:336|376:336|416:336|440:304|440:304|464:272,1,192,2|0
464,192,210059,1,0
352,56,210648,5,0
352,56,210942,2,0,B|152:56,1,192,0|4
256,192,212118,12,4,216530
