osu file format v9

[General]
AudioFilename: 04 Under the Sheets.mp3
AudioLeadIn: 0
PreviewTime: 56538
Countdown: 1
SampleSet: Normal
StackLeniency: 0.7
Mode: 0
LetterboxInBreaks: 1

[Editor]
Bookmarks: 9479,47126,75362,84773,141097,150656,176538,178891,212126,216538
DistanceSpacing: 0.8
BeatDivisor: 4
GridSize: 8

[Metadata]
Title:Under the Sheets
Artist:Ellie Goulding
Creator:RandomJibberish
Version:Hard
Source:
Tags:

[Difficulty]
HPDrainRate:7
CircleSize:3
OverallDifficulty:6
ApproachRate:6
SliderMultiplier:2.4
SliderTickRate:2

[Events]
//Background and Video events
0,0,"likealltheboysbefore.jpg"
Video,-961,"Ellie_Goulding_-_Under_The_Sheets.mp4.AVI"
//Break Periods
2,75362,83715
2,141097,149451
//Storyboard Layer 0 (Background)
//Storyboard Layer 1 (Fail)
//Storyboard Layer 2 (Pass)
//Storyboard Layer 3 (Foreground)
//Storyboard Sound Samples
//Background Colour Transformations
3,100,163,162,255

[TimingPoints]
60,588.235294117647,4,1,0,80,1,0
10342,-100,4,2,0,80,0,0
11224,-100,4,1,0,80,0,0
11371,-100,4,2,0,80,0,0
13430,-100,4,1,0,80,0,0
13650,-100,4,1,0,50,0,0
14018,-100,4,2,0,80,0,0
14606,-100,4,1,0,80,0,0
15047,-100,4,2,0,80,0,0
15930,-100,4,1,0,80,0,0
16077,-100,4,2,0,80,0,0
18136,-100,4,1,0,80,0,0
18356,-100,4,1,0,50,0,0
18577,-100,4,2,0,80,0,0
19312,-100,4,1,0,80,0,0
19606,-100,4,2,0,80,0,0
20636,-100,4,1,0,80,0,0
20783,-100,4,2,0,80,0,0
21665,-100,4,1,0,80,0,0
21959,-100,4,2,0,80,0,0
22842,-100,4,1,0,80,0,0
23062,-100,4,1,0,40,0,0
23283,-100,4,2,0,80,0,0
24092,-100,4,1,0,80,0,0
24312,-100,4,2,0,80,0,0
25268,-100,4,1,0,80,0,0
25415,-100,4,2,0,80,0,0
26445,-100,4,1,0,80,0,0
26592,-100,4,2,0,80,0,0
27033,-100,4,1,0,80,0,0
27400,-100,4,1,0,60,0,0
27842,-100,4,1,0,40,0,0
28283,-100,4,1,0,20,0,0
28577,-100,4,1,0,80,0,0
29165,-100,4,2,0,80,0,0
30047,-100,4,1,0,80,0,0
30195,-100,4,2,0,80,0,0
31077,-100,4,1,0,80,0,0
31371,-100,4,2,0,80,0,0
32253,-100,4,1,0,80,0,0
32474,-100,4,1,0,50,0,0
32695,-100,4,1,0,80,0,0
33871,-100,4,2,0,80,0,0
34753,-100,4,1,0,80,0,0
34900,-100,4,2,0,80,0,0
36959,-100,4,1,0,80,0,0
37180,-100,4,1,0,50,0,0
37400,-100,4,1,0,80,0,0
38577,-100,4,2,0,80,0,0
39459,-100,4,1,0,80,0,0
39606,-100,4,2,0,80,0,0
41665,-100,4,1,0,80,0,0
41886,-100,4,1,0,50,0,0
42400,-100,4,2,0,80,0,0
42915,-100,4,1,0,80,0,0
43062,-100,4,2,0,80,0,0
44092,-100,4,1,0,80,0,0
44239,-100,4,2,0,80,0,0
45268,-100,4,1,0,80,0,0
45489,-100,4,2,0,80,0,0
45783,-100,4,1,0,80,0,0
46077,-100,4,2,0,80,0,0
46371,-100,4,1,0,80,0,0
46665,-100,4,2,0,80,0,0
47400,-100,4,1,0,80,0,0
47989,-100,4,2,0,80,0,0
48577,-100,4,1,0,80,0,0
49165,-100,4,2,0,80,0,0
50047,-100,4,1,0,80,0,0
50489,-100,4,2,0,80,0,0
51224,-100,4,1,0,80,0,0
56530,-100,4,1,0,80,0,1
70930,-100,4,1,0,80,0,0
85636,-100,4,2,0,80,0,0
86518,-100,4,1,0,80,0,0
86665,-100,4,2,0,80,0,0
87547,-100,4,1,0,80,0,0
87989,-100,4,2,0,80,0,0
88724,-100,4,1,0,80,0,0
89018,-100,4,1,0,50,0,0
89165,-100,4,1,0,80,0,0
90342,-100,4,2,0,80,0,0
91224,-100,4,1,0,80,0,0
91297,-100,4,2,0,80,0,0
92253,-100,4,1,0,80,0,0
92547,-100,4,2,0,80,0,0
93430,-100,4,1,0,80,0,0
93724,-100,4,1,0,50,0,0
93871,-100,4,1,0,80,0,0
95047,-100,4,2,0,80,0,0
95930,-100,4,1,0,80,0,0
96077,-100,4,2,0,80,0,0
96959,-100,4,1,0,80,0,0
97253,-100,4,2,0,80,0,0
98136,-100,4,1,0,80,0,0
98430,-100,4,1,0,50,0,0
98577,-100,4,1,0,80,0,0
99753,-100,4,2,0,80,0,0
100636,-100,4,1,0,80,0,0
100783,-100,4,2,0,80,0,0
101665,-100,4,1,0,80,0,0
101959,-100,4,2,0,80,0,0
102842,-100,4,1,0,80,0,0
103136,-100,4,2,0,80,0,0
103283,-100,4,1,0,80,0,0
104018,-100,4,2,0,80,0,0
105342,-100,4,1,0,80,0,0
105489,-100,4,2,0,80,0,0
106371,-100,4,1,0,80,0,0
106665,-100,4,2,0,80,0,0
107695,-100,4,1,0,80,0,0
107842,-100,4,1,0,50,0,0
107989,-100,4,1,0,80,0,0
109165,-100,4,2,0,80,0,0
110047,-100,4,1,0,80,0,0
110195,-100,4,2,0,80,0,0
111077,-100,4,1,0,80,0,0
111371,-100,4,2,0,80,0,0
112400,-100,4,1,0,80,0,0
112547,-100,4,1,0,51,0,0
112695,-100,4,1,0,80,0,0
113871,-100,4,2,0,80,0,0
114753,-100,4,1,0,80,0,0
114900,-100,4,2,0,80,0,0
117400,-100,4,1,0,80,0,0
117989,-100,4,2,0,80,0,0
118209,-100,4,1,1,80,0,0
118724,-100,4,2,1,80,0,0
118797,-100,4,1,1,80,0,0
119312,-100,4,2,1,80,0,0
119386,-100,4,1,1,80,0,0
119900,-100,4,2,1,80,0,0
119974,-100,4,1,1,80,0,0
120489,-100,4,2,1,80,0,0
120562,-100,4,1,1,80,0,0
121077,-100,4,2,0,80,0,0
122412,-100,4,1,0,80,0,1
136812,-100,4,1,0,80,0,0
151371,-100,4,2,0,80,0,0
151665,-100,4,1,0,80,0,0
153724,-100,4,2,0,80,0,0
154018,-100,4,1,0,80,0,0
156077,-100,4,2,0,80,0,0
156371,-100,4,1,0,80,0,0
160342,-133.333333333333,4,2,0,80,0,0
169459,-100,4,1,0,80,0,1
169606,-100,4,1,0,80,0,0
171665,-100,4,1,0,80,0,0
171824,-100,4,1,0,80,0,1
171959,-100,4,1,0,80,0,0
174018,-100,4,1,0,80,0,0
174177,-100,4,1,0,80,0,1
175195,-100,4,2,0,80,0,0
175268,-100,4,1,0,80,0,0
175354,-100,4,1,0,80,0,1
175783,-100,4,2,0,80,0,1
175856,-100,4,1,0,80,0,1
176371,-100,4,2,0,80,0,1
176518,-100,4,1,0,80,0,0
178883,-100,4,1,0,80,0,1
196518,-100,4,1,0,80,0,0
197707,-100,4,1,0,80,0,1
211812,-100,4,1,0,40,0,0
216518,-100,4,2,0,80,0,0

[HitObjects]
128,168,9471,53,0
64,96,9765,1,0
0,24,10060,1,4
0,384,10648,2,0,B|24:296|112:296|112:296|256:296,1,240
313,296,11530,2,0,B|398:296|398:296|486:296|510:384,1,240,2|0
296,192,13001,1,0
232,120,13295,1,0
168,48,13589,1,0
168,48,13736,1,4
384,168,14177,5,2
448,96,14471,1,0
512,24,14765,1,4
512,384,15354,2,0,B|488:296|400:296|400:296|256:296,1,240
199,296,16236,2,0,B|114:296|114:296|26:296|2:384,1,240,2|0
120,192,17412,1,2
216,192,17707,1,0
280,120,18001,1,0
344,48,18295,1,0
344,48,18442,1,4
512,200,18883,5,0
480,112,19177,1,0
448,24,19471,1,0
512,384,20060,2,0,B|488:296|400:296|400:296|256:296,1,240
199,296,20942,2,0,B|114:296|114:296|26:296|2:384,1,240,2|0
64,24,22412,1,0
32,112,22707,1,0
0,200,23001,1,0
0,200,23148,1,4
208,16,24030,5,0
208,16,24177,2,0,B|304:16|304:16|360:16|392:88,1,180
304,96,24765,2,0,B|208:96|208:96|152:96|120:168,1,180
208,176,25354,2,0,B|304:176|304:176|360:176|392:248,1,180
304,256,25942,2,0,B|208:256|208:256|152:256|120:328,1,180
208,336,26530,2,0,B|304:336|304:336|360:336|392:408,1,180
456,376,27118,37,4
512,240,27560,1,0
400,152,28001,1,0
456,16,28442,1,0
256,16,28883,21,4
0,296,29471,2,0,B|24:384|112:384|112:384|256:384,1,240
314,384,30354,2,0,B|400:384|400:384|488:384|512:296,1,240
416,272,31236,1,0
328,232,31530,1,0
240,192,31824,1,2
152,152,32118,1,2
64,112,32412,1,0
64,112,32560,1,4
256,16,33589,5,4
512,296,34177,2,0,B|488:384|400:384|400:384|256:384,1,240
197,384,35060,2,0,B|112:384|112:384|24:384|0:296,1,240
184,232,36236,1,0
272,192,36530,1,2
360,152,36824,1,2
448,112,37118,1,0
448,112,37265,1,4
0,200,37707,5,0
32,112,38001,1,0
64,24,38295,1,4
0,296,38883,2,0,B|24:384|112:384|112:384|256:384,1,240
313,384,39765,2,0,B|398:384|398:384|486:384|510:296,1,240,2|0
360,56,40942,1,0
448,24,41236,1,0
480,112,41530,1,2
512,200,41824,1,0
512,200,41971,1,4
304,368,42854,5,0
304,368,43001,2,0,B|208:368|208:368|152:368|120:296,1,180
208,288,43589,2,0,B|304:288|304:288|360:288|392:216,1,180
304,208,44177,2,0,B|208:208|208:208|152:208|120:136,1,180
208,128,44765,2,0,B|304:128|304:128|360:128|392:56,1,180
448,128,45354,37,0
392,208,45648,1,0
304,256,45942,1,4
208,256,46236,1,2
120,208,46530,1,0
64,128,46824,1,0
56,24,47707,21,0
56,376,48295,1,4
328,24,48883,1,0
328,376,49471,1,4
456,376,49765,1,8
456,24,50354,1,2
184,376,50942,1,8
184,24,51530,1,4
440,56,52412,5,0
64,56,53001,1,2
440,328,53589,1,0
64,328,54177,1,4
136,264,54471,2,0,B|400:264,1,240,0|0
256,192,55354,12,4,56530
144,96,57118,38,0,B|184:64|216:64|216:64|296:64|296:64|328:64|368:96,1,240
304,168,58001,1,0
208,168,58295,1,8
144,240,58589,2,0,B|184:272|216:272|216:272|296:272|296:272|328:272|368:240,1,240,4|0
464,240,59471,2,0,B|464:272|464:272|464:312|448:360|400:376|352:376|352:376|280:376,1,240,0|2
195,376,60354,2,2,B|159:376|159:376|111:376|63:360|47:312|47:272|47:272|47:240,1,240
448,48,61530,5,0
368,96,61824,2,0,B|328:64|296:64|296:64|216:64|216:64|184:64|144:96,1,240
208,168,62707,1,0
304,264,63001,1,8
208,264,63295,1,0
304,168,63589,1,4
400,192,63883,5,0
496,192,64177,1,8
448,280,64471,1,0
368,344,64765,2,0,B|328:376|296:376|296:376|216:376|216:376|184:376|144:344,1,240,4|0
64,384,65648,1,0
144,96,66530,6,0,B|184:64|216:64|216:64|296:64|296:64|328:64|368:96,1,240
304,168,67412,1,0
208,168,67707,1,8
144,240,68001,2,0,B|184:272|216:272|216:272|296:272|296:272|328:272|368:240,1,240,4|0
464,240,68883,2,0,B|464:272|464:272|464:312|448:360|400:376|352:376|352:376|280:376,1,240,0|2
195,375,69765,2,0,B|159:375|159:375|111:375|63:359|47:311|47:271|47:271|47:239,1,240,0|4
256,192,70942,12,4,73001
32,240,84765,5,0
16,144,85060,1,0
0,48,85354,1,4
360,16,85942,2,0,B|408:16|408:16|464:16|512:64|512:120|512:120|512:192,1,240,2|0
512,248,86824,2,0,B|512:278|512:278|512:334|464:382|408:382|408:382|360:382,1,240,2|0
360,288,87707,1,0
216,96,88295,1,2
128,136,88589,1,0
40,96,88883,1,0
40,96,89030,1,4
480,240,89471,5,0
496,144,89765,1,0
512,48,90060,1,4
152,16,90648,2,0,B|104:16|104:16|48:16|0:64|0:120|0:120|0:192,1,240
0,248,91530,2,0,B|0:278|0:278|0:334|48:382|104:382|104:382|152:382,1,240
152,288,92412,1,0
296,96,93001,1,2
384,136,93295,1,0
472,96,93589,1,0
472,96,93736,1,4
112,368,94177,5,0
56,288,94471,1,0
112,208,94765,1,4
360,16,95354,2,0,B|408:16|408:16|464:16|512:64|512:120|512:120|512:192,1,240
512,248,96236,2,0,B|512:278|512:278|512:334|464:382|408:382|408:382|360:382,1,240
272,352,97118,1,0
184,320,97412,1,0
256,152,98001,1,0
256,56,98295,1,0
256,56,98442,1,4
400,368,98883,5,0
456,288,99177,1,0
400,208,99471,1,4
152,16,100060,2,0,B|104:16|104:16|48:16|0:64|0:120|0:120|0:192,1,240
0,248,100942,2,0,B|0:278|0:278|0:334|48:382|104:382|104:382|152:382,1,240
256,384,101824,1,0
256,208,102412,1,2
256,112,102707,1,2
256,16,103001,1,0
256,16,103148,1,0
512,32,103589,5,0
424,64,103883,1,0
336,96,104177,1,12
344,384,104765,2,0,B|296:384|296:384|240:384|192:336|192:280|192:280|192:208,1,240
192,152,105648,2,0,B|192:122|192:122|192:66|240:18|296:18|296:18|344:18,1,240
376,112,106530,1,0
408,200,106824,2,0,B|356:267|258:287|172:252,1,240
104,200,107707,1,0
104,200,107854,1,4
0,32,108295,5,0
88,64,108589,1,0
176,96,108883,1,4
168,384,109471,2,0,B|216:384|216:384|272:384|320:336|320:280|320:280|320:208,1,240
320,152,110354,2,0,B|320:122|320:122|320:66|272:18|216:18|216:18|168:18,1,240
112,96,111236,1,0
160,184,111530,1,0
208,272,111824,1,0
304,272,112118,1,0
256,184,112412,1,0
256,184,112560,1,4
0,200,113001,5,0
32,288,113295,1,0
64,376,113589,1,4
0,104,114177,2,0,B|24:16|112:16|112:16|256:16,1,240
313,16,115060,2,0,B|398:16|398:16|486:16|510:104,1,240,2|0
352,208,116236,1,0
160,208,116824,1,0
160,208,117118,1,4
256,360,117707,1,4
304,16,118148,5,0
304,16,118295,2,0,B|208:16|208:16|152:16|120:88,1,180
208,96,118883,2,0,B|304:96|304:96|360:96|392:168,1,180
304,176,119471,2,0,B|208:176|208:176|152:176|120:248,1,180
208,256,120060,2,0,B|304:256|304:256|360:256|392:328,1,180,4|0
304,336,120648,2,0,B|208:336|208:336|152:336|120:408,1,180
256,192,121236,12,4,122412
368,96,123001,6,0,B|328:64|296:64|296:64|216:64|216:64|184:64|144:96,1,240
208,168,123883,1,0
304,168,124177,1,8
368,240,124471,2,0,B|328:272|296:272|296:272|216:272|216:272|184:272|144:240,1,240,4|0
48,240,125354,2,0,B|48:272|48:272|48:312|64:360|112:376|160:376|160:376|232:376,1,240,0|2
317,376,126236,2,2,B|353:376|353:376|401:376|449:360|465:312|465:272|465:272|465:240,1,240
64,48,127412,5,0
144,96,127707,2,0,B|184:64|216:64|216:64|296:64|296:64|328:64|368:96,1,240
304,168,128589,1,0
208,264,128883,1,8
304,264,129177,1,0
208,168,129471,1,4
112,192,129765,5,0
16,192,130060,1,8
64,280,130354,1,0
144,344,130648,2,0,B|184:376|216:376|216:376|296:376|296:376|328:376|368:344,1,240,4|0
448,384,131530,1,0
368,96,132412,6,0,B|328:64|296:64|296:64|216:64|216:64|184:64|144:96,1,240
208,168,133295,1,0
304,168,133589,1,8
368,240,133883,2,0,B|328:272|296:272|296:272|216:272|216:272|184:272|144:240,1,240,4|0
48,240,134765,2,0,B|48:272|48:272|48:312|64:360|112:376|160:376|160:376|232:376,1,240,0|2
317,375,135648,2,0,B|353:375|353:375|401:375|449:359|465:311|465:271|465:271|465:239,1,240,0|4
256,192,136824,12,4,138883
296,200,150501,6,0,B|296:268|296:268|296:308|312:356|360:372|408:372|408:372|480:372,1,300,4|0
400,264,151530,1,0
505,301,151824,2,0,B|505:261|505:261|505:221|489:173|441:157|393:157|393:157|321:157,1,240,0|0
216,200,152707,5,0
216,200,152854,2,0,B|216:268|216:268|216:308|200:356|152:372|104:372|104:372|32:372,1,300,4|0
112,264,153883,1,0
7,301,154177,2,0,B|7:261|7:261|7:221|23:173|71:157|119:157|119:157|191:157,1,240,0|0
120,64,155059,5,0
120,64,155207,2,0,B|160:16|224:16|224:16|288:16|288:16|352:16|392:64,1,300,4|0
320,128,156236,1,0
368,208,156530,2,0,B|336:240|296:240|296:240|216:240|216:240|176:240|144:208,1,240,0|0
256,192,157707,12,2,159471
256,24,160059,5,4
456,280,160648,6,0,B|432:312|432:312|408:344|368:344|368:344|232:344,1,179.999994635582,2|0
256,264,161530,1,0
256,264,161824,1,0
210,344,162118,2,0,B|144:344|144:344|104:344|80:312|80:312|56:280,1,179.999994635582,2|0
104,202,163001,2,0,B|104:168|104:168|104:128|128:104|168:104|168:104|232:104,1,179.999994635582,0|2
300,104,163883,2,0,B|344:104|344:104|384:104|408:128|408:168|408:168|407:202,1,179.999994635582,0|4
128,160,165059,5,0
56,200,165354,2,0,B|80:232|80:232|104:264|144:264|144:264|280:264,1,179.999994635582,2|0
256,184,166236,1,0
256,184,166530,1,0
302,264,166824,2,0,B|368:264|368:264|408:264|432:232|432:232|456:200,1,179.999994635582,2|0
488,112,167707,1,0
400,128,168001,1,0
346,55,168295,2,0,B|146:55,1,179.999994635582,2|0
112,128,169177,1,4
256,320,169471,5,4
256,320,169765,1,0
456,24,170059,5,2
456,376,170648,1,4
184,24,171236,1,2
184,376,171824,1,4
56,376,172118,1,0
56,24,172707,1,2
328,376,173295,1,8
328,24,173883,1,0
256,112,174177,1,4
208,352,174618,37,0
208,352,174765,2,0,B|304:352|304:352|360:352|392:280,1,180
304,272,175354,2,0,B|208:272|208:272|152:272|120:200,1,180
208,192,175942,2,0,B|304:192|304:192|360:192|392:120,1,180
256,192,176530,12,4,178883
144,296,179471,22,0,B|176:328|216:328|216:328|296:328|296:328|336:328|368:296,1,240
304,224,180354,1,0
208,224,180648,1,8
144,152,180942,2,0,B|176:120|216:120|216:120|296:120|296:120|336:120|368:152,1,240,4|0
316,16,181824,2,0,B|351:16|351:16|399:16|447:32|463:80|463:120|463:120|463:152,1,240,0|2
464,248,182707,2,2,B|464:279|464:279|464:319|448:367|400:383|352:383|352:383|316:383,1,240,2|2
64,304,183883,5,0
144,256,184177,2,0,B|176:288|216:288|216:288|296:288|296:288|336:288|368:256,1,240,8|0
304,184,185059,1,0
208,88,185354,1,8
304,88,185648,1,0
208,184,185942,1,4
128,136,186236,5,0
104,232,186530,1,8
80,328,186824,1,0
8,264,187118,1,4
8,264,187265,1,0
8,264,187412,1,0
32,168,187707,1,8
56,72,188001,1,0
368,296,188883,6,2,B|336:328|296:328|296:328|216:328|216:328|176:328|144:296,1,240
208,224,189765,1,0
304,224,190059,1,8
368,152,190354,2,0,B|336:120|296:120|296:120|216:120|216:120|176:120|144:152,1,240,4|0
195,16,191236,2,0,B|159:16|159:16|111:16|63:32|47:80|47:120|47:120|47:152,1,240,0|2
8,240,192118,37,2
72,304,192412,1,8
136,368,192707,2,2,B|392:368,1,240,6|0
440,304,193589,1,8
376,240,193883,2,0,B|112:240,1,240
72,176,194765,1,8
136,112,195059,2,0,B|400:112,2,240,4|0|0
256,192,196530,12,4,197707
368,296,198295,22,0,B|336:328|296:328|296:328|216:328|216:328|176:328|144:296,1,240
208,224,199177,1,0
304,224,199471,1,8
368,152,199765,2,0,B|336:120|296:120|296:120|216:120|216:120|176:120|144:152,1,240,4|0
196,16,200648,2,0,B|160:16|160:16|112:16|64:32|48:80|48:120|48:120|48:152,1,240,0|2
48,248,201530,2,2,B|48:279|48:279|48:319|64:367|112:383|160:383|160:383|195:383,1,240,2|2
448,304,202707,5,0
368,256,203001,2,0,B|336:288|296:288|296:288|216:288|216:288|176:288|144:256,1,240,8|0
208,184,203883,1,0
304,88,204177,1,8
208,88,204471,1,0
304,184,204765,1,4
384,136,205059,5,0
408,232,205354,1,8
432,328,205648,1,0
504,264,205942,1,4
504,264,206089,1,0
504,264,206236,1,0
480,168,206530,1,8
456,72,206824,1,0
144,296,207707,6,2,B|176:328|216:328|216:328|296:328|296:328|336:328|368:296,1,240
304,224,208589,1,0
208,224,208883,1,8
144,152,209177,2,0,B|176:120|216:120|216:120|296:120|296:120|336:120|368:152,1,240,4|0
317,16,210059,2,0,B|352:16|352:16|400:16|448:32|464:80|464:120|464:120|464:152,1,240,0|2
464,248,210942,2,2,B|464:279|464:279|464:319|448:367|400:383|352:383|352:383|316:383,1,240,2|4
256,192,212118,12,4,216530
