osu file format v8

[General]
AudioFilename: 03-ellie_goulding-this_love_(will_be_your_downfall).mp3
AudioLeadIn: 0
PreviewTime: 61486
Countdown: 0
SampleSet: Soft
StackLeniency: 0.2
Mode: 1
LetterboxInBreaks: 0

[Editor]
Bookmarks: 43964,87791,105322,164490
DistanceSpacing: 0.8
BeatDivisor: 4
GridSize: 8

[Metadata]
Title:This Love (Will Be Your Downfall)
Artist:Ellie Goulding
Creator:Rukarioman
Version:lepidon! - Taiko Oni
Source:
Tags:RandomJibberish Lights DiamondCrash DC RJ lepidopodus lepidon

[Difficulty]
HPDrainRate:5
CircleSize:5
OverallDifficulty:5
ApproachRate:5
SliderMultiplier:1.4
SliderTickRate:2

[Events]
//Background and Video events
0,0,"BG.png"
//Break Periods
//Storyboard Layer 0 (Background)
//Storyboard Layer 1 (Fail)
//Storyboard Layer 2 (Pass)
//Storyboard Layer 3 (Foreground)
Sprite,Foreground,Centre,"SB\star.png",320,240 S,0,166692,,1.505623 M,0,166692,166829,173,204,90,420 R,0,166692,168336,0,6 M,0,168336,168884,90,420,173,204 R,0,168336,168884,3,13
Sprite,Foreground,Centre,"SB\star.png",320,240 S,0,167103,,1.485125 M,0,167103,167240,173,204,273,95 R,0,167103,168336,0,6 M,0,167240,,273,95 M,0,168336,168884,273,95,173,204 R,0,168336,168884,3,13 M,0,168884,,186,199,318,252
Sprite,Foreground,Centre,"SB\star.png",320,240 S,0,167514,,1.526121 M,0,167514,167651,173,204,338,428 R,0,167514,168336,0,6 M,0,168336,168884,338,428,173,204 R,0,168336,168884,3,13
Sprite,Foreground,Centre,"SB\star.png",320,240 S,0,167925,,1.587616 M,0,167925,168062,173,204,513,418 R,0,167925,168336,0,6 M,0,168336,168884,513,418,173,204 R,0,168336,168884,3,13
Sprite,Foreground,Centre,"SB\star.png",320,240 S,0,168336,,1.587616 M,0,168336,168884,672,405,173,204 R,0,168336,168884,3,13
Sprite,Foreground,Centre,"SB\star.png",320,240 S,0,168336,,1.587616 M,0,168336,168884,677,304,173,204 R,0,168336,168884,3,13
Sprite,Foreground,Centre,"SB\star.png",320,240 S,0,168336,,1.587616 M,0,168336,168884,157,511,173,204 R,0,168336,168884,3,13
Sprite,Foreground,Centre,"SB\star.png",320,240 S,0,168336,,1.587616 M,0,168336,168884,157,-30,173,204 R,0,168336,168884,3,13
Sprite,Foreground,Centre,"SB\star.png",320,240 S,0,168336,,1.587616 M,0,168336,168884,674,202,173,204 R,0,168336,168884,3,13
Sprite,Foreground,Centre,"SB\star.png",320,240 S,0,168336,,1.587616 M,0,168336,168884,673,102,173,204 R,0,168336,168884,3,13
Sprite,Foreground,Centre,"SB\star.png",320,240 S,0,168336,,1.587616 M,0,168336,168884,498,509,173,204 R,0,168336,168884,3,13
Sprite,Foreground,Centre,"SB\star.png",320,240 S,0,168336,,1.587616 M,0,168336,168884,479,-30,173,204 R,0,168336,168884,3,13
//Storyboard Sound Samples
//Background Colour Transformations
3,100,163,162,255

[TimingPoints]
8884,547.945205479452,4,2,1,75,1,0
61486,-100,4,2,1,75,0,1
79020,-100,4,2,1,75,0,0
122856,-100,4,2,1,75,0,1
149157,-100,4,2,1,75,0,0
168884,-100,4,2,1,75,0,1
195185,-100,4,2,1,75,0,0

[HitObjects]
176,104,8884,1,0
280,136,9431,1,8
360,216,9979,1,0
336,264,10253,1,0
376,224,10527,1,8
328,120,11075,1,0
408,200,11623,1,8
488,272,12171,1,8
480,216,12445,1,0
440,176,12719,1,8
352,240,13267,1,0
424,152,13815,1,8
320,192,14363,1,0
288,232,14637,1,0
344,232,14911,1,8
416,144,15459,1,0
376,248,16007,1,8
440,160,16555,1,8
432,104,16829,1,0
448,160,17103,1,8
432,216,17377,1,0
400,264,17651,5,0
312,192,18199,1,8
424,176,18747,1,0
448,224,19020,1,0
424,176,19294,1,8
408,232,19568,1,0
376,272,19842,1,0
400,160,20390,1,8
352,264,20938,1,8
384,216,21212,1,0
360,168,21486,1,8
352,264,22034,1,0
400,288,22308,1,0
416,232,22582,1,8
464,128,23130,1,0
416,152,23404,1,0
400,200,23678,1,8
376,248,23952,1,0
328,280,24226,1,0
392,184,24774,1,8
416,232,25048,1,0
408,288,25322,1,0
408,232,25596,1,8
400,176,25870,1,0
392,184,26144,1,8
336,152,26418,5,0
312,168,26555,1,0
368,184,26829,1,8
400,232,27103,1,0
352,256,27377,1,0
296,264,27651,1,0
240,248,27925,1,0
288,224,28199,1,8
368,192,28610,1,0
392,184,29157,1,8
280,176,29705,1,8
328,152,29979,1,0
384,160,30253,1,0
424,200,30527,1,8
392,248,30801,1,0
376,272,30938,1,0
408,224,31212,1,8
352,216,31486,1,0
384,264,31760,1,0
408,312,32034,1,0
440,264,32308,1,0
416,208,32719,1,0
376,176,32993,1,8
424,208,33267,1,0
440,232,33404,1,0
424,176,33678,1,8
488,120,34089,1,0
376,176,34363,1,8
376,232,34637,1,0
376,288,34911,1,8
336,256,35185,5,0
312,240,35322,1,0
376,176,35596,1,8
432,192,35870,1,0
440,248,36144,1,0
400,288,36418,1,0
400,232,36692,1,0
352,200,36966,1,8
272,184,37377,1,0
376,144,37925,1,8
312,232,38473,1,8
368,224,38747,1,0
400,264,39020,1,0
368,152,39568,1,0
384,128,39705,1,0
424,168,39979,1,8
408,224,40253,1,0
384,272,40527,1,0
328,288,40801,1,0
272,296,41075,1,0
328,240,41486,1,0
376,208,41760,1,8
392,264,42034,1,0
392,288,42171,1,0
400,232,42445,1,8
352,160,42856,1,0
408,152,43130,1,8
432,200,43404,1,0
408,208,43541,1,0
448,144,43678,1,8
392,128,43952,5,0
368,128,44089,1,0
344,136,44226,1,0
360,192,44500,1,8
384,240,44774,1,0
336,272,45048,1,0
312,288,45185,1,0
288,296,45322,1,0
328,264,45596,1,8
384,256,45870,1,0
304,248,46007,1,0
328,248,46144,1,0
280,240,46418,1,0
328,216,46692,1,8
384,224,46966,1,0
408,240,47103,1,0
424,264,47240,1,0
448,208,47514,1,0
408,168,47788,1,8
392,128,48336,1,0
368,128,48473,1,0
344,136,48610,1,0
360,192,48884,1,8
384,240,49158,1,0
336,272,49432,1,0
312,288,49569,1,0
288,296,49706,1,0
328,264,49980,1,8
384,256,50254,1,0
304,248,50390,1,0
328,248,50528,1,0
280,240,50802,1,0
328,216,51076,1,8
384,224,51350,1,0
408,240,51487,1,0
424,264,51624,1,0
448,208,51898,1,0
408,168,52172,1,8
296,136,52719,5,0
288,192,52993,1,0
304,216,53130,1,0
328,224,53267,1,8
376,256,53541,1,0
408,296,53815,1,0
352,304,54089,1,0
328,304,54226,1,0
328,280,54363,1,8
376,248,54637,1,0
392,272,54774,1,0
408,296,54911,1,0
376,144,55459,1,8
408,192,55733,1,0
408,216,55870,1,0
400,240,56007,1,0
360,280,56281,1,0
376,224,56555,1,8
400,240,56829,1,0
344,232,57103,1,0
320,224,57240,1,0
296,224,57377,1,0
272,208,57514,1,0
280,184,57651,1,8
384,216,58199,1,0
400,232,58336,1,0
416,256,58473,1,0
392,272,58610,1,0
392,248,58747,1,8
288,208,59294,1,0
264,200,59431,1,0
240,192,59568,1,0
216,176,59705,1,0
240,160,59842,1,8
296,176,60116,1,0
320,192,60253,1,0
336,216,60390,1,0
400,272,60664,1,0
400,216,60938,1,0
400,160,61212,1,0
352,128,61486,5,4
296,128,61760,1,0
320,176,62034,1,8
360,216,62308,1,0
376,240,62445,1,0
368,264,62582,1,0
408,304,62856,1,0
432,296,63130,1,8
408,248,63404,1,0
384,256,63541,1,0
360,264,63678,1,0
304,264,63952,1,0
280,256,64089,1,0
288,232,64226,1,8
336,208,64500,1,0
360,200,64637,1,0
392,200,64774,1,0
336,192,65048,1,0
312,192,65185,1,0
336,176,65322,1,8
264,216,65596,1,0
240,232,65870,1,0
248,176,66144,1,0
304,168,66418,1,8
344,208,66692,1,0
360,232,66829,1,0
376,256,66966,1,0
424,232,67240,1,0
392,184,67514,1,8
400,240,67788,1,0
384,264,67925,1,0
360,280,68062,1,0
304,280,68336,1,0
280,272,68473,1,0
288,248,68610,1,8
336,224,68884,1,8
360,208,69020,1,8
376,184,69157,1,0
408,224,69431,1,0
424,248,69568,1,0
400,232,69705,1,8
384,176,69979,1,8
336,152,70253,5,0
280,168,70527,1,0
424,248,70801,1,8
368,232,71075,1,0
344,232,71212,1,0
320,232,71349,1,0
272,200,71623,1,0
320,176,71897,1,8
368,200,72171,1,0
384,224,72308,1,0
392,248,72445,1,0
440,280,72719,1,0
464,296,72856,1,0
448,272,72993,1,8
416,224,73267,1,0
392,216,73404,1,0
368,216,73541,1,0
312,216,73815,1,0
288,216,73952,1,0
304,192,74089,1,8
256,168,74363,1,0
304,144,74637,1,0
360,152,74911,1,0
408,176,75185,1,8
400,232,75459,1,0
384,256,75596,1,0
360,272,75733,1,0
304,256,76007,1,0
360,152,76281,1,8
416,160,76555,1,0
448,160,76692,1,0
448,160,76829,1,0
432,216,77103,1,0
416,240,77240,1,0
392,256,77377,1,8
336,256,77651,1,8
312,256,77788,1,8
312,232,77925,1,0
264,200,78199,1,0
288,192,78336,1,0
312,176,78473,1,8
256,192,78747,12,0,83404
288,208,83952,5,0
360,296,84500,1,0
256,344,85048,1,8
280,232,85596,1,0
384,184,86144,1,8
376,296,86692,1,0
264,312,87240,1,0
264,200,87788,5,0
288,184,87925,1,0
344,184,88199,1,8
360,240,88473,1,0
360,296,88747,1,0
304,312,89020,1,0
248,304,89294,1,0
280,256,89568,1,8
352,208,89979,1,0
296,200,90253,1,0
416,120,90527,1,8
376,224,91075,1,8
328,256,91349,1,0
320,200,91623,1,0
272,168,91897,1,8
240,128,92171,1,0
264,120,92308,1,0
320,128,92582,1,8
360,168,92856,1,0
392,216,93130,1,0
376,272,93404,1,0
320,296,93678,1,8
360,168,94089,1,0
400,128,94363,1,8
424,176,94637,1,0
416,152,94774,1,0
432,208,95048,1,8
344,208,95459,1,0
392,240,95733,1,8
368,192,96007,1,0
384,136,96281,1,8
264,200,96555,5,0
288,184,96692,1,0
344,184,96966,1,8
360,240,97240,1,0
360,296,97514,1,0
304,312,97787,1,0
248,304,98061,1,0
280,256,98335,1,8
352,208,98746,1,0
296,200,99020,1,0
416,120,99294,1,8
376,152,99568,1,0
368,176,99705,1,0
376,224,99842,1,8
328,256,100116,1,0
320,200,100390,1,0
240,120,100938,1,0
264,120,101075,1,0
320,128,101349,1,8
360,160,101623,1,0
384,208,101897,1,0
376,264,102171,1,0
408,216,102445,1,0
416,160,102719,1,8
336,152,103130,1,0
352,208,103404,1,0
368,232,103541,1,8
312,216,103815,1,8
240,168,104226,1,0
216,184,104363,1,0
192,192,104500,1,0
192,216,104637,1,0
216,216,104774,1,8
392,128,105322,5,0
368,128,105459,1,0
344,136,105596,1,0
360,192,105870,1,8
384,240,106144,1,0
336,272,106418,1,0
312,288,106555,1,0
288,296,106692,1,0
328,264,106966,1,8
384,256,107240,1,0
304,248,107377,1,0
328,248,107514,1,0
280,240,107788,1,0
328,216,108062,1,8
384,224,108336,1,0
408,240,108473,1,0
424,264,108610,1,0
448,208,108884,1,0
408,168,109158,1,8
392,128,109706,1,0
368,128,109843,1,0
344,136,109980,1,0
360,192,110254,1,8
384,240,110528,1,0
336,272,110802,1,0
312,288,110939,1,0
288,296,111076,1,0
328,264,111350,1,8
384,256,111624,1,0
304,248,111760,1,0
328,248,111898,1,0
280,240,112172,1,0
328,216,112446,1,8
384,224,112720,1,0
408,240,112857,1,0
424,264,112994,1,0
448,208,113268,1,0
408,168,113542,1,8
296,136,114089,5,0
288,192,114363,1,0
304,216,114500,1,0
328,224,114637,1,8
376,256,114911,1,0
408,296,115185,1,0
352,304,115459,1,0
328,304,115596,1,0
328,280,115733,1,8
376,248,116007,1,0
392,272,116144,1,0
408,296,116281,1,0
328,272,116692,1,0
376,144,116829,1,8
408,192,117103,1,0
408,216,117240,1,0
400,240,117377,1,0
360,280,117651,1,0
376,224,117925,1,8
400,240,118199,1,0
344,232,118473,1,0
320,224,118610,1,0
296,224,118747,1,0
272,208,118884,1,0
280,184,119021,1,8
248,224,119294,1,0
384,216,119569,1,0
400,232,119706,1,0
416,256,119843,1,0
392,272,119980,1,0
392,248,120117,1,8
360,288,120390,1,0
288,208,120664,1,0
264,200,120801,1,0
240,192,120938,1,0
216,176,121075,1,0
240,160,121212,1,8
296,176,121486,1,0
336,216,121760,1,0
312,224,121897,1,0
400,272,122034,1,0
400,216,122308,1,12
400,160,122582,1,12
352,128,122856,5,4
296,128,123130,1,0
320,176,123404,1,8
360,216,123678,1,0
376,240,123815,1,0
368,264,123952,1,0
408,304,124226,1,0
432,296,124500,1,8
408,248,124774,1,0
384,256,124911,1,0
360,264,125048,1,0
304,264,125322,1,0
280,256,125459,1,0
288,232,125596,1,8
336,208,125870,1,0
360,200,126007,1,0
392,200,126144,1,0
336,192,126418,1,0
312,192,126555,1,0
336,176,126692,1,8
264,216,126966,1,0
240,232,127240,1,0
248,176,127514,1,0
304,168,127788,1,8
344,208,128062,1,0
360,232,128199,1,0
376,256,128336,1,0
424,232,128610,1,0
392,184,128884,1,8
400,240,129158,1,0
384,264,129295,1,0
360,280,129432,1,0
304,280,129706,1,0
280,272,129843,1,0
288,248,129980,1,8
336,224,130254,1,8
360,208,130390,1,8
376,184,130527,1,0
408,224,130801,1,0
424,248,130938,1,0
400,232,131075,1,8
384,176,131349,1,8
336,152,131623,5,0
280,168,131897,1,0
424,248,132171,1,8
368,232,132445,1,0
344,232,132582,1,0
320,232,132719,1,0
272,200,132993,1,0
320,176,133267,1,8
368,200,133541,1,0
384,224,133678,1,0
392,248,133815,1,0
440,280,134089,1,0
464,296,134226,1,0
448,272,134363,1,8
416,224,134637,1,0
392,216,134774,1,0
368,216,134911,1,0
312,216,135185,1,0
288,216,135322,1,0
304,192,135459,1,8
256,168,135733,1,0
304,144,136007,1,0
360,152,136281,1,0
408,176,136555,1,8
400,232,136829,1,0
384,256,136966,1,0
360,272,137103,1,0
304,256,137377,1,0
360,152,137651,1,8
416,160,137925,1,0
448,160,138062,1,0
448,160,138199,1,0
432,216,138473,1,0
416,240,138610,1,0
392,256,138747,1,8
336,256,139021,1,8
312,256,139158,1,8
312,232,139295,1,0
264,200,139569,1,0
288,192,139706,1,0
312,176,139843,1,8
256,176,140116,1,8
232,192,140253,1,0
216,216,140390,5,0
200,160,140664,1,0
256,160,140938,1,8
312,160,141212,1,0
336,168,141349,1,8
360,176,141486,1,0
384,224,141760,1,0
440,224,142034,1,8
464,272,142308,1,0
440,288,142445,1,0
416,296,142582,1,0
360,288,142856,1,0
336,280,142993,1,0
328,256,143130,1,8
368,216,143404,1,0
392,200,143541,1,0
416,184,143678,1,0
400,240,143952,1,0
384,264,144089,1,0
376,240,144226,1,8
368,184,144500,1,0
344,176,144637,1,0
320,176,144774,1,0
264,176,145048,1,0
312,152,145322,1,8
368,144,145596,1,0
392,152,145733,1,8
416,168,145870,1,0
408,224,146144,1,0
368,264,146418,1,8
312,272,146692,1,0
288,272,146829,1,0
264,272,146966,1,0
264,216,147240,1,0
280,192,147377,1,0
304,184,147514,1,8
360,176,147788,1,8
384,176,147925,1,8
400,200,148062,1,0
400,256,148336,1,0
392,280,148473,1,0
376,256,148610,1,8
256,192,148884,12,0,153541
128,192,157925,5,0
232,232,158473,1,0
344,224,159020,1,0
432,288,159568,1,0
320,288,160116,1,0
304,176,160664,1,0
344,280,161212,1,0
296,176,161760,1,0
376,256,162308,1,0
416,296,162582,1,0
368,320,162856,1,0
264,288,163404,1,0
320,304,163678,1,0
320,304,163952,1,0
264,232,164500,5,0
288,248,164637,1,0
296,272,164774,1,0
240,280,165048,1,0
216,288,165185,1,0
192,296,165322,1,0
248,280,165596,1,0
272,272,165733,1,0
296,264,165870,1,0
320,264,166007,1,0
344,272,166144,1,0
400,264,166281,1,0
400,264,166418,1,0
376,216,166692,1,8
400,264,167103,1,0
360,336,167514,1,0
352,256,167925,1,8
344,176,168336,1,8
400,264,168473,1,8
408,288,168610,1,8
392,264,168747,1,8
216,216,168884,5,0
200,160,169158,1,0
256,160,169432,1,8
312,160,169706,1,0
336,168,169843,1,8
360,176,169980,1,0
384,224,170254,1,0
440,224,170528,1,8
464,272,170802,1,0
440,288,170939,1,0
416,296,171076,1,0
360,288,171350,1,0
336,280,171487,1,0
328,256,171624,1,8
368,216,171898,1,0
392,200,172035,1,0
416,184,172172,1,0
400,240,172446,1,0
384,264,172583,1,0
376,240,172720,1,8
368,184,172994,1,0
344,176,173131,1,0
320,176,173268,1,0
264,176,173542,1,0
312,152,173816,1,8
368,144,174090,1,0
392,152,174227,1,8
416,168,174364,1,0
408,224,174638,1,0
368,264,174912,1,8
312,272,175186,1,0
288,272,175323,1,0
264,272,175460,1,0
264,216,175734,1,0
280,192,175871,1,0
304,184,176008,1,8
360,176,176282,1,8
384,176,176419,1,8
400,200,176556,1,0
400,256,176830,1,0
392,280,176967,1,0
376,256,177104,1,8
384,200,177377,1,8
400,224,177514,1,0
216,216,177651,5,0
200,160,177925,1,0
256,160,178199,1,8
312,160,178473,1,0
336,168,178610,1,8
360,176,178747,1,0
384,224,179021,1,0
440,224,179295,1,8
464,272,179569,1,0
440,288,179706,1,0
416,296,179843,1,0
360,288,180117,1,0
336,280,180254,1,0
328,256,180391,1,8
368,216,180665,1,8
392,200,180802,1,0
416,184,180939,1,0
400,240,181213,1,8
384,264,181350,1,0
376,240,181487,1,8
368,184,181761,1,0
344,176,181898,1,0
320,176,182035,1,0
264,176,182309,1,0
312,152,182583,1,8
368,144,182857,1,0
392,152,182994,1,8
416,168,183131,1,0
408,224,183405,1,0
368,264,183679,1,8
312,272,183953,1,0
288,272,184090,1,0
264,272,184227,1,0
264,216,184501,1,0
280,192,184638,1,0
304,184,184775,1,8
360,176,185049,1,8
384,176,185186,1,8
400,200,185323,1,0
400,256,185597,1,0
392,280,185734,1,0
376,256,185871,1,8
384,200,186144,1,8
400,224,186281,1,0
216,216,186418,5,0
200,160,186692,1,0
256,160,186966,1,8
312,160,187240,1,0
336,168,187377,1,8
360,176,187514,1,0
384,224,187788,1,0
440,224,188062,1,8
464,272,188336,1,0
440,288,188473,1,0
416,296,188610,1,0
360,288,188884,1,0
336,280,189021,1,0
328,256,189158,1,8
368,216,189432,1,0
392,200,189569,1,0
416,184,189706,1,0
400,240,189980,1,0
384,264,190117,1,0
376,240,190254,1,8
368,184,190528,1,0
344,176,190665,1,0
320,176,190802,1,0
264,176,191076,1,0
312,152,191350,1,8
368,144,191624,1,0
392,152,191761,1,8
416,168,191898,1,0
408,224,192172,1,0
368,264,192446,1,8
312,272,192720,1,0
288,272,192857,1,0
264,272,192994,1,0
264,216,193268,1,0
280,192,193405,1,0
304,184,193542,1,8
360,176,193816,1,8
384,176,193953,1,8
400,200,194090,1,0
376,208,194226,1,0
400,256,194364,1,0
392,280,194501,1,0
376,256,194638,1,8
256,192,194911,12,0,203952
