osu file format v8

[General]
AudioFilename: 03-ellie_goulding-this_love_(will_be_your_downfall).mp3
AudioLeadIn: 0
PreviewTime: 61486
Countdown: 0
SampleSet: Soft
StackLeniency: 0.2
Mode: 0
LetterboxInBreaks: 0

[Editor]
Bookmarks: 43964,87791,105322,164490
DistanceSpacing: 0.8
BeatDivisor: 4
GridSize: 8

[Metadata]
Title:This Love (Will Be Your Downfall)
Artist:Ellie Goulding
Creator:Rukarioman
Version:Hard
Source:
Tags:RandomJibberish Lights DiamondCrash DC RJ lepidopodus lepidon

[Difficulty]
HPDrainRate:7
CircleSize:4
OverallDifficulty:6
ApproachRate:7
SliderMultiplier:2.4
SliderTickRate:2

[Events]
//Background and Video events
0,0,"BG.png"
//Break Periods
2,83604,86888
2,153741,163600
//Storyboard Layer 0 (Background)
//Storyboard Layer 1 (Fail)
//Storyboard Layer 2 (Pass)
//Storyboard Layer 3 (Foreground)
Sprite,Foreground,Centre,"SB\star.png",320,240 S,0,166692,,1.505623 M,0,166692,166829,320,381,151,381 R,0,166692,168336,0,6 M,0,166829,168336,151,381,320,381 M,0,168336,168884,320,381,321,254 R,0,168336,168884,3,13
Sprite,Foreground,Centre,"SB\star.png",320,240 S,0,166692,,1.505623 M,0,166692,166829,320,381,477,381 R,0,166692,168336,0,6 M,0,166829,168336,477,381,320,381 M,0,168336,168884,320,381,321,254 R,0,168336,168884,3,13
Sprite,Foreground,Centre,"SB\star.png",320,240 S,0,167103,,1.485125 M,0,167103,167240,160,253,160,379 R,0,167103,168336,0,6 M,0,167240,168336,160,379,160,252 M,0,168336,168884,160,252,318,252 R,0,168336,168884,3,13
Sprite,Foreground,Centre,"SB\star.png",320,240 S,0,167103,,1.485125 M,0,167103,167240,160,253,160,120 R,0,167103,168336,0,6 M,0,167240,168336,160,120,160,252 M,0,168336,168884,160,252,318,252 R,0,168336,168884,3,13
Sprite,Foreground,Centre,"SB\star.png",320,240 F,0,167514,,1 S,0,167514,,1.526121 M,0,167514,167651,320,127,155,126 R,0,167514,168336,0,6 M,0,167651,168336,155,126,320,126 M,0,168336,168884,320,126,317,253 R,0,168336,168884,3,13
Sprite,Foreground,Centre,"SB\star.png",320,240 F,0,167514,,1 S,0,167514,,1.526121 M,0,167514,167651,320,127,462,125 R,0,167514,168336,0,6 M,0,167651,168336,462,125,320,126 M,0,168336,168884,320,126,317,253 R,0,168336,168884,3,13
Sprite,Foreground,Centre,"SB\star.png",320,240 S,0,167925,,1.587616 M,0,167925,168062,485,252,478,124 R,0,167925,168336,0,6 M,0,168062,168336,478,124,485,252 M,0,168336,168884,485,252,323,252 R,0,168336,168884,3,13
Sprite,Foreground,Centre,"SB\star.png",320,240 S,0,167925,,1.587616 M,0,167925,168062,485,252,480,379 R,0,167925,168336,0,6 M,0,168062,168336,480,379,485,252 M,0,168336,168884,485,252,323,252 R,0,168336,168884,3,13
Sprite,Foreground,Centre,"SB\star.png",320,240 S,0,168336,,1.587616 M,0,168336,168884,672,405,321,254 R,0,168336,168884,3,13
Sprite,Foreground,Centre,"SB\star.png",320,240 S,0,168336,,1.587616 M,0,168336,168884,-32,128,317,253 R,0,168336,168884,3,13
Sprite,Foreground,Centre,"SB\star.png",320,240 S,0,168336,,1.587616 M,0,168336,168884,157,511,318,252 R,0,168336,168884,3,13
Sprite,Foreground,Centre,"SB\star.png",320,240 S,0,168336,,1.587616 M,0,168336,168884,157,-30,318,252 R,0,168336,168884,3,13
Sprite,Foreground,Centre,"SB\star.png",320,240 S,0,168336,,1.587616 M,0,168336,168884,-33,401,321,254 R,0,168336,168884,3,13
Sprite,Foreground,Centre,"SB\star.png",320,240 S,0,168336,,1.587616 M,0,168336,168884,673,126,317,253 R,0,168336,168884,3,13
Sprite,Foreground,Centre,"SB\star.png",320,240 S,0,168336,,1.587616 M,0,168336,168884,498,509,323,252 R,0,168336,168884,3,13
Sprite,Foreground,Centre,"SB\star.png",320,240 S,0,168336,,1.587616 M,0,168336,168884,479,-30,323,252 R,0,168336,168884,3,13
//Storyboard Sound Samples
//Background Colour Transformations
3,100,163,162,255

[TimingPoints]
8884,547.945205479452,4,2,1,86,1,0
43952,-90.9090909090909,4,2,1,86,0,0
61486,-83.3333333333333,4,2,1,87,0,1
78747,-100,4,2,1,86,0,0
83404,-100,4,2,1,10,0,0
87651,-100,4,2,1,86,0,0
105322,-90.9090909090909,4,2,1,86,0,0
122856,-83.3333333333333,4,2,1,85,0,1
148884,-100,4,2,1,86,0,0
153541,-100,4,2,1,11,0,0
164226,-100,4,2,1,62,0,0
168884,-83.3333333333333,4,2,1,86,0,1
194911,-100,4,2,1,100,0,0
203952,-100,4,2,1,10,0,0

[HitObjects]
256,40,8884,1,2
480,192,9431,2,0,B|424:131|304:112|208:272|96:251|32:192,2,480,8|8|8
344,328,12171,5,0
256,280,12445,1,2
168,232,12719,1,2
256,192,12993,1,0
392,240,13541,1,0
472,192,13815,2,8,B|392:88|280:120|256:96|232:120|120:88|40:192,2,480
104,224,16555,5,0
200,184,16829,1,2
312,184,17103,1,2
408,224,17377,1,0
40,256,18199,2,8,B|120:360|232:328|256:352|280:328|392:360|472:256,2,480
304,264,20938,5,0
208,264,21212,1,2
144,192,21486,2,0,B|192:160|256:136|320:160|368:192,2,240,8|0|8
208,264,22856,1,0
440,160,23404,1,0
480,64,23678,2,8,B|424:3|304:-15|208:144|96:123|32:65,1,480
40,248,25322,5,0
104,160,25596,1,2
168,280,25870,1,8
224,128,26144,1,2
296,192,26418,5,8
296,192,26555,1,0
392,192,26829,1,0
480,144,27103,1,0
480,240,27377,1,2
392,120,27651,1,0
344,264,27925,1,2
296,120,28199,1,0
192,288,28610,2,0,B|120:248|136:192|120:136|192:88,1,240,8|0
293,360,29705,6,0,B|357:248,1,120,0|2
384,360,30253,2,0,B|450:241,1,120,8|2
376,192,30801,5,8
376,192,30938,1,0
288,152,31212,2,0,B|232:112|176:152,1,120
288,232,31760,2,0,B|232:272|176:232,1,120,2|0
112,112,32308,2,0,B|40:192|112:272,1,180,2|0
176,151,32993,2,0,B|232:112|288:152,1,120,8|0
288,232,33404,2,0,B|232:271|176:231,1,120,2|0
344,192,34089,5,0
480,120,34363,1,2
480,264,34637,1,8
344,192,34911,1,2
256,352,35185,5,8
256,352,35322,1,0
296,264,35596,2,0,B|360:160,1,120
216,264,36144,2,0,B|152:160,1,120,2|0
256,192,36692,2,0,B|256:64,1,120,2|0
256,72,37377,1,8
256,72,37925,1,0
64,56,38473,5,0
104,144,38747,1,2
104,240,39020,1,8
64,328,39294,1,2
160,192,39568,5,8
160,192,39705,1,0
256,152,39979,1,0
352,192,40253,1,0
256,232,40527,2,0,B|256:352,2,120,2|0|2
256,232,41486,1,0
352,192,41760,1,8
352,192,41897,1,2
256,152,42171,1,0
160,192,42445,1,0
160,192,42856,2,0,B|184:256|256:264|328:256|352:192,1,240,8|0
256,32,43952,5,8
256,32,44089,1,0
308,138,44363,1,0
204,138,44637,1,0
204,246,44911,1,0
308,246,45185,1,0
384,136,45459,2,0,B|416:160|424:192|416:224|384:248,1,131.999996066094,2|0
256,192,46007,1,0
128,248,46281,2,0,B|96:224|88:192|96:160|128:136,1,131.999996066094
256,192,46829,1,0
403,335,47240,5,4
457,244,47514,1,2
457,140,47788,1,8
403,48,48062,1,2
408,192,48336,5,8
408,192,48473,1,0
336,120,48747,1,0
256,48,49020,1,0
176,120,49294,1,2
104,192,49568,1,0
176,264,49842,1,2
256,336,50116,1,0
256,336,50527,1,8
336,264,50801,1,0
336,264,50938,1,2
408,192,51212,1,0
403,48,51623,5,2
308,95,51897,1,2
204,95,52171,1,8
108,49,52445,1,0
32,112,52719,6,0,B|104:112|120:160|136:192|120:224|104:272|32:272,1,263.999992132187,4|8
336,32,53815,2,0,B|336:104|288:120|256:136|224:120|176:104|176:32,1,263.999992132187,0|8
480,272,54911,2,0,B|408:272|392:224|376:192|392:160|408:112|480:112,1,263.999992132187,0|8
176,352,56007,2,0,B|176:280|224:264|256:248|288:264|336:280|336:352,1,263.999992132187,0|8
256,192,56829,1,2
256,192,56966,12,8,59842
256,32,60938,5,8
256,144,61212,1,8
256,152,61349,1,0
256,160,61486,1,4
256,272,61760,1,2
352,352,62034,6,0,B|307:306|330:238|347:210|375:193|443:170|488:216,2,288.000006866455,8|0|8
24,168,63678,2,0,B|69:214|137:191|165:174|182:146|205:78|159:33,2,288.000006866455,0|8|0
256,272,65322,1,8
256,160,65596,1,8
256,152,65733,1,0
256,144,65870,1,0
256,32,66144,1,2
352,32,66418,6,0,B|307:77|330:145|347:173|375:190|443:213|488:167,2,288.000006866455,8|0|8
24,216,68062,2,0,B|70:170|138:193|166:210|183:238|206:306|160:351,2,288.000006866455,0|8|0
256,32,69705,1,8
256,144,69979,1,8
256,152,70116,1,0
256,160,70253,1,0
256,272,70527,1,2
408,272,70801,5,8
408,112,71349,1,0
256,192,71897,1,8
104,112,72445,1,0
104,272,72993,1,8
256,192,73541,1,0
376,56,74089,2,0,B|440:120|376:184,1,144.000003433228,8|8
378,192,74500,1,0
378,201,74637,2,0,B|442:265|378:329,1,144.000003433228,0|2
256,352,75185,5,8
480,192,75733,1,0
256,32,76281,1,8
32,192,76829,1,0
256,192,77377,1,8
352,272,77925,2,0,B|384:176|328:104|256:77|184:104|128:176|160:272,1,432.000010299683,0|2
256,192,78884,12,0,83404
256,192,87788,5,8
256,192,87925,1,0
200,112,88199,1,0
88,112,88473,1,0
32,192,88747,1,2
88,264,89020,2,0,B|144:304|200:264,1,120,0|2
256,192,89568,1,0
384,136,89979,2,0,B|424:192|384:248,2,120,8|0|0
392,328,91075,5,0
304,288,91349,1,2
208,288,91623,1,8
120,328,91897,1,2
256,232,92171,5,8
256,232,92308,2,0,B|184:192|128:256|144:288,1,120
256,232,92856,2,0,B|328:192|384:256|368:288,1,120,0|2
256,152,93404,1,0
184,88,93678,2,0,B|208:48|256:16|304:48|328:88,1,180,2|0
256,152,94363,1,8
256,152,94500,1,0
344,192,94774,1,0
344,192,95048,1,0
168,192,95459,6,0,B|168:72,1,120,0|2
88,192,96007,2,0,B|88:328,1,120,8|2
256,336,96555,5,8
256,336,96692,1,0
312,264,96966,1,0
400,232,97240,1,0
488,192,97514,1,2
400,152,97788,1,0
312,120,98062,1,2
256,48,98336,1,0
128,120,98747,2,0,B|56:112|16:192|56:272|128:264,1,240,8|0
304,192,99842,6,0,B|152:192,1,120,0|2
304,192,100390,2,0,B|464:192,1,120,8|2
256,280,100938,5,8
256,280,101075,1,0
176,232,101349,1,0
192,136,101623,1,0
256,56,101897,1,2
320,136,102171,1,0
336,232,102445,1,0
328,328,102719,2,0,B|304:376|256:384|208:376|184:328,1,180,0|8
256,280,103404,1,0
256,280,103541,2,0,B|256:160,1,120
360,72,104226,2,0,B|328:24|256:0|184:24|152:72,1,240,2|8
256,232,105322,5,8
256,232,105459,1,0
216,328,105733,2,0,B|192:360|160:368|128:360|104:328,1,131.999996066094
296,328,106281,2,0,B|320:360|352:368|384:360|408:328,1,131.999996066094,2|0
352,240,106829,1,0
320,136,107103,1,2
308,30,107377,1,0
204,30,107651,1,2
192,136,107925,1,0
160,240,108199,1,8
320,304,108610,6,0,B|184:304,1,131.999996066094,0|2
192,80,109157,2,0,B|328:80,1,131.999996066094,8|2
256,192,109705,5,8
256,192,109842,1,0
256,296,110116,2,0,B|344:296|376:200,1,131.999996066094
256,296,110664,2,0,B|168:296|128:192,1,131.999996066094,2|0
256,192,111212,1,2
344,136,111486,2,0,B|320:104|256:80|192:104|168:136,1,197.99999409914,0|8
168,136,112034,1,0
168,248,112308,2,0,B|192:280|256:304|320:280|344:248,1,197.99999409914,2|0
256,192,112993,1,8
264,192,113130,1,0
272,192,113267,1,0
384,192,113541,1,2
336,40,114089,6,0,B|336:112|288:128|256:144|224:128|176:112|176:40,1,263.999992132187,4|8
471,272,115185,2,0,B|400:272|384:224|368:192|384:160|400:112|472:112,1,263.999992132187,0|8
175,343,116281,2,0,B|176:272|224:256|256:240|288:256|336:272|336:344,1,263.999992132187,0|8
40,112,117377,2,0,B|112:113|128:161|144:193|128:225|112:273|40:273,1,263.999992132187,0|8
56,192,118199,5,2
256,328,118747,1,0
456,192,119294,1,2
256,56,119842,1,0
256,192,120390,1,2
256,192,120938,1,0
256,192,121486,1,2
360,192,121760,5,8
360,192,121897,1,0
360,192,122034,1,0
152,192,122308,1,8
152,192,122445,1,0
152,192,122582,1,0
96,296,122856,5,4
200,248,123130,1,0
312,248,123404,1,8
416,296,123678,1,0
312,248,123952,2,0,B|367:248|391:184|416:143|391:104|367:39|311:39,1,288.000006866455,0|8
256,144,124774,1,0
200,40,125048,2,0,B|144:40|120:104|95:144|120:184|144:248|200:248,1,288.000006866455,0|8
256,352,125870,1,0
256,352,126144,1,0
424,192,126692,2,0,B|488:256|424:320,1,144.000003433228,8|8
384,256,127103,1,0
344,192,127240,2,0,B|280:256|344:320,1,144.000003433228,0|2
232,232,127788,6,0,B|231:295|167:327|135:335|104:327|39:295|40:231,1,288.000006866455,8|0
136,168,128610,1,0
40,104,128884,2,0,B|40:40|104:8|136:0|167:8|232:40|231:104,1,288.000006866455,8|0
136,168,129705,1,0
248,168,129979,2,0,B|311:168|343:232|351:264|343:295|311:360|247:359,2,288.000006866455,8|0|8
296,64,131349,1,8
296,80,131486,1,0
296,96,131623,1,0
384,176,131897,1,2
464,104,132171,6,0,B|504:72|576:152|560:232|424:280,1,288.000006866455,8|0
464,176,132993,1,0
384,104,133267,2,0,B|344:72|272:152|288:232|424:280,1,288.000006866455,8|0
384,176,134089,1,0
424,48,134363,1,8
424,48,134911,1,0
312,48,135185,2,0,B|248:-16|184:48,2,144.000003433228,0|8|8
312,48,135870,1,0
312,48,136007,1,0
288,192,136281,1,2
376,264,136555,6,0,B|344:328|264:320|248:208|168:200|136:264,1,288.000006866455,8|0
40,192,137377,1,0
136,120,137651,2,0,B|168:184|248:176|264:64|344:56|376:120,1,288.000006866455,8|0
288,192,138473,1,0
288,192,138747,1,8
360,368,139294,2,0,B|472:312|491:192|472:72|360:16,1,432.000010299683,0|4
288,192,140664,1,8
320,80,140938,6,0,B|400:104|400:184|400:200|400:272|320:304,2,288.000006866455,8|0|8
288,192,142308,1,0
248,304,142582,2,0,B|168:280|168:200|168:184|168:112|248:80,2,288.000006866455,0|8|0
136,304,143952,1,0
24,288,144226,1,8
104,200,144500,1,8
104,192,144637,1,0
104,184,144774,1,0
24,96,145048,1,2
32,192,145322,5,8
256,352,145870,1,0
480,192,146418,1,8
256,32,146966,1,0
256,192,147514,1,8
160,272,148062,2,0,B|128:176|184:104|256:77|328:104|384:176|352:272,1,432.000010299683,0|2
256,192,149020,12,0,153541
296,136,164500,6,0,B|344:136,4,40,4|0|0|0|0
216,136,165048,2,0,B|176:136,4,40,4|0|0|0|0
256,208,165596,2,0,B|256:256,9,40,4|0|0|0|0|0|0|0|0|0
256,320,166692,5,4
96,192,167103,1,4
256,64,167514,1,2
416,192,167925,1,4
256,192,168336,2,4,B|256:224,8,30,0|0|0|0|0|0|0|0|4
196,93,169157,1,0
316,93,169431,6,0,B|361:48|429:71|457:88|474:116|497:184|451:229,1,288.000006866455,8|0
316,291,170253,1,0
196,291,170527,2,0,B|151:336|83:313|55:296|38:268|15:200|61:155,1,288.000006866455,8|0
197,93,171349,1,0
392,152,171623,2,0,B|320:200|256:200|256:184|192:184|120:232,1,288.000006866455,8|0
316,291,172445,1,0
432,312,172719,1,8
472,200,172993,1,8
472,192,173130,1,0
472,184,173267,1,0
432,72,173541,1,2
344,152,173815,6,0,B|272:104|208:104|208:120|144:120|72:72,1,288.000006866455,8|0
32,192,174637,1,0
72,312,174911,2,0,B|144:264|208:264|208:280|272:280|344:232,2,288.000006866455,8|0|8
480,192,176555,1,0
400,280,176829,1,0
400,104,177103,1,8
272,192,177377,1,8
264,192,177514,1,0
256,192,177651,1,0
144,192,177925,1,2
96,96,178199,6,0,B|33:96|1:160|-7:192|1:223|33:288|97:287,2,288.000006866455,8|0|8
352,253,179842,2,0,B|352:316|288:348|256:356|225:348|160:316|161:252,1,288.000006866455,0|8
160,133,180664,2,0,B|160:70|224:38|256:30|287:38|352:70|351:134,1,288.000006866455
416,288,181486,2,0,B|479:288|511:224|519:192|511:161|479:96|415:97,1,288.000006866455,8|0
256,192,182582,5,8
32,256,183130,2,0,B|-32:192|32:128,1,144.000003433228
128,192,183678,1,8
384,192,184226,1,0
480,128,184500,2,0,B|544:192|480:256,1,144.000003433228,0|8
128,192,185322,2,0,B|104:112|160:48|256:37|352:48|408:112|384:192,1,432.000010299683,0|2
256,352,186692,1,8
160,296,186966,6,0,B|160:233|224:201|256:193|287:201|352:233|351:297,2,288.000006866455,8|0|8
168,64,188610,1,0
256,136,188884,1,0
344,64,189157,1,8
168,64,189705,2,0,B|104:128|168:192,1,144.000003433228
344,64,190253,2,0,B|408:128|344:192,1,144.000003433228,8|8
346,191,190664,1,0
346,191,190801,1,0
256,136,191075,1,2
48,208,191349,6,0,B|3:253|26:321|43:349|71:366|139:389|184:343,1,288.000006866455,8|0
464,176,192445,2,0,B|510:130|487:62|470:34|442:17|374:-6|329:40,1,288.000006866455,8|0
256,192,193541,1,8
128,56,194089,2,0,B|240:32|256:120|256:264|272:352|384:328,1,432.000010299683,0|2
256,192,195048,12,0,203952
