osu file format v12

[General]
AudioFilename: THE lovely WRITER.mp3
AudioLeadIn: 0
PreviewTime: 73129
Countdown: 0
SampleSet: Normal
StackLeniency: 0.7
Mode: 0
LetterboxInBreaks: 0
CountdownOffset: 1

[Editor]
Bookmarks: 27700,49129,70557,73986,101414,104843,126271,129700,157129,162271,180271,207700,235129
DistanceSpacing: 0.9
BeatDivisor: 1
GridSize: 4

[Metadata]
Title:The Writer
TitleUnicode:The Writer
Artist:Ellie Goulding
ArtistUnicode:Ellie Goulding
Creator:Xgor
Version:Normal
Source:
Tags:Lights
BeatmapID:224783
BeatmapSetID:80861

[Difficulty]
HPDrainRate:5
CircleSize:3
OverallDifficulty:5
ApproachRate:5
SliderMultiplier:3
SliderTickRate:3

[Events]
//Background and Video events
0,0,"Ellie_Goulding_bg.jpg",1,1
//Break Periods
2,101613,103642
2,157327,161069
//Storyboard Layer 0 (Background)
//Storyboard Layer 1 (Fail)
//Storyboard Layer 2 (Pass)
//Storyboard Layer 3 (Foreground)
//Storyboard Sound Samples
//Background Colour Transformations
3,100,163,162,255

[TimingPoints]
5414,857.142857142857,3,2,0,70,1,0
49128,-90.9090909090909,3,1,0,90,0,0
67128,857.142857142857,4,2,0,90,1,0
67128,-90.9090909090909,4,2,0,90,0,0
70546,-100,4,1,0,70,0,0
71404,-100,4,1,0,80,0,0
71690,-100,4,1,0,85,0,0
71976,-100,4,1,0,90,0,0
72261,-100,4,1,0,100,0,0
73985,-83.3333333333333,4,1,0,100,0,1
101413,-90.9090909090909,4,1,0,90,0,0
104832,-90.9090909090909,4,1,0,90,0,0
104842,857.142857142857,3,1,0,90,1,0
104842,-90.9090909090909,3,1,0,90,0,0
122842,857.142857142857,4,1,0,90,1,0
126261,-100,4,1,0,70,0,0
127119,-100,4,1,0,80,0,0
127404,-100,4,1,0,85,0,0
127690,-100,4,1,0,90,0,0
127976,-100,4,1,0,100,0,0
129699,-83.3333333333333,4,1,0,100,0,1
157127,857.142857142857,3,1,0,80,1,0
180269,857.142857142857,4,1,0,100,1,1
180269,-83.3333333333333,4,1,0,100,0,1
184833,-83.3333333333333,4,1,0,80,0,1
187119,-83.3333333333333,4,1,0,100,0,1
191976,-83.3333333333333,4,1,0,80,0,1
193976,-83.3333333333333,4,1,0,100,0,1
207697,-100,4,1,0,100,0,0

[HitObjects]
72,48,27699,5,2,1:2:0:0:
40,136,27985,1,0,2:0:0:0:
56,224,28271,1,8,2:3:0:0:
112,296,28556,1,0,1:0:0:0:
192,336,28842,2,0,P|296:328|376:264,1,200,2|0,2:2|1:0,2:0:0:0:
296,16,30271,1,2,1:2:0:0:
216,176,30842,1,8,0:3:0:0:
176,256,31128,1,0,1:0:0:0:
440,48,32842,5,2,1:2:0:0:
472,136,33128,1,0,2:0:0:0:
456,224,33414,1,8,2:3:0:0:
400,296,33699,1,0,1:0:0:0:
320,336,33985,2,0,P|216:328|136:264,1,200,2|0,2:2|1:0,2:0:0:0:
216,16,35414,1,2,1:2:0:0:
296,176,35985,1,8,0:3:0:0:
336,256,36271,1,0,1:0:0:0:
40,200,37985,6,0,P|88:296|168:336,1,200,4|0,0:0|0:0,0:0:0:0:
256,344,38842,1,0,1:0:0:0:
344,336,39128,2,0,P|424:296|472:200,1,200,2|0,2:2|1:0,2:0:0:0:
336,80,40271,1,8,2:3:0:0:
256,32,40556,2,0,B|232:80|248:120|264:136|280:176|256:232,1,200,2|2,1:2|3:2,0:0:0:0:
232,312,41413,1,0,1:0:0:0:
40,192,43128,5,2,1:2:0:0:
128,224,43413,1,0,2:0:0:0:
216,208,43699,1,8,2:3:0:0:
248,128,43985,1,8,1:3:0:0:
256,40,44271,2,0,P|384:72|384:224,1,300,2|0,0:2|0:0,2:0:0:0:
256,336,45699,2,0,P|160:356|92:288,1,200,2|8,1:2|0:3,2:0:0:0:
72,200,46556,1,2,1:2:0:0:
428,320,48271,5,2,1:2:0:0:
476,240,48556,1,0,2:0:0:0:
464,148,48842,1,8,2:3:0:0:
412,68,49128,2,0,P|256:26|96:68,1,330.000010070801,4|8,0:0|0:2,0:0:0:0:
20,228,50556,5,8,0:3:0:0:
56,320,50842,1,2,0:2:0:0:
156,320,51128,2,0,P|256:280|356:320,1,220.000006713867,2|2,0:3|0:2,0:0:0:0:
492,48,52556,1,8,0:2:0:0:
452,344,53413,5,2,0:2:0:0:
396,264,53699,1,0,2:0:0:0:
304,224,53985,1,8,0:3:0:0:
208,244,54271,2,0,P|44:248|12:108,1,330.000010070801,4|8,0:2|0:0,0:0:0:0:
196,32,55699,5,8,0:3:0:0:
160,124,55985,2,0,P|256:170|352:124,1,220.000006713867,2|2,0:2|0:3,0:0:0:0:
316,32,56842,1,2,0:2:0:0:
256,324,57699,1,8,0:2:0:0:
0,176,58556,5,2,0:2:0:0:
24,76,58842,2,0,P|120:20|208:72,1,220.000006713867,2|4,0:3|0:2,0:0:0:0:
308,68,59699,2,0,P|393:19|489:75,1,220.000006713867,0|8,0:0|0:2,0:0:0:0:
308,156,60842,5,8,0:3:0:0:
208,156,61128,1,2,0:2:0:0:
152,240,61413,2,0,P|256:272|360:240,1,220.000006713867,2|2,0:3|0:2,0:0:0:0:
148,32,62842,1,8,0:2:0:0:
152,328,63699,5,2,0:2:0:0:
248,312,63985,1,0,0:0:0:0:
256,216,64271,1,8,0:3:0:0:
348,184,64556,1,4,0:2:0:0:
360,88,64842,2,0,P|256:56|152:88,1,220.000006713867,2|8,0:3|0:2,0:0:0:0:
8,228,65985,5,0,0:3:0:0:
8,328,66271,1,2,0:2:0:0:
208,328,66842,1,8,0:3:0:0:
208,232,67128,2,0,B|208:200|208:200|209:158|255:120|305:158|304:200|304:200|304:232,1,220.000006713867,2|0,0:2|0:3,0:0:0:0:
304,328,67985,1,8,0:2:0:0:
304,328,68842,1,4,0:2:0:0:
100,296,70556,38,0,P|68:152|148:32,1,300,4|8,0:0|0:0,3:0:0:0:
236,52,71699,1,0,0:3:0:0:
324,76,71985,1,4,0:3:0:0:
412,100,72270,2,0,P|444:244|364:364,1,300,4|8,0:0|0:0,3:0:0:0:
160,96,73985,22,0,P|257:35|352:96,1,239.999992675781,4|0,0:0|0:0,0:0:0:0:
256,144,74842,1,8,0:0:0:0:
72,240,75413,1,8,0:3:0:0:
148,320,75699,2,0,P|256:364|364:320,1,239.999992675781,0|2,0:0|0:3,0:0:0:0:
492,40,77128,5,0,1:0:0:0:
492,40,77413,2,0,L|492:220,2,179.999994506836,2|4|8,0:2|3:2|0:1,0:0:0:0:
392,80,78556,1,0,2:0:0:0:
292,40,78842,1,8,1:3:0:0:
192,80,79128,2,0,P|76:104|84:204,1,239.999992675781,2|0,0:3|0:0,0:0:0:0:
152,284,79985,5,8,0:2:0:0:
368,284,80556,1,2,0:3:0:0:
328,184,80842,2,0,P|444:148|444:40,1,239.999992675781,4|0,0:0|0:0,0:0:0:0:
364,92,81699,1,8,0:0:0:0:
156,92,82270,1,0,0:0:0:0:
72,44,82556,2,0,P|76:148|192:184,1,239.999992675781,0|2,0:2|0:3,0:0:0:0:
384,104,83699,5,0,2:0:0:0:
408,208,83985,1,0,0:3:0:0:
360,304,84270,2,0,P|264:360|136:336,1,239.999992675781,2|0,0:2|0:0,0:0:0:0:
56,272,85128,1,8,0:0:0:0:
24,56,85699,1,8,2:3:0:0:
112,120,85985,1,2,0:2:0:0:
392,280,86842,5,8,0:3:0:0:
480,344,87128,1,8,0:2:0:0:
508,128,87699,2,0,P|364:72|316:232,1,359.999989013672,4|8,0:0|0:0,0:0:0:0:
100,176,89128,1,8,0:3:0:0:
4,128,89413,2,0,P|148:72|196:232,1,359.999989013672,2|8,0:2|0:2,0:0:0:0:
132,316,90556,5,0,2:0:0:0:
232,352,90842,1,8,3:0:0:0:
336,320,91128,2,0,P|416:352|504:320,1,179.999994506836,2|0,0:2|3:0,0:0:0:0:
504,160,91985,1,2,0:3:0:0:
304,240,92556,1,0,0:0:0:0:
360,144,92842,2,0,P|256:93|152:144,1,239.999992675781,2|0,0:2|0:3,0:0:0:0:
208,240,93699,1,8,0:2:0:0:
376,376,94270,5,0,0:3:0:0:
432,288,94556,2,0,P|440:120|296:16,1,359.999989013672,4|8,0:0|0:0,0:0:0:0:
80,96,95985,1,2,0:3:0:0:
80,96,96270,2,0,P|72:264|216:368,1,359.999989013672,2|8,0:2|0:2,0:0:0:0:
428,348,97699,5,8,0:3:0:0:
352,272,97985,2,0,B|240:272|240:272|168:272|136:208,1,239.999992675781,4|0,0:2|0:3,0:0:0:0:
240,176,98842,2,0,B|352:176|352:176|424:176|456:112,1,239.999992675781,2|2,0:2|0:3,0:0:0:0:
360,72,99699,1,0,0:2:0:0:
120,284,100556,37,2,0:2:0:0:
200,360,100842,1,0,0:0:0:0:
312,360,101128,1,8,0:3:0:0:
392,284,101413,1,4,0:2:0:0:
512,336,104842,22,0,L|288:336,1,220.000006713867,4|0,0:0|0:0,0:0:0:0:
192,336,105699,1,8,0:2:0:0:
51,114,106270,1,0,0:0:0:0:
0,28,106556,1,2,0:2:0:0:
196,28,107127,1,2,0:3:0:0:
248,114,107413,1,4,0:3:0:0:
408,368,108270,1,8,0:2:0:0:
96,368,109127,5,2,0:2:0:0:
32,292,109413,1,0,2:0:0:0:
24,192,109699,1,0,0:0:0:0:
84,112,109984,2,0,P|192:140|236:232,1,220.000006713867,4|0,0:2|0:3,0:0:0:0:
212,328,110842,1,8,0:2:0:0:
408,328,111413,5,2,0:3:0:0:
508,328,111699,2,0,L|508:104,1,220.000006713867,2|0,0:2|0:0,0:0:0:0:
408,108,112556,1,4,0:3:0:0:
256,360,113413,1,8,0:2:0:0:
104,96,114270,21,2,0:2:0:0:
128,196,114556,1,0,2:0:0:0:
32,164,114842,1,0,0:0:0:0:
56,264,115127,1,4,0:2:0:0:
152,296,115413,2,0,P|256:327|360:296,1,220.000006713867,0|8,0:0|0:2,0:0:0:0:
416,104,116556,5,0,0:0:0:0:
416,200,116842,1,2,0:2:0:0:
328,152,117127,1,0,2:0:0:0:
240,104,117413,1,2,0:3:0:0:
152,56,117699,2,0,P|24:104|60:264,1,330.000010070801,4|8,0:3|0:2,0:0:0:0:
296,64,119413,5,2,0:2:0:0:
356,144,119699,1,0,0:0:0:0:
452,116,119984,1,0,0:0:0:0:
512,196,120270,2,0,P|484:304|396:360,1,220.000006713867,4|0,0:2|0:0,0:0:0:0:
300,368,121127,1,8,0:2:0:0:
120,288,121699,5,0,0:0:0:0:
156,192,121984,1,2,0:2:0:0:
356,192,122556,1,2,0:3:0:0:
392,288,122842,1,4,0:3:0:0:
392,24,123699,2,0,P|256:80|120:24,1,300,8|4,0:2|0:0,0:0:0:0:
64,260,126270,38,0,P|172:172|212:20,1,300,4|8,0:0|0:0,3:0:0:0:
300,28,127413,1,0,0:0:0:0:
384,60,127699,1,8,0:3:0:0:
448,124,127984,2,0,P|340:212|300:364,1,300,4|8,0:2|0:0,3:0:0:0:
40,52,129699,22,0,P|68:150|192:178,1,239.999992675781,4|0,0:0|0:0,0:0:0:0:
152,74,130556,1,8,0:0:0:0:
360,74,131127,1,8,0:3:0:0:
472,52,131413,2,0,P|444:150|320:178,1,239.999992675781,0|2,0:0|0:3,0:0:0:0:
24,352,132842,5,0,0:0:0:0:
24,352,133127,2,0,P|-4:264|24:184,2,179.999994506836,2|4|8,0:2|0:2|0:0,0:0:0:0:
120,312,134270,1,0,2:0:0:0:
216,272,134556,1,8,0:3:0:0:
312,232,134842,2,0,P|388:128|344:40,1,239.999992675781,2|0,0:3|0:0,0:0:0:0:
280,128,135699,5,8,0:2:0:0:
108,44,136270,1,2,0:3:0:0:
52,136,136556,2,0,P|48:260|136:332,1,239.999992675781,4|0,0:0|0:0,0:0:0:0:
236,356,137413,1,8,0:0:0:0:
452,356,137984,1,8,0:3:0:0:
468,248,138270,2,0,B|488:116|380:40,1,239.999992675781,2|2,0:3|0:3,0:0:0:0:
152,40,139413,5,0,2:2:0:0:
112,140,139699,1,0,0:0:0:0:
72,240,139984,2,0,P|144:336|256:368,1,239.999992675781,2|0,0:2|0:0,0:0:0:0:
364,368,140842,1,8,0:0:0:0:
436,164,141413,1,8,2:3:0:0:
360,88,141699,1,2,0:2:0:0:
36,88,142556,5,8,0:3:0:0:
112,164,142842,1,8,0:2:0:0:
288,292,143413,2,0,P|440:312|484:140,1,359.999989013672,4|8,0:0|0:0,0:0:0:0:
276,188,144842,1,8,0:3:0:0:
224,92,145127,2,0,P|72:72|28:244,1,359.999989013672,2|8,0:2|0:2,0:0:0:0:
132,220,146270,5,0,2:0:0:0:
220,284,146556,1,0,0:0:0:0:
316,336,146842,2,0,P|396:296|428:216,1,179.999994506836,2|0,0:2|3:0,0:0:0:0:
440,52,147699,1,2,0:3:0:0:
224,52,148270,1,0,0:0:0:0:
116,56,148556,2,0,P|64:168|96:280,1,239.999992675781,2|0,0:2|0:0,0:0:0:0:
140,372,149413,1,8,0:2:0:0:
356,372,149984,5,0,0:0:0:0:
448,312,150270,2,0,P|480:168|308:112,1,359.999989013672,4|8,0:0|0:0,0:0:0:0:
180,284,151699,1,8,0:3:0:0:
180,284,151984,2,0,P|9:227|41:83,1,359.999989013672,2|8,0:2|0:2,0:0:0:0:
256,20,153413,5,8,2:3:0:0:
160,72,153699,2,0,P|255:133|352:72,1,239.999992675781,4|0,0:0|0:0,0:0:0:0:
368,180,154556,2,0,P|256:216|144:180,1,239.999992675781,8|0,0:0|0:0,0:0:0:0:
80,92,155413,1,0,0:0:0:0:
256,364,156270,37,8,0:3:0:0:
200,268,156556,1,0,0:0:0:0:
312,268,156842,1,4,0:3:0:0:
256,172,157127,1,4,0:0:0:0:
88,92,162269,53,4,1:2:0:0:
88,92,162555,1,2,0:2:0:0:
168,40,162841,1,0,2:0:0:0:
344,96,163412,1,2,0:3:0:0:
424,48,163698,1,0,2:0:0:0:
456,232,164269,1,0,2:0:0:0:
392,296,164555,2,0,P|256:352|120:296,1,300,2|4,0:2|0:3,0:0:0:0:
168,120,165984,1,2,0:2:0:0:
252,84,166269,1,0,2:0:0:0:
256,176,166555,2,0,P|312:256|416:264,1,200,2|4,0:3|0:3,0:0:0:0:
424,92,167698,5,2,0:2:0:0:
344,40,167984,1,0,2:0:0:0:
168,96,168555,1,2,0:3:0:0:
88,48,168841,1,0,2:0:0:0:
56,232,169412,1,0,2:0:0:0:
120,296,169698,2,0,P|256:352|392:296,1,300,2|4,0:2|0:3,0:0:0:0:
344,120,171127,1,2,0:2:0:0:
260,84,171412,1,0,2:0:0:0:
256,176,171698,2,0,P|200:256|96:264,1,200,2|4,0:3|0:3,0:0:0:0:
256,360,172841,37,2,0:2:0:0:
344,336,173127,1,0,2:0:0:0:
256,184,173698,1,2,0:3:0:0:
168,208,173984,1,0,2:0:0:0:
24,96,174555,1,0,2:0:0:0:
112,64,174841,2,0,P|256:28|400:64,1,300,2|4,0:2|0:3,0:0:0:0:
256,192,175984,12,4,178555,0:0:0:0:
80,200,180269,22,0,P|120:80|220:20,1,239.999992675781,4|0,0:1|0:0,0:0:0:0:
337,35,181126,2,0,P|420:130|422:246,1,239.999992675781,8|0,0:1|0:0,0:0:0:0:
350,340,181983,2,0,P|227:365|125:309,1,239.999992675781,2|0,0:2|0:0,0:0:0:0:
80,200,182840,1,8,0:2:0:0:
312,204,183411,5,8,0:3:0:0:
304,92,183697,2,0,P|420:108|500:196,1,239.999992675781,2|0,0:2|0:0,0:0:0:0:
408,256,184554,1,8,0:0:0:0:
200,256,185126,1,8,0:3:0:0:
208,144,185412,2,0,P|92:160|12:248,1,239.999992675781,2|0,0:2|0:0,0:0:0:0:
104,308,186269,1,8,0:0:0:0:
432,200,187126,38,0,P|392:80|292:20,1,239.999992675781,4|0,0:1|0:0,0:0:0:0:
175,35,187983,2,0,P|92:130|90:246,1,239.999992675781,8|0,0:1|0:0,0:0:0:0:
162,340,188840,2,0,P|285:365|387:309,1,239.999992675781,2|0,0:2|0:0,0:0:0:0:
432,200,189697,1,8,0:2:0:0:
200,204,190269,5,8,0:3:0:0:
208,92,190555,2,0,P|92:108|12:196,1,239.999992675781,2|0,0:2|0:0,0:0:0:0:
104,256,191412,1,8,0:0:0:0:
312,256,191984,1,8,0:3:0:0:
304,144,192270,2,0,P|420:160|500:248,1,239.999992675781,2|0,0:2|0:0,0:0:0:0:
408,308,193127,1,8,0:0:0:0:
92,356,193983,6,0,B|52:296|96:244|96:244|140:192|96:140|96:140|52:88|92:28,1,359.999989013672,4|8,0:0|0:0,0:0:0:0:
200,28,195126,1,0,0:0:0:0:
312,28,195411,1,2,0:3:0:0:
420,28,195697,2,0,B|460:88|416:140|416:140|372:192|416:244|416:244|460:296|420:356,1,359.999989013672,2|8,0:2|0:2,0:0:0:0:
188,360,197126,5,8,0:3:0:0:
212,256,197411,2,0,P|184:152|64:136,1,239.999992675781,2|0,0:2|0:0,0:0:0:0:
111,232,198269,1,8,0:0:0:0:
320,120,198840,1,0,0:0:0:0:
300,224,199126,2,0,P|328:328|448:344,1,239.999992675781,2|0,0:2|0:0,0:0:0:0:
401,248,199983,1,8,0:2:0:0:
100,108,200840,6,0,P|256:32|412:108,1,359.999989013672,4|8,0:0|0:0,0:0:0:0:
512,312,202269,1,2,0:3:0:0:
412,276,202554,2,0,P|256:352|100:276,1,359.999989013672,2|8,0:2|0:2,0:0:0:0:
108,60,203983,5,0,0:0:0:0:
160,156,204269,1,4,0:2:0:0:
352,60,204840,1,2,0:3:0:0:
404,156,205126,1,8,0:0:0:0:
256,192,205983,12,4,207697,0:0:0:0:
