osu file format v12

[General]
AudioFilename: THE lovely WRITER.mp3
AudioLeadIn: 0
PreviewTime: 73129
Countdown: 0
SampleSet: Normal
StackLeniency: 0.7
Mode: 0
LetterboxInBreaks: 0
CountdownOffset: 1

[Editor]
Bookmarks: 27700,49129,70557,73986,101414,104843,126271,129700,140842,157129,162271,180271,207700,235129
DistanceSpacing: 1.1
BeatDivisor: 3
GridSize: 4

[Metadata]
Title:The Writer
TitleUnicode:The Writer
Artist:Ellie Goulding
ArtistUnicode:Ellie Goulding
Creator:Xgor
Version:Hard
Source:
Tags:Lights
BeatmapID:226465
BeatmapSetID:80861

[Difficulty]
HPDrainRate:6
CircleSize:4
OverallDifficulty:7
ApproachRate:7
SliderMultiplier:3.59999990463257
SliderTickRate:3

[Events]
//Background and Video events
0,0,"Ellie_Goulding_bg.jpg",1,1
//Break Periods
2,101613,103942
2,157327,161369
//Storyboard Layer 0 (Background)
//Storyboard Layer 1 (Fail)
//Storyboard Layer 2 (Pass)
//Storyboard Layer 3 (Foreground)
//Storyboard Sound Samples
//Background Colour Transformations
3,100,163,162,255

[TimingPoints]
5414,857.142857142857,3,2,0,70,1,0
31128,-111.111111111111,3,2,0,70,0,0
32557,-100,3,2,0,70,0,0
36271,-111.111111111111,3,2,0,70,0,0
37129,-100,3,2,0,70,0,0
41413,-111.111111111111,3,2,0,70,0,0
42843,-100,3,2,0,70,0,0
46556,-111.111111111111,3,2,0,70,0,0
47414,-100,3,2,0,70,0,0
49128,-90.9090909090909,3,1,0,90,0,0
67128,857.142857142857,4,1,0,90,1,0
69699,-111.111111111111,4,1,0,80,0,0
70547,-100,4,1,0,50,0,0
70833,-100,4,1,0,55,0,0
71119,-100,4,1,0,60,0,0
71404,-100,4,1,0,65,0,0
71690,-100,4,1,0,70,0,0
71976,-100,4,1,0,75,0,0
72261,-100,4,1,0,80,0,0
72547,-100,4,1,0,85,0,0
72833,-100,4,1,0,90,0,0
73119,-90.9090909090909,4,1,0,100,0,0
73985,-83.3333333333333,4,1,0,100,0,1
101413,-90.9090909090909,4,1,0,90,0,0
104842,857.142857142857,3,1,0,90,1,0
104842,-90.9090909090909,3,1,0,90,0,0
122842,857.142857142857,4,1,0,90,1,0
123413,-90.9090909090909,4,1,0,90,0,0
125413,-111.111111111111,4,1,0,80,0,0
126270,-100,4,1,0,50,0,0
126556,-100,4,1,0,55,0,0
126842,-100,4,1,0,60,0,0
127127,-100,4,1,0,65,0,0
127413,-100,4,1,0,70,0,0
127699,-100,4,1,0,75,0,0
127984,-100,4,1,0,80,0,0
128270,-100,4,1,0,85,0,0
128556,-100,4,1,0,90,0,0
128842,-90.9090909090909,4,1,0,100,0,0
129699,-83.3333333333333,4,1,0,100,0,1
157127,857.142857142857,3,2,0,80,1,0
180269,857.142857142857,4,1,0,100,1,1
180269,-83.3333333333333,4,1,0,100,0,1
185404,-83.3333333333333,4,1,0,80,0,1
187119,-83.3333333333333,4,1,0,100,0,1
192261,-83.3333333333333,4,1,0,80,0,1
193976,-83.3333333333333,4,1,0,100,0,1
207697,-100,4,1,0,100,0,0

[HitObjects]
120,24,27699,5,2,1:2:0:0:
24,98,27985,1,0,2:0:0:0:
0,215,28271,1,8,2:3:0:0:
59,319,28556,1,0,1:0:0:0:
171,362,28842,2,0,P|290:353|370:268,1,239.999993642171,2|0,2:2|1:0,2:0:0:0:
140,160,29985,5,0,2:3:0:0:
68,64,30271,1,2,1:2:0:0:
356,64,30842,1,8,2:3:0:0:
428,160,31128,2,0,P|444:264|360:316,1,215.999987686158,0|0,1:0|2:0,2:0:0:0:
252,316,31985,1,0,1:3:0:0:
300,16,32556,5,0,2:0:0:0:
420,32,32842,1,2,1:2:0:0:
501,121,33128,1,0,2:0:0:0:
508,241,33413,1,8,2:3:0:0:
432,334,33699,1,0,1:0:0:0:
314,359,33985,2,0,P|197:333|131:236,1,240,2|0,2:0|1:3,2:0:0:0:
440,28,35413,6,0,L|344:184,1,180,2|0,1:2|3:0,2:0:0:0:
310,243,35985,1,8,2:3:0:0:
212,181,36271,2,0,P|118:135|25:180,1,215.999993408203,0|0,1:0|2:0,2:0:0:0:
114,276,37128,1,0,1:0:0:0:
368,277,37699,5,0,2:0:0:0:
420,154,37985,2,0,P|408:78|324:30,1,180,4|0,1:2|3:0,2:0:0:0:
252,30,38556,1,8,2:3:0:0:
132,30,38842,1,0,1:0:0:0:
44,114,39128,2,0,P|16:216|116:284,1,240,2|0,2:0|1:0,2:0:0:0:
312,286,40128,5,0,3:0:0:0:
312,360,40271,1,0,0:0:0:0:
420,286,40556,2,0,P|484:190|420:94,1,240,4|0,1:2|2:0,2:0:0:0:
376,190,41413,2,0,L|156:190,1,215.999993408203,2|0,1:2|2:0,2:0:0:0:
56,190,42271,1,0,1:0:0:0:
384,340,43128,5,2,1:2:0:0:
384,220,43414,1,0,2:0:0:0:
488,280,43699,1,8,2:3:0:0:
488,160,43985,1,0,1:0:0:0:
488,28,44271,2,0,L|248:28,1,240,2|0,2:0|1:0,2:0:0:0:
16,32,45414,5,0,2:0:0:0:
4,152,45699,2,0,P|32:252|96:284,1,180,2|0,1:2|3:0,2:0:0:0:
168,288,46271,1,0,2:0:0:0:
288,288,46556,2,0,P|368:348|452:288,1,215.999993408203,2|0,1:2|2:0,2:0:0:0:
452,156,47414,1,0,1:0:0:0:
226,20,48271,5,2,0:2:0:0:
131,97,48556,1,0,2:0:0:0:
208,192,48842,1,8,2:3:0:0:
320,116,49128,2,0,P|410:132|415:224,1,198.000000797272,4|0,0:0|3:0,0:0:0:0:
356,180,49699,1,0,0:0:0:0:
256,76,49985,1,8,0:2:0:0:
156,180,50271,1,0,2:0:0:0:
56,292,50556,5,0,0:0:0:0:
128,312,50699,1,0,3:0:0:0:
200,332,50842,1,2,0:2:0:0:
344,360,51128,1,2,2:3:0:0:
296,224,51414,1,0,0:3:0:0:
440,256,51699,2,0,P|440:136|328:64,1,264.000008056641,2|0,0:2|1:0,0:0:0:0:
184,64,52556,2,0,P|72:136|72:256,1,264.000008056641,8|0,0:2|0:0,0:0:0:0:
168,368,53414,5,2,0:2:0:0:
264,256,53699,1,0,2:0:0:0:
360,368,53985,1,8,0:3:0:0:
456,256,54271,2,0,P|509:177|459:27,1,264.000008056641,4|0,0:2|0:0,0:0:0:0:
364,140,55128,1,8,0:2:0:0:
192,376,55699,5,8,0:3:0:0:
48,376,55985,1,2,0:2:0:0:
48,302,56128,2,0,L|48:102,1,198.000006042481,0|2,3:0|0:3,0:0:0:0:
196,104,56842,2,0,B|196:212|196:212|196:296|280:336,1,264.000008056641,2|0,0:2|0:0,0:0:0:0:
424,336,57699,2,0,B|505:297|505:213|505:213|505:105,1,264.000008056641,8|0,0:2|0:0,0:0:0:0:
388,16,58556,5,2,0:2:0:0:
244,40,58842,1,0,2:0:0:0:
116,108,59128,1,8,0:3:0:0:
32,228,59414,1,4,0:2:0:0:
0,368,59699,2,0,P|120:340|172:220,1,264.000008056641,2|8,0:2|0:2,0:0:0:0:
36,168,60556,1,0,2:0:0:0:
16,24,60842,5,8,0:3:0:0:
160,48,61128,1,2,0:2:0:0:
232,64,61271,2,0,L|428:102,1,198.000006042481,0|2,3:0|0:3,0:0:0:0:
452,244,61985,2,0,L|180:192,1,264.000008056641,2|0,0:2|0:0,0:0:0:0:
52,164,62842,1,8,0:2:0:0:
256,368,63414,1,0,0:0:0:0:
396,336,63699,5,8,0:3:0:0:
480,216,63985,1,0,2:0:0:0:
428,80,64271,1,8,0:3:0:0:
296,20,64556,1,4,0:2:0:0:
152,36,64842,2,0,P|56:120|68:248,1,264.000008056641,2|8,0:2|0:2,0:0:0:0:
344,368,65985,5,0,0:0:0:0:
432,256,66271,2,0,P|464:172|404:84,1,198.000006042481,2|0,0:2|3:0,0:0:0:0:
344,56,66842,1,2,0:3:0:0:
238,152,67128,1,2,0:2:0:0:
8,360,67699,1,0,0:0:0:0:
113,265,67985,1,8,0:2:0:0:
392,352,68556,1,0,0:0:0:0:
497,257,68842,1,4,0:0:0:0:
116,332,69699,38,0,P|80:232|116:132,1,215.999993408203,2|0,0:2|0:0,0:0:0:0:
200,40,70556,1,4,0:0:0:0:
312,76,70842,1,0,0:0:0:0:
188,112,71128,1,0,0:0:0:0:
324,148,71413,1,4,0:3:0:0:
176,184,71699,1,0,0:0:0:0:
336,220,71985,1,0,0:0:0:0:
164,256,72270,1,4,0:0:0:0:
348,292,72556,1,0,0:0:0:0:
152,328,72842,1,0,0:0:0:0:
360,364,73128,2,0,P|464:340|460:200,1,264.000008056641,4|0,0:3|0:0,0:0:0:0:
356,88,73985,22,0,P|256:52|156:88,1,215.999993408203,4|0,0:0|3:0,0:0:0:0:
80,228,74699,1,0,3:0:0:0:
140,176,74842,1,8,0:0:0:0:
356,296,75128,1,0,2:0:0:0:
156,296,75413,1,0,0:0:0:0:
356,204,75699,2,0,P|416:92|296:48,1,287.999991210938,0|2,0:2|0:3,0:0:0:0:
148,96,76556,1,8,0:0:0:0:
296,144,76842,1,0,2:0:0:0:
148,192,77128,1,8,0:3:0:0:
0,124,77413,6,0,L|16:276,1,143.999995605469,2|0,0:2|0:0,0:0:0:0:
92,292,77842,2,0,L|68:76,1,215.999993408203,4|8,3:2|0:0,0:0:0:0:
172,36,78556,1,0,2:0:0:0:
188,192,78842,1,8,0:3:0:0:
212,348,79128,2,0,P|376:320|436:220,1,287.999991210938,2|0,0:3|0:0,0:0:0:0:
456,68,79985,1,8,0:2:0:0:
324,156,80270,1,8,2:3:0:0:
192,244,80556,1,2,0:3:0:0:
156,88,80842,6,0,P|256:52|356:88,1,215.999993408203,4|0,0:0|3:0,0:0:0:0:
432,228,81556,1,0,3:0:0:0:
356,204,81699,1,8,0:0:0:0:
156,296,81985,1,0,2:0:0:0:
356,296,82270,1,8,0:3:0:0:
156,204,82556,2,0,P|96:92|216:48,1,287.999991210938,0|2,0:3|0:3,0:0:0:0:
328,160,83413,1,8,0:0:0:0:
176,120,83699,1,0,2:0:0:0:
24,80,83985,1,8,0:3:0:0:
0,240,84270,6,0,P|104:324|256:352,1,287.999983581544,2|0,0:2|0:0,0:0:0:0:
512,144,85128,2,0,P|408:60|256:32,1,287.999983581544,8|0,0:2|0:0,0:0:0:0:
156,292,85985,2,0,P|256:328|356:292,2,215.999993408203,2|0|8,0:2|3:0|0:2,0:0:0:0:
68,160,87128,5,0,1:0:0:0:
204,80,87413,1,2,0:3:0:0:
356,68,87699,2,0,P|294:192|356:316,1,287.999983581544,4|0,0:0|0:0,0:0:0:0:
444,192,88556,1,8,0:0:0:0:
72,192,89128,1,8,0:3:0:0:
156,316,89413,2,0,P|218:192|156:68,1,287.999983581544,2|0,0:2|0:0,0:0:0:0:
4,32,90270,1,8,0:2:0:0:
4,192,90556,1,0,2:0:0:0:
4,352,90842,1,8,0:3:0:0:
164,356,91128,6,0,P|232:324|244:256,1,143.999991790772,2|0,0:2|0:0,0:0:0:0:
168,276,91556,2,0,P|92:216|120:112,1,215.999993408203,4|8,3:2|0:0,0:0:0:0:
256,28,92270,1,0,2:0:0:0:
348,160,92556,1,0,0:0:0:0:
440,292,92842,2,0,P|348:340|256:292,1,215.999993408203,2|0,0:2|3:0,0:0:0:0:
216,224,93413,1,0,0:0:0:0:
144,84,93699,5,8,0:2:0:0:
8,164,93985,1,0,2:0:0:0:
48,316,94270,1,2,0:3:0:0:
208,316,94556,2,0,B|352:316|352:316|440:316|468:232,1,287.999991210938,4|0,0:0|0:0,0:0:0:0:
304,244,95413,2,0,B|160:244|160:244|72:244|44:160,1,287.999991210938,8|0,0:0|0:0,0:0:0:0:
208,168,96270,2,0,B|352:168|352:168|440:168|468:84,1,287.999991210938,2|0,0:2|0:0,0:0:0:0:
312,48,97128,1,8,0:2:0:0:
156,72,97413,5,0,2:0:0:0:
100,220,97699,1,0,0:0:0:0:
204,336,97985,2,0,P|340:320|400:192,1,287.999991210938,4|0,0:2|0:0,0:0:0:0:
308,72,98842,2,0,P|172:88|112:216,1,287.999991210938,2|2,0:2|0:3,0:0:0:0:
172,360,99699,1,0,0:0:0:0:
480,360,100270,37,0,2:2:0:0:
480,200,100556,1,2,0:2:0:0:
480,40,100842,1,0,1:0:0:0:
328,88,101128,1,8,0:3:0:0:
256,120,101270,1,0,3:0:0:0:
184,88,101413,1,4,0:0:0:0:
168,240,104842,22,0,P|236:316|336:316,1,198.000000797272,4|0,0:0|3:0,0:0:0:0:
388,280,105413,1,8,1:3:0:0:
420,140,105699,2,0,P|336:44|212:72,1,264.000008056641,8|0,0:2|0:0,0:0:0:0:
108,168,106556,5,2,0:2:0:0:
0,268,106842,1,0,2:0:0:0:
140,312,107127,1,2,0:3:0:0:
280,352,107413,2,0,P|384:328|384:192,1,264.000008056641,2|0,0:2|0:0,0:0:0:0:
232,192,108270,2,0,P|128:168|128:32,1,264.000008056641,8|0,0:2|0:0,0:0:0:0:
280,32,109127,5,2,0:2:0:0:
312,176,109413,1,0,2:0:0:0:
380,48,109699,1,8,0:3:0:0:
396,192,109984,2,0,P|352:320|236:344,1,264.000008056641,4|0,0:2|0:0,0:0:0:0:
96,316,110842,1,8,0:2:0:0:
96,28,111413,5,0,0:0:0:0:
240,28,111699,1,2,0:2:0:0:
208,92,111842,2,0,P|192:192|240:272,1,198.000006042481,0|2,3:0|0:3,0:0:0:0:
372,332,112556,2,0,L|496:96,1,264.000008056641,2|0,0:2|0:0,0:0:0:0:
372,16,113413,2,0,L|249:249,1,264.000008056641,8|0,0:2|0:0,0:0:0:0:
176,376,114270,5,2,0:2:0:0:
48,303,114556,1,0,2:0:0:0:
44,160,114842,1,8,0:3:0:0:
106,29,115127,1,4,0:2:0:0:
252,16,115413,2,0,B|336:108|244:156|360:248,1,264.000008056641,0|8,0:0|0:2,0:0:0:0:
488,316,116270,1,0,0:0:0:0:
512,248,116413,1,0,3:0:0:0:
488,32,116842,5,2,0:2:0:0:
368,112,117127,1,0,2:0:0:0:
248,32,117413,1,2,0:3:0:0:
128,112,117699,2,0,P|64:220|128:328,1,264.000008056641,2|0,0:2|0:0,0:0:0:0:
268,364,118556,1,8,0:2:0:0:
504,192,119127,1,0,0:0:0:0:
360,224,119413,5,2,0:2:0:0:
216,256,119699,1,0,2:0:0:0:
72,288,119984,1,8,0:3:0:0:
48,144,120270,2,0,P|144:168|228:124,1,198.000006042481,4|0,0:2|3:2,0:0:0:0:
280,72,120842,2,0,P|417:70|469:171,1,264.000008056641,2|0,0:3|0:0,0:0:0:0:
424,312,121699,1,0,0:0:0:0:
344,192,121984,5,2,0:2:0:0:
88,72,122556,1,2,0:3:0:0:
168,192,122842,1,0,0:2:0:0:
456,192,123413,1,0,0:0:0:0:
368,304,123699,2,0,P|256:364|144:304,1,264.000008056641,2|0,0:2|0:0,0:0:0:0:
56,192,124556,1,4,0:2:0:0:
480,92,125413,38,0,P|516:192|480:292,1,215.999993408203,2|0,0:2|0:0,0:0:0:0:
352,316,126270,1,4,0:0:0:0:
384,196,126556,1,0,0:0:0:0:
352,68,126842,1,0,0:0:0:0:
204,44,127127,1,4,0:3:0:0:
244,192,127413,1,0,0:0:0:0:
204,340,127699,1,0,0:0:0:0:
32,364,127984,1,4,0:2:0:0:
96,192,128270,1,0,0:0:0:0:
32,20,128556,1,0,0:0:0:0:
32,20,128842,2,0,P|172:48|256:132,1,264.000008056641,4|0,0:3|0:0,0:0:0:0:
328,288,129699,22,0,P|420:324|496:244,1,215.999993408203,4|0,0:0|3:0,0:0:0:0:
504,92,130413,1,0,3:0:0:0:
432,124,130556,1,8,0:0:0:0:
288,188,130842,1,0,2:0:0:0:
144,248,131127,1,8,3:0:0:0:
0,312,131413,2,0,P|24:152|128:88,1,287.999991210938,0|2,0:2|0:3,0:0:0:0:
281,58,132270,1,8,0:2:0:0:
436,28,132556,1,0,2:0:0:0:
344,165,132841,1,8,0:3:0:0:
500,136,133127,6,0,P|504:208|464:264,1,143.999991790772
400,316,133556,2,0,P|304:324|240:232,1,215.999993408203,4|8,3:2|0:0,0:0:0:0:
272,80,134270,1,0,2:0:0:0:
164,196,134556,1,8,0:3:0:0:
188,40,134842,2,0,P|32:48|-8:156,1,287.999991210938,2|0,0:3|0:0,0:0:0:0:
121,155,135699,1,8,0:2:0:0:
256,85,135984,1,0,2:0:0:0:
323,217,136270,1,2,0:3:0:0:
184,288,136556,6,0,P|92:324|16:244,1,215.999993408203,4|0,0:0|3:0,0:0:0:0:
8,92,137270,1,0,3:0:0:0:
80,124,137413,1,8,0:0:0:0:
224,188,137699,1,0,2:0:0:0:
368,248,137984,1,8,0:3:0:0:
512,312,138270,2,0,P|488:152|384:88,1,287.999991210938,0|2,0:0|0:3,0:0:0:0:
231,58,139127,1,8,0:2:0:0:
76,28,139413,1,0,2:0:0:0:
32,184,139699,1,8,0:3:0:0:
76,340,139984,6,0,B|142:293|126:213|126:213|110:138|177:87,1,287.999983581544,2|0,0:2|0:0,0:0:0:0:
335,88,140842,2,0,B|401:138|385:213|385:213|369:293|436:340,1,287.999983581544,8|0,0:2|0:0,0:0:0:0:
492,192,141699,2,0,P|468:96|392:8,2,215.999987686158,2|0|8,0:2|3:0|0:2,0:0:0:0:
452,340,142841,5,0,0:0:0:0:
292,356,143127,1,0,0:0:0:0:
132,372,143413,2,0,P|24:312|8:160,1,287.999991210938,4|0,0:0|0:0,0:0:0:0:
76,16,144270,1,8,0:0:0:0:
436,372,144841,1,0,0:0:0:0:
504,228,145127,2,0,P|488:76|380:16,1,287.999991210938,2|0,0:2|0:0,0:0:0:0:
224,36,145984,1,8,0:2:0:0:
188,192,146270,1,0,2:0:0:0:
344,164,146556,1,8,0:3:0:0:
308,320,146841,6,0,P|228:296|164:312,1,143.999995605469,4|0,0:0|0:0,0:0:0:0:
96,336,147270,2,0,P|24:280|28:160,1,215.999993408203,4|8,3:2|0:0,0:0:0:0:
92,20,147984,1,0,2:0:0:0:
164,160,148270,1,0,0:0:0:0:
228,304,148556,2,0,P|320:352|412:304,1,215.999993408203,2|0,0:2|0:0,0:0:0:0:
448,232,149127,1,0,0:0:0:0:
508,84,149413,5,8,0:2:0:0:
352,64,149699,1,0,2:0:0:0:
196,48,149984,1,0,0:0:0:0:
40,32,150270,2,0,P|68:196|148:284,1,287.999991210938,4|0,0:0|0:0,0:0:0:0:
296,332,151127,2,0,L|216:52,1,287.999991210938,8|8,0:0|0:3,0:0:0:0:
365,100,151984,2,0,P|444:188|472:352,1,287.999991210938,2|0,0:2|0:0,0:0:0:0:
316,372,152841,1,8,0:0:0:0:
256,228,153127,5,0,2:0:0:0:
196,372,153413,1,8,0:3:0:0:
40,352,153699,2,0,P|68:204|180:136,1,287.999991210938,4|0,0:0|0:0,0:0:0:0:
334,136,154556,2,0,P|444:204|472:352,1,287.999991210938,2|0,0:2|0:0,0:0:0:0:
312,352,155413,1,0,0:0:0:0:
32,208,155984,37,0,2:0:0:0:
144,96,156270,1,8,0:3:0:0:
160,172,156413,1,0,3:0:0:0:
176,248,156556,1,0,0:0:0:0:
336,248,156841,1,4,0:3:0:0:
352,172,156984,1,0,3:0:0:0:
368,96,157127,1,4,0:0:0:0:
16,112,162269,53,4,1:2:0:0:
16,112,162555,1,2,1:2:0:0:
140,64,162841,1,0,2:0:0:0:
496,288,163412,1,2,1:3:0:0:
368,336,163698,2,0,P|244:340|144:280,1,240,0|0,3:3|2:0,2:0:0:0:
64,176,164555,2,0,B|136:128|184:160|224:188|300:148,1,240,2|0,1:2|2:0,0:0:0:0:
416,92,165412,1,4,1:3:0:0:
416,376,165984,1,2,1:2:0:0:
288,344,166269,1,0,2:0:0:0:
172,284,166555,2,0,P|124:188|228:140,1,240,2|4,1:3|2:3,0:0:0:0:
340,188,167412,1,4,1:2:0:0:
496,112,167698,5,2,1:2:0:0:
372,64,167984,1,0,2:0:0:0:
16,288,168555,1,2,1:3:0:0:
140,336,168841,2,0,P|264:340|364:280,1,240,0|0,3:3|2:0,2:0:0:0:
448,176,169698,2,0,B|376:128|327:160|288:188|212:148,1,240,2|0,1:2|2:0,0:0:0:0:
96,92,170555,1,4,1:3:0:0:
96,376,171126,1,2,1:2:0:0:
224,344,171412,1,0,2:0:0:0:
340,284,171698,2,0,P|408:220|396:80,1,240,2|4,1:3|2:3,0:0:0:0:
284,160,172555,1,4,1:2:0:0:
324,32,172841,37,2,1:2:0:0:
188,32,173126,1,0,2:2:0:0:
188,356,173698,1,2,1:3:0:0:
324,356,173984,2,8,P|416:312|424:184,1,240,0|2,3:0|2:3,0:0:0:0:
360,72,174841,2,0,P|256:20|152:72,1,240,2|0,1:2|0:0,0:0:0:0:
80,188,175698,1,4,1:3:0:0:
256,192,175984,12,4,178555,0:0:0:0:
88,112,179412,21,0,0:0:0:0:
88,112,179698,1,8,3:3:0:0:
88,112,179984,1,0,3:0:0:0:
88,116,180269,2,0,P|176:68|292:60,1,215.999993408203,4|0,0:0|3:0,0:0:0:0:
484,112,180983,1,0,3:0:0:0:
424,164,181126,2,0,P|336:212|220:220,1,215.999993408203,8|0,0:0|3:0,0:0:0:0:
40,300,181840,1,0,3:0:0:0:
80,364,181983,2,0,P|168:316|284:308,1,215.999993408203,2|0,0:2|3:0,0:0:0:0:
432,364,182697,1,0,3:0:0:0:
459,286,182840,1,8,0:2:0:0:
512,132,183126,1,0,2:0:0:0:
364,188,183411,1,8,0:3:0:0:
216,244,183697,6,0,P|104:252|36:184,1,215.999993408203,2|0,0:2|3:0,0:0:0:0:
8,112,184268,1,0,0:0:0:0:
148,184,184554,1,8,0:0:0:0:
128,340,184840,1,0,2:0:0:0:
284,352,185126,1,0,0:0:0:0:
296,196,185411,2,0,P|408:188|476:256,1,215.999993408203,2|0,0:2|3:0,0:0:0:0:
498,332,185983,1,0,0:0:0:0:
343,357,186268,1,12,0:2:0:0:
223,251,186554,1,0,2:0:0:0:
382,244,186840,1,0,0:0:0:0:
424,116,187126,6,0,P|336:68|220:60,1,215.999993408203,4|0,0:0|3:0,0:0:0:0:
28,112,187840,1,0,3:0:0:0:
88,164,187983,2,0,P|176:212|292:220,1,215.999993408203,8|0,0:0|3:0,0:0:0:0:
472,300,188697,1,0,3:0:0:0:
432,364,188840,2,0,P|344:316|228:308,1,215.999993408203,2|0,0:2|3:0,0:0:0:0:
80,364,189554,1,0,3:0:0:0:
52,288,189697,1,8,0:2:0:0:
0,140,189983,1,0,2:0:0:0:
148,200,190268,1,0,0:0:0:0:
296,260,190554,6,0,P|380:296|496:264,2,215.999993408203,2|0|8,0:2|3:0|0:0,0:0:0:0:
176,156,191697,1,0,2:0:0:0:
336,156,191983,1,0,0:0:0:0:
216,260,192268,2,0,P|128:296|16:264,2,215.999993408203,2|0|8,0:2|3:0|0:2,0:0:0:0:
336,156,193411,1,0,0:0:0:0:
176,156,193697,1,0,0:0:0:0:
272,284,193983,6,0,P|408:316|464:196,1,287.999991210938,4|0,0:2|0:0,0:0:0:0:
388,64,194840,2,0,P|256:15|124:64,1,287.999991210938,8|2,0:0|0:3,0:0:0:0:
46,202,195697,2,0,P|104:316|240:284,1,287.999991210938,4|0,0:2|0:0,0:0:0:0:
312,160,196554,1,8,0:2:0:0:
408,36,196840,1,0,2:0:0:0:
508,156,197126,1,8,0:3:0:0:
448,304,197411,6,0,P|368:360|256:344,2,215.999987686158,2|4|8,0:2|3:2|0:0,0:0:0:0:
400,148,198554,1,0,2:0:0:0:
256,84,198840,1,0,0:0:0:0:
112,148,199126,2,0,P|72:268|188:352,1,287.999991210938,2|0,0:2|0:0,0:0:0:0:
344,352,199983,1,8,0:2:0:0:
344,192,200268,1,0,2:0:0:0:
344,32,200554,1,0,1:0:0:0:
496,88,200840,6,0,P|520:192|496:296,1,215.999993408203,4|0,0:0|3:0,0:0:0:0:
348,352,201554,1,0,3:0:0:0:
304,280,201697,2,0,L|160:28,1,287.999991210938,8|0,0:0|0:0,0:0:0:0:
16,88,202554,2,0,P|-8:192|16:296,1,215.999993408203,2|0,0:2|3:0,0:0:0:0:
164,352,203268,1,0,3:0:0:0:
204,284,203411,1,8,0:2:0:0:
348,352,203697,1,0,2:0:0:0:
492,284,203983,1,8,0:3:0:0:
492,124,204268,6,0,P|373:54|256:124,1,287.999991210938,4|2,0:2|0:3,0:0:0:0:
256,284,205126,2,0,P|139:354|20:284,1,287.999991210938,8|0,0:0|0:0,0:0:0:0:
20,124,205983,1,2,0:2:0:0:
256,192,206268,12,4,207697,0:0:0:0:
