osu file format v12

[General]
AudioFilename: THE lovely WRITER.mp3
AudioLeadIn: 0
PreviewTime: 73129
Countdown: 0
SampleSet: Normal
StackLeniency: 0.7
Mode: 0
LetterboxInBreaks: 0
CountdownOffset: 1

[Editor]
Bookmarks: 27700,49129,70557,73986,101414,104843,126271,129700,157129,162271,180271,207700,235129
DistanceSpacing: 0.9
BeatDivisor: 3
GridSize: 4

[Metadata]
Title:The Writer
TitleUnicode:The Writer
Artist:Ellie Goulding
ArtistUnicode:Ellie Goulding
Creator:Xgor
Version:Easy
Source:
Tags:Lights
BeatmapID:224782
BeatmapSetID:80861

[Difficulty]
HPDrainRate:2
CircleSize:3
OverallDifficulty:3
ApproachRate:3
SliderMultiplier:2.4
SliderTickRate:3

[Events]
//Background and Video events
0,0,"Ellie_Goulding_bg.jpg",1,1
//Break Periods
2,101613,103402
2,157327,160829
//Storyboard Layer 0 (Background)
//Storyboard Layer 1 (Fail)
//Storyboard Layer 2 (Pass)
//Storyboard Layer 3 (Foreground)
//Storyboard Sound Samples
//Background Colour Transformations
3,100,163,162,255

[TimingPoints]
5414,857.142857142857,3,2,0,70,1,0
49128,-90.9090909090909,3,1,0,100,0,0
67128,857.142857142857,4,1,0,100,1,0
73985,-83.3333333333333,4,1,0,100,0,1
101413,-100,4,1,0,100,0,0
104842,857.142857142857,3,1,0,100,1,0
105699,-90.9090909090909,3,1,0,100,0,0
122842,857.142857142857,4,1,0,100,1,0
123699,-90.9090909090909,4,1,0,100,0,0
126270,-100,4,1,0,100,0,0
129699,-83.3333333333333,4,1,0,100,0,1
157127,857.142857142857,3,1,0,100,1,0
180269,857.142857142857,4,1,0,100,1,0
180269,-83.3333333333333,4,1,0,100,0,1
185411,-83.3333333333333,4,1,0,80,0,1
186557,-83.3333333333333,4,1,0,100,0,1
192269,-83.3333333333333,4,1,0,80,0,1
193414,-83.3333333333333,4,1,0,100,0,1
207697,-100,4,1,0,100,0,0

[HitObjects]
24,240,27699,2,0,P|92:324|212:308,2,240,2|8|0,0:2|1:3|1:3,2:0:0:0:
160,40,30271,1,2,1:2:0:0:
256,168,30842,1,8,2:3:0:0:
304,232,31128,1,0,1:3:0:0:
488,240,32842,6,0,P|420:324|296:308,2,240,2|0|0,1:2|1:3|1:3,2:0:0:0:
324,100,35413,2,0,P|256:140|188:104,1,160,2|0,1:2|0:3,2:0:0:0:
256,60,36271,1,0,1:3:0:0:
300,344,37985,6,0,P|344:212|436:200,1,240,4|0,1:2|1:3,2:0:0:0:
508,224,39128,1,8,2:3:0:0:
256,32,40556,1,2,1:2:0:0:
256,192,41128,1,8,0:3:0:0:
256,272,41413,1,2,1:2:0:0:
212,344,43128,6,0,P|168:212|76:200,1,240,4|2,1:2|1:2,2:0:0:0:
4,228,44271,1,8,2:3:0:0:
324,84,45699,2,0,P|256:120|188:84,1,160,2|0,1:2|0:3,2:0:0:0:
256,40,46556,1,0,1:1:0:0:
372,336,48271,6,0,B|292:300|256:336|220:372|140:336,1,240,2|4,1:2|0:0,2:0:0:0:
28,108,49985,1,8,0:2:0:0:
256,44,50842,2,0,P|328:88|320:172,1,176.000005371094,2|2,0:2|0:3,0:0:0:0:
256,124,51699,1,8,0:3:0:0:
136,328,52556,1,8,0:2:0:0:
376,328,53414,6,0,P|480:276|480:140,1,264.000008056641,2|4,0:2|0:2,0:0:0:0:
256,52,55128,1,8,0:2:0:0:
96,52,55699,1,8,0:3:0:0:
48,116,55985,2,0,P|36:204|80:280,1,176.000005371094,2|2,0:2|0:3,0:0:0:0:
124,344,56842,1,4,0:3:0:0:
388,344,57699,1,8,0:2:0:0:
368,104,58556,6,0,P|256:44|144:104,1,264.000008056641,2|4,0:2|0:2,0:0:0:0:
96,168,59699,1,8,0:3:0:0:
136,324,60271,1,8,0:2:0:0:
376,324,61128,1,2,0:2:0:0:
416,168,61699,1,2,0:3:0:0:
376,100,61985,1,4,0:3:0:0:
136,100,62842,1,8,0:2:0:0:
132,328,63699,6,0,P|256:368|384:328,1,264.000008056641,2|4,0:2|0:2,0:0:0:0:
444,280,64842,1,8,0:3:0:0:
444,120,65414,1,8,2:0:0:0:
184,160,66271,38,0,P|256:204|328:160,1,176.000005371094,2|2,0:2|0:3,0:0:0:0:
256,120,67128,1,4,0:3:0:0:
136,324,67985,1,8,0:2:0:0:
376,324,68842,1,4,0:2:0:0:
138,304,70556,6,0,P|256:43|374:303,1,720,4|0,0:0|0:0,3:0:0:0:
212,156,73985,6,0,P|256:261|300:156,1,287.999991210938,4|8,0:0|1:0,0:0:0:0:
416,276,75413,1,8,3:0:0:0:
344,320,75699,2,0,P|256:352|168:320,1,191.999994140625,0|2,0:2|0:3,0:0:0:0:
40,92,77128,1,8,3:0:0:0:
116,52,77413,2,0,P|256:24|396:52,2,287.999991210938,2|8|0,0:2|0:0|0:3,0:0:0:0:
128,312,79985,5,8,0:2:0:0:
384,312,80842,2,0,P|468:236|420:84,1,287.999991210938,4|8,0:0|0:0,0:0:0:0:
256,128,82270,1,8,3:0:0:0:
180,167,82556,2,0,P|256:216|332:167,1,191.999994140625,0|2,0:0|0:3,0:0:0:0:
76,128,83985,5,0,3:0:0:0:
100,208,84270,2,0,P|216:300|348:276,1,287.999991210938,2|8,0:2|0:0,0:0:0:0:
432,128,85699,1,8,3:0:0:0:
484,196,85985,1,2,0:3:0:0:
256,320,86842,5,8,0:2:0:0:
296,56,87699,2,0,P|384:152|472:56,1,287.999991210938,4|8,0:0|0:0,0:0:0:0:
216,120,89413,2,0,P|128:24|40:120,1,287.999991210938,4|8,0:2|0:0,0:0:0:0:
32,368,91128,2,0,B|48:300|104:260|160:248|216:264|256:316|256:316|296:368|352:384|416:372|464:348|476:272,1,575.999982421876,4|0,0:1|0:0,0:0:0:0:
256,92,93699,37,8,0:2:0:0:
164,236,94270,1,8,3:0:0:0:
120,312,94556,2,0,P|252:361|384:312,1,287.999991210938,4|8,0:0|0:0,0:0:0:0:
512,176,95985,1,0,3:0:0:0:
512,88,96270,1,0,0:0:0:0:
256,84,97128,1,0,0:0:0:0:
64,248,97985,6,0,P|256:370|448:248,1,479.999985351563,2|8,0:2|3:0,0:0:0:0:
488,172,99699,1,4,0:3:0:0:
256,60,100556,1,2,0:2:0:0:
256,232,101128,1,8,3:0:0:0:
256,312,101413,1,4,0:0:0:0:
124,368,104842,5,4,0:0:0:0:
360,368,105699,1,8,0:0:0:0:
256,160,106556,2,0,P|212:80|256:16,1,176.000005371094,2|2,0:2|0:3,0:0:0:0:
292,88,107413,2,0,P|426:106|456:216,1,264.000008056641,8|8,0:3|0:2,0:0:0:0:
256,344,109127,5,2,0:2:0:0:
60,212,109984,2,0,P|80:132|164:116,1,176.000005371094,4|0,0:2|0:3,0:0:0:0:
136,192,110842,1,8,0:2:0:0:
376,192,111699,1,2,0:2:0:0:
352,116,111984,1,2,0:3:0:0:
492,192,112556,2,0,P|428:316|316:312,1,264.000008056641,4|8,0:3|0:2,0:0:0:0:
256,84,114270,6,0,P|168:48|88:56,1,176.000005371094,2|8,0:2|0:3,0:0:0:0:
16,96,115127,1,4,0:2:0:0:
148,296,115984,1,8,0:2:0:0:
220,156,116556,1,2,0:3:0:0:
256,84,116842,2,0,P|388:60|488:132,1,264.000008056641,2|4,0:2|0:3,0:0:0:0:
344,320,118556,1,8,0:2:0:0:
216,112,119413,6,0,P|172:184|216:256,1,176.000005371094,2|0,0:2|0:0,0:0:0:0:
296,256,120270,2,0,P|340:184|296:112,1,176.000005371094,4|0,0:2|0:0,0:0:0:0:
256,184,121127,1,8,0:2:0:0:
80,344,121984,37,2,0:2:0:0:
80,184,122556,1,0,0:0:0:0:
80,104,122842,1,4,0:3:0:0:
320,104,123699,2,0,P|404:184|316:264,1,264.000008056641,8|4,0:2|0:0,0:0:0:0:
20,40,126270,6,0,B|108:0|192:16|256:64|256:192|256:192|360:136|448:152|520:200|524:324,1,720,4|0,1:1|1:3,3:3:0:0:
256,308,129699,6,0,P|128:332|40:216,1,287.999991210938,4|8,0:0|0:0,0:0:0:0:
72,48,131127,1,8,3:0:0:0:
160,48,131413,2,0,L|392:48,1,191.999994140625,0|2,0:0|0:3,0:0:0:0:
256,288,132841,1,8,3:0:0:0:
168,288,133127,2,0,P|140:148|16:152,2,287.999991210938,2|8|0,0:2|0:2|0:0,0:0:0:0:
256,52,135698,5,8,0:0:0:0:
256,308,136556,2,0,P|384:332|472:216,1,287.999991210938,4|8,0:0|0:0,0:0:0:0:
440,48,137984,1,8,3:0:0:0:
352,48,138270,2,0,L|160:48,1,191.999994140625,0|2,0:0|0:3,0:0:0:0:
44,276,139698,5,8,3:0:0:0:
132,276,139984,2,0,P|256:338|380:276,1,287.999991210938,2|8,0:2|0:0,0:0:0:0:
468,124,141413,1,8,3:0:0:0:
380,124,141698,1,2,0:3:0:0:
256,352,142556,5,8,0:2:0:0:
64,176,143413,2,0,P|132:52|268:44,1,287.999991210938,4|8,0:0|0:0,0:0:0:0:
448,224,145127,2,0,P|380:348|244:356,1,287.999991210938,2|8,0:2|0:2,0:0:0:0:
48,184,146841,2,0,B|76:24|256:-36|436:24|464:184,1,575.999982421876,4|0,0:0|0:0,0:0:0:0:
256,324,149413,37,8,0:2:0:0:
84,324,149984,1,8,3:0:0:0:
136,256,150270,2,0,L|324:36,1,287.999991210938,4|8,0:0|0:0,0:0:0:0:
496,36,151698,1,0,3:0:0:0:
436,100,151984,1,0,0:0:0:0:
496,352,152841,1,8,0:0:0:0:
256,240,153698,6,0,P|108:352|184:176,1,479.999985351563,2|8,0:2|3:0,0:0:0:0:
236,156,155413,1,4,0:3:0:0:
488,100,156270,1,8,0:3:0:0:
488,272,156841,1,4,3:3:0:0:
488,360,157127,1,4,0:1:0:0:
138,215,162269,5,4,1:2:0:0:
216,228,162555,1,2,0:2:0:0:
428,264,163412,1,2,0:3:0:0:
224,328,164269,2,0,P|64:312|16:176,1,320,2|4,0:2|0:3,0:0:0:0:
160,196,165984,2,0,L|104:44,2,160,2|2|4,0:2|0:3|0:3,0:0:0:0:
296,228,167698,5,2,0:2:0:0:
84,264,168555,1,2,0:3:0:0:
288,328,169412,2,0,P|448:312|496:176,1,320,2|4,0:2|0:3,0:0:0:0:
352,196,171126,2,0,L|408:44,2,160,2|2|4,0:2|0:3|0:3,0:0:0:0:
256,48,172841,37,2,0:2:0:0:
0,108,173698,1,2,0:3:0:0:
208,264,174555,2,0,B|208:312|208:312|216:360|256:368|296:360|304:312|304:312|304:264,1,240,2|0,0:2|0:3,0:0:0:0:
256,192,175698,12,4,178555,0:0:0:0:
72,192,180269,6,0,P|168:36|420:120,1,479.999985351563,4|8,0:0|0:3,0:0:0:0:
440,192,181983,2,0,P|344:348|92:264,1,479.999985351563,4|8,0:0|0:3,0:0:0:0:
64,192,183697,5,2,0:2:0:0:
216,272,184268,1,0,0:3:0:0:
184,192,184554,1,8,0:0:0:0:
448,192,185411,1,2,0:2:0:0:
296,112,185983,1,0,0:3:0:0:
328,192,186268,1,8,0:2:0:0:
104,296,187126,6,0,P|99:112|356:46,1,479.999985351563,4|8,0:0|0:3,0:0:0:0:
412,95,188840,2,0,P|416:278|159:344,1,479.999985351563,4|8,0:0|0:3,0:0:0:0:
92,304,190554,5,2,0:2:0:0:
212,180,191126,1,0,0:3:0:0:
240,260,191411,1,8,0:0:0:0:
420,80,192268,1,2,0:2:0:0:
300,204,192840,1,0,0:3:0:0:
272,124,193126,1,8,0:2:0:0:
72,268,193983,38,0,P|80:112|184:40,1,287.999991210938,4|8,0:0|0:0,0:0:0:0:
352,55,195411,1,2,0:3:0:0:
440,68,195697,2,0,P|432:224|332:292,1,287.999991210938,4|8,0:0|0:2,0:0:0:0:
164,336,197126,5,8,0:3:0:0:
88,292,197411,1,0,0:3:0:0:
88,204,197697,1,2,0:2:0:0:
88,32,198268,1,8,0:0:0:0:
216,256,199126,2,0,P|256:360|296:256,1,287.999991210938,4|8,0:3|0:2,0:0:0:0:
312,84,200554,5,8,0:3:0:0:
392,56,200840,2,0,B|476:192|392:328,1,287.999991210938,4|8,0:2|0:0,0:0:0:0:
120,328,202554,2,0,B|36:192|120:56,1,287.999991210938,2|8,0:2|0:2,0:0:0:0:
256,160,203983,1,8,0:3:0:0:
304,232,204268,2,0,P|256:336|208:232,1,287.999991210938,2|8,0:2|0:0,0:0:0:0:
256,192,205983,12,4,207697,0:0:0:0:
