osu file format v12

[General]
AudioFilename: Ellie Goulding - Starry Eyed.mp3
AudioLeadIn: 0
PreviewTime: 28868
Countdown: 1
SampleSet: Soft
StackLeniency: 0.7
Mode: 0
LetterboxInBreaks: 0
WidescreenStoryboard: 0

[Editor]
DistanceSpacing: 1
BeatDivisor: 2
GridSize: 8

[Metadata]
Title:Starry Eyed
TitleUnicode:Starry Eyed
Artist:Ellie Goulding
ArtistUnicode:Ellie Goulding
Creator:Kareov
Version:Insane
Source:Kick Ass
Tags:lights itunes sun rainbow kick ass 384059043
BeatmapID:283167
BeatmapSetID:108250

[Difficulty]
HPDrainRate:6
CircleSize:4
OverallDifficulty:7
ApproachRate:8
SliderMultiplier:1.8
SliderTickRate:2

[Events]
//Background and Video events
0,0,"wakemeup.png",0,0
//Break Periods
2,136068,140718
2,148068,149318
//Storyboard Layer 0 (Background)
//Storyboard Layer 1 (Fail)
//Storyboard Layer 2 (Pass)
//Storyboard Layer 3 (Foreground)
//Storyboard Sound Samples
//Background Colour Transformations
3,100,163,162,255

[TimingPoints]
68,400,4,2,1,70,1,0
12740,-100,4,2,1,30,0,0
13339,-100,4,2,1,40,0,0
14431,-100,4,2,1,50,0,0
15668,-100,4,2,1,60,0,0
15868,-100,4,2,1,70,0,0
31268,-200,4,2,1,70,0,0
31668,-100,4,2,1,70,0,0
35023,-100,4,2,1,70,0,0
36868,-100,4,2,1,70,0,1
43168,-100,4,2,1,70,0,0
43268,-100,4,2,1,70,0,1
49568,-100,4,2,1,70,0,0
49668,-100,4,2,1,70,0,1
62468,-100,4,2,1,70,0,0
77668,-200,4,2,1,70,0,0
81553,-100,4,3,1,70,0,0
81841,-100,4,2,1,70,0,0
83268,-100,4,2,1,70,0,1
89568,-100,4,2,1,70,0,0
89668,-100,4,2,1,70,0,1
95968,-100,4,2,1,70,0,0
96068,-100,4,2,1,70,0,1
108868,-100,4,2,1,50,0,0
115268,-100,4,2,1,60,0,0
121268,-100,4,3,1,60,0,0
121668,-100,4,2,1,60,0,0
124468,-100,4,3,1,60,0,0
124868,-100,4,2,1,60,0,0
136068,-200,4,2,1,60,0,0
142347,-100,4,2,1,60,0,0
142468,-100,4,2,1,60,0,1
147668,-100,4,2,1,60,0,0
150068,-100,4,2,1,60,0,1
150168,-100,4,2,1,60,0,0
150468,-100,4,2,1,60,0,1
158468,-100,4,2,1,60,0,0
161668,-100,4,2,1,60,0,1
161768,-100,4,2,1,60,0,0

[Colours]
Combo1 : 255,128,64
Combo2 : 0,128,255
Combo3 : 128,128,255

[HitObjects]
16,80,12868,6,8,B|120:56|172:140,1,180
256,320,13668,1,8,0:0:0:0:
300,240,13868,1,0,0:0:0:0:
212,240,14068,1,8,0:0:0:0:
372,324,14468,5,2,0:0:0:0:
408,192,14768,1,2,0:0:0:0:
384,60,15068,2,0,B|368:80|328:92|288:64,1,90,2|4,0:0|0:0,0:0:0:0:
216,44,15468,1,0,0:0:0:0:
216,44,15568,1,0,0:0:0:0:
216,44,15668,1,8,0:0:0:0:
112,192,16068,5,2,0:0:0:0:
68,272,16268,1,0,0:0:0:0:
112,352,16468,2,8,P|160:344|196:304,1,90
256,256,16868,1,0,0:0:0:0:
322,316,17068,2,8,P|352:344|400:352,1,90
488,192,17668,5,2,0:0:0:0:
400,224,17868,1,0,0:0:0:0:
312,192,18068,1,8,0:0:0:0:
32,56,18468,6,0,L|80:136|80:136,1,90,2|0,0:0|0:0,0:0:0:0:
152,80,18868,1,8,0:0:0:0:
176,168,19068,2,0,B|176:216|136:248|80:232,1,135
72,240,19468,1,2,0:0:0:0:
480,56,20068,6,0,L|432:136|432:136,1,90,2|0,0:0|0:0,0:0:0:0:
360,80,20468,1,8,0:0:0:0:
336,168,20668,2,0,B|336:216|376:248|432:232,1,135
440,240,21068,1,2,0:0:0:0:
424,328,21268,6,4,L|328:328,1,90,4|0,0:0|0:0,0:0:0:0:
256,256,21668,1,2,0:0:0:0:
256,240,21768,1,0,0:0:0:0:
256,224,21868,1,2,0:0:0:0:
256,208,21968,1,0,0:0:0:0:
256,192,22068,1,4,0:0:0:0:
48,48,22468,5,2,0:0:0:0:
96,128,22668,1,0,0:0:0:0:
48,208,22868,1,8,0:0:0:0:
96,288,23068,2,0,B|128:312|128:312|184:312|184:312,1,90,0|8,0:0|0:0,0:0:0:0:
256,112,23668,1,2,0:0:0:0:
424,48,24068,2,0,B|456:80|392:96|424:128,1,90,0|8,0:0|0:0,0:0:0:0:
440,144,24368,1,0,0:0:0:0:
456,160,24468,1,8,0:0:0:0:
448,336,24868,5,0,0:0:0:0:
376,280,25068,1,2,0:0:0:0:
376,280,25168,1,0,0:0:0:0:
376,280,25268,1,2,0:0:0:0:
336,360,25468,2,0,B|288:352|272:304,1,90,0|4,0:0|0:0,0:0:0:0:
352,144,26068,1,8,0:0:0:0:
200,48,26468,2,0,B|160:72|160:72|112:64,1,90,0|8,0:0|0:0,0:0:0:0:
96,72,26768,1,0,0:0:0:0:
72,80,26868,1,8,0:0:0:0:
144,240,27268,5,8,0:0:0:0:
320,304,27468,1,0,0:0:0:0:
192,304,27668,1,8,0:0:0:0:
368,240,27868,1,0,0:0:0:0:
256,240,28068,2,8,L|255:60,1,180,8|4,0:0|0:0,0:0:0:0:
72,64,28868,5,2,0:0:0:0:
16,240,29268,1,8,0:0:0:0:
72,304,29468,1,0,0:0:0:0:
128,240,29668,2,0,B|232:248|256:136,1,180,2|0,0:0|0:0,0:0:0:0:
336,104,30268,1,0,0:0:0:0:
424,80,30468,6,0,B|448:128|424:168,1,90,2|0,0:0|0:0,0:0:0:0:
464,248,30868,2,0,B|416:272|376:248,1,90,2|0,0:0|0:0,0:0:0:0:
344,336,31268,2,0,B|296:312|256:336,1,90,2|0,0:0|0:0,0:0:0:0:
184,280,31868,1,2,0:0:0:0:
104,320,32068,1,4,0:0:0:0:
144,144,32468,1,8,0:0:0:0:
320,112,32868,1,2,0:0:0:0:
256,192,33668,12,0,35268,0:0:0:0:
256,56,35668,5,8,0:0:0:0:
256,56,35868,1,0,0:0:0:0:
128,128,36068,5,2,0:0:0:0:
144,136,36168,1,0,0:0:0:0:
160,144,36268,1,2,0:0:0:0:
176,152,36368,1,2,0:0:0:0:
192,160,36468,1,0,0:0:0:0:
208,168,36568,1,2,0:0:0:0:
224,176,36668,1,0,0:0:0:0:
240,184,36768,1,0,0:0:0:0:
256,192,36868,1,4,0:0:0:0:
336,256,37068,5,0,0:0:0:0:
360,264,37168,1,0,0:0:0:0:
384,272,37268,1,8,0:0:0:0:
224,296,37468,1,0,0:0:0:0:
208,312,37568,1,0,0:0:0:0:
192,328,37668,1,8,0:0:0:0:
48,232,37868,2,0,B|48:264|48:264|64:280|64:280|64:320,1,90,2|4,0:0|0:0,0:0:0:0:
320,112,38468,5,0,0:0:0:0:
328,88,38568,1,0,0:0:0:0:
336,64,38668,1,8,0:0:0:0:
360,224,38868,1,0,0:0:0:0:
376,240,38968,1,0,0:0:0:0:
392,256,39068,1,8,0:0:0:0:
136,192,39268,6,0,B|168:192|168:192|184:176|184:176|224:176,1,90,2|4,0:0|0:0,0:0:0:0:
200,88,39668,1,0,0:0:0:0:
120,48,39868,2,2,L|8:192,1,180
152,304,40668,1,0,0:0:0:0:
152,304,40768,1,0,0:0:0:0:
152,304,40868,1,8,0:0:0:0:
256,192,41668,5,4,0:0:0:0:
284,279,42268,1,2,0:0:0:0:
284,104,42468,1,8,0:0:0:0:
181,138,42668,1,2,0:0:0:0:
347,192,42868,1,8,0:0:0:0:
181,246,43068,1,2,0:0:0:0:
256,192,43268,1,4,0:0:0:0:
256,192,44468,1,0,0:0:0:0:
256,192,44668,1,4,0:0:0:0:
176,256,44868,5,0,0:0:0:0:
152,264,44968,1,0,0:0:0:0:
128,272,45068,1,8,0:0:0:0:
288,296,45268,1,0,0:0:0:0:
304,312,45368,1,0,0:0:0:0:
320,328,45468,1,8,0:0:0:0:
464,232,45668,2,0,B|464:264|464:264|448:280|448:280|448:320,1,90,2|4,0:0|0:0,0:0:0:0:
192,112,46268,5,0,0:0:0:0:
184,88,46368,1,0,0:0:0:0:
176,64,46468,1,8,0:0:0:0:
152,224,46668,1,0,0:0:0:0:
136,240,46768,1,0,0:0:0:0:
120,256,46868,1,8,0:0:0:0:
376,192,47068,6,0,B|344:192|344:192|328:176|328:176|288:176,1,90,2|4,0:0|0:0,0:0:0:0:
312,88,47468,1,0,0:0:0:0:
400,64,47668,1,2,0:0:0:0:
416,80,47768,1,0,0:0:0:0:
432,96,47868,1,2,0:0:0:0:
448,112,47968,1,0,0:0:0:0:
464,128,48068,1,4,0:0:0:0:
256,192,48268,12,0,49668,0:0:0:0:
120,336,50068,6,0,L|24:336,1,90,8|0,0:0|0:0,0:0:0:0:
56,248,50468,2,0,L|168:248|168:248,1,90,8|0,0:0|0:0,0:0:0:0:
116,164,50868,2,0,L|12:164,4,90,8|0|8|0|8,0:0|0:0|0:0|0:0|0:0,0:0:0:0:
180,104,51868,2,2,L|188:56,2,45
204,192,52268,1,4,0:0:0:0:
204,192,52668,1,4,0:0:0:0:
288,156,52868,6,0,P|304:200|272:236,1,90,8|0,0:0|0:0,0:0:0:0:
248,316,53268,1,8,0:0:0:0:
336,300,53468,1,0,0:0:0:0:
336,300,53568,1,0,0:0:0:0:
336,300,53668,2,0,B|368:336|416:332,1,90,8|0,0:0|0:0,0:0:0:0:
476,264,54068,1,8,0:0:0:0:
456,176,54268,1,0,0:0:0:0:
476,88,54468,1,8,0:0:0:0:
392,60,54668,6,2,L|344:92,2,45
120,60,55068,2,2,L|168:92,2,45
88,144,55468,1,4,0:0:0:0:
88,144,55868,1,4,0:0:0:0:
256,192,56868,12,0,58868,0:0:0:0:
304,56,59268,6,0,L|312:152,1,90,8|2,0:0|0:0,0:0:0:0:
208,56,59668,2,0,L|200:152,1,90,8|2,0:0|0:0,0:0:0:0:
120,248,60068,2,0,B|168:248|216:248,1,90,2|8,0:0|0:0,0:0:0:0:
392,248,60468,2,8,L|344:248|296:248,1,90
256,192,60868,12,0,62068,0:0:0:0:
144,360,62468,5,4,0:0:0:0:
88,288,62668,1,0,0:0:0:0:
144,216,62868,1,8,0:0:0:0:
88,144,63068,2,0,B|88:96|128:64,1,90,0|2,0:0|0:0,0:0:0:0:
192,128,63468,1,0,0:0:0:0:
192,128,63568,1,0,0:0:0:0:
192,128,63668,1,8,0:0:0:0:
368,360,64068,5,4,0:0:0:0:
424,288,64268,1,0,0:0:0:0:
368,216,64468,1,8,0:0:0:0:
424,144,64668,2,0,B|424:96|384:64,1,90,0|2,0:0|0:0,0:0:0:0:
320,128,65068,1,0,0:0:0:0:
320,128,65168,1,0,0:0:0:0:
320,128,65268,1,8,0:0:0:0:
296,216,65468,6,0,B|296:312|296:312,1,90,2|0,0:0|0:0,0:0:0:0:
216,216,65868,2,0,L|216:320,1,90,2|8,0:0|0:0,0:0:0:0:
136,216,66268,2,0,L|136:328,1,90,4|0,0:0|0:0,0:0:0:0:
56,216,66668,2,0,L|56:320,1,90,8|0,0:0|0:0,0:0:0:0:
40,136,67068,2,0,B|48:80|112:40|184:72,1,180,8|0,0:0|0:0,0:0:0:0:
328,72,67668,2,0,B|396:41|460:81|468:137,1,180,8|8,0:0|0:0,0:0:0:0:
384,160,68268,1,8,0:0:0:0:
384,160,68368,1,0,0:0:0:0:
384,160,68468,1,8,0:0:0:0:
448,328,68868,5,0,0:0:0:0:
360,328,69068,1,0,0:0:0:0:
408,248,69268,2,0,L|312:248|312:248,1,90,8|0,0:0|0:0,0:0:0:0:
272,328,69668,2,0,L|180:328,1,90,4|0,0:0|0:0,0:0:0:0:
168,328,69968,1,0,0:0:0:0:
152,328,70068,1,8,0:0:0:0:
72,296,70268,1,0,0:0:0:0:
112,216,70468,2,0,L|112:120,2,90,0|0|8,0:0|0:0|0:0,0:0:0:0:
368,80,71468,6,8,B|376:128|344:168,1,90
256,104,71868,2,0,L|256:288,1,180
256,192,72468,12,0,74468,0:0:0:0:
440,64,75268,5,2,0:0:0:0:
496,240,75668,1,8,0:0:0:0:
440,304,75868,1,0,0:0:0:0:
384,240,76068,2,0,B|280:248|256:136,1,180,2|0,0:0|0:0,0:0:0:0:
176,104,76668,1,0,0:0:0:0:
88,80,76868,6,0,B|64:128|88:168,1,90,2|0,0:0|0:0,0:0:0:0:
48,248,77268,2,0,B|96:272|136:248,1,90,2|0,0:0|0:0,0:0:0:0:
168,336,77668,2,0,B|216:312|256:336,1,90,2|0,0:0|0:0,0:0:0:0:
328,280,78268,1,2,0:0:0:0:
408,320,78468,1,4,0:0:0:0:
368,144,78868,1,8,0:0:0:0:
192,112,79268,1,2,0:0:0:0:
256,192,80068,12,8,81668,0:0:0:0:
256,328,82068,5,8,0:0:0:0:
256,328,82268,1,0,0:0:0:0:
128,256,82468,5,2,0:0:0:0:
144,248,82568,1,0,0:0:0:0:
160,240,82668,1,2,0:0:0:0:
176,232,82768,1,2,0:0:0:0:
192,224,82868,1,0,0:0:0:0:
208,216,82968,1,2,0:0:0:0:
224,208,83068,1,0,0:0:0:0:
240,200,83168,1,0,0:0:0:0:
256,192,83268,1,4,0:0:0:0:
336,128,83468,5,0,0:0:0:0:
360,120,83568,1,0,0:0:0:0:
384,112,83668,1,8,0:0:0:0:
224,88,83868,1,0,0:0:0:0:
208,72,83968,1,0,0:0:0:0:
192,56,84068,1,8,0:0:0:0:
48,152,84268,2,0,B|48:120|48:120|64:104|64:104|64:64,1,90,2|4,0:0|0:0,0:0:0:0:
320,272,84868,5,0,0:0:0:0:
328,296,84968,1,0,0:0:0:0:
336,320,85068,1,8,0:0:0:0:
360,160,85268,1,0,0:0:0:0:
376,144,85368,1,0,0:0:0:0:
392,128,85468,1,8,0:0:0:0:
136,192,85668,6,0,B|168:192|168:192|184:208|184:208|224:208,1,90,2|4,0:0|0:0,0:0:0:0:
200,296,86068,1,0,0:0:0:0:
120,336,86268,2,2,L|8:192,1,180
152,80,87068,1,0,0:0:0:0:
152,80,87168,1,0,0:0:0:0:
152,80,87268,1,8,0:0:0:0:
256,192,88068,5,4,0:0:0:0:
336,144,88668,6,0,B|352:192|336:232,1,90,2|8,0:0|0:0,0:0:0:0:
256,280,89068,1,2,0:0:0:0:
256,280,89168,1,0,0:0:0:0:
256,280,89268,1,8,0:0:0:0:
176,144,89468,2,0,B|160:192|176:232,1,90,2|4,0:0|0:0,0:0:0:0:
256,192,90868,1,0,0:0:0:0:
256,192,91068,1,4,0:0:0:0:
176,128,91268,5,0,0:0:0:0:
152,120,91368,1,0,0:0:0:0:
128,112,91468,1,8,0:0:0:0:
288,88,91668,1,0,0:0:0:0:
304,72,91768,1,0,0:0:0:0:
320,56,91868,1,8,0:0:0:0:
464,152,92068,2,0,B|464:120|464:120|448:104|448:104|448:64,1,90,2|4,0:0|0:0,0:0:0:0:
192,272,92668,5,0,0:0:0:0:
184,296,92768,1,0,0:0:0:0:
176,320,92868,1,8,0:0:0:0:
152,160,93068,1,0,0:0:0:0:
136,144,93168,1,0,0:0:0:0:
120,128,93268,1,8,0:0:0:0:
376,192,93468,6,0,B|344:192|344:192|328:208|328:208|288:208,1,90,2|4,0:0|0:0,0:0:0:0:
312,296,93868,1,0,0:0:0:0:
400,320,94068,1,2,0:0:0:0:
416,304,94168,1,0,0:0:0:0:
432,288,94268,1,2,0:0:0:0:
448,272,94368,1,0,0:0:0:0:
464,256,94468,1,4,0:0:0:0:
256,192,94668,12,0,96068,0:0:0:0:
392,336,96468,6,0,L|488:336,1,90,8|0,0:0|0:0,0:0:0:0:
456,248,96868,2,0,L|344:248|344:248,1,90,8|0,0:0|0:0,0:0:0:0:
396,164,97268,2,0,L|500:164,4,90,8|0|8|0|8,0:0|0:0|0:0|0:0|0:0,0:0:0:0:
332,104,98268,2,2,L|324:56,2,45
308,192,98668,1,4,0:0:0:0:
308,192,99068,1,4,0:0:0:0:
120,336,99468,5,2,0:0:0:0:
120,336,99668,2,0,L|24:336,1,90,8|0,0:0|0:0,0:0:0:0:
56,248,100068,2,0,L|168:248|168:248,1,90,8|0,0:0|0:0,0:0:0:0:
116,164,100468,2,0,L|12:164,4,90,8|0|8|0|8,0:0|0:0|0:0|0:0|0:0,0:0:0:0:
180,104,101468,2,2,L|188:56,2,45
204,192,101868,1,4,0:0:0:0:
204,192,102268,1,4,0:0:0:0:
256,192,103268,12,0,105268,0:0:0:0:
208,56,105668,6,0,L|200:152,1,90,8|2,0:0|0:0,0:0:0:0:
304,56,106068,2,0,L|312:152,1,90,8|2,0:0|0:0,0:0:0:0:
392,248,106468,2,0,B|344:248|296:264,1,90,2|8,0:0|0:0,0:0:0:0:
120,248,106868,2,8,P|168:248|216:264,1,90
256,192,107268,12,0,108468,0:0:0:0:
256,352,109268,5,8,0:0:0:0:
256,352,109468,1,0,0:0:0:0:
256,352,109668,1,2,0:0:0:0:
80,232,110068,2,0,B|128:232|160:192,2,90,8|0|0,0:0|0:0|0:0,0:0:0:0:
256,104,110868,1,8,0:0:0:0:
432,232,111268,2,0,B|384:232|352:192,2,90,0|8|2,0:0|0:0|0:0,0:0:0:0:
256,104,112068,6,0,L|72:104|72:104,1,180,2|2,0:0|0:0,0:0:0:0:
16,192,112668,1,0,0:0:0:0:
16,192,112868,2,2,B|32:280|152:328|216:216,1,270
296,216,113668,2,2,B|360:328|480:280|496:192,1,270
392,152,114468,1,0,0:0:0:0:
456,64,114668,1,8,0:0:0:0:
456,64,114768,1,0,0:0:0:0:
456,64,114868,1,8,0:0:0:0:
352,64,115068,1,4,0:0:0:0:
256,192,115668,12,0,117668,0:0:0:0:
256,192,118468,12,0,120068,0:0:0:0:
136,112,121468,5,8,0:0:0:0:
40,352,121868,1,2,0:0:0:0:
72,272,122068,1,8,0:0:0:0:
104,192,122268,1,2,0:0:0:0:
136,112,122468,1,4,0:0:0:0:
256,192,123268,5,0,0:0:0:0:
256,192,123668,1,8,0:0:0:0:
256,192,124068,1,4,0:0:0:0:
376,112,124668,5,8,0:0:0:0:
472,352,125068,1,2,0:0:0:0:
440,272,125268,1,8,0:0:0:0:
408,192,125468,1,2,0:0:0:0:
376,112,125668,1,4,0:0:0:0:
208,352,126468,5,2,0:0:0:0:
304,352,126668,1,0,0:0:0:0:
200,352,126868,1,8,0:0:0:0:
312,352,127068,1,0,0:0:0:0:
176,264,127268,2,0,B|216:264|256:228|256:228|296:264|336:264,1,180
424,232,127868,2,0,B|416:184|448:152|448:152|416:120|424:64,1,180
346,152,128468,6,8,L|165:152,1,180,8|2,0:0|0:0,0:0:0:0:
80,336,129668,5,2,0:0:0:0:
168,336,129868,1,0,0:0:0:0:
256,336,130068,1,8,0:0:0:0:
344,336,130268,1,2,0:0:0:0:
432,336,130468,1,8,0:0:0:0:
200,76,131268,6,0,B|216:116|256:36|256:36|296:116|312:76,1,180,0|8,0:0|0:0,0:0:0:0:
476,152,132068,2,0,B|340:280|136:192,1,360,0|4,0:0|0:0,0:0:0:0:
40,272,133068,2,0,L|144:272|144:272,1,90,4|0,0:0|0:0,0:0:0:0:
88,352,133468,2,0,L|192:352|192:352,1,90,0|4,0:0|0:0,0:0:0:0:
196,352,133768,1,0,0:0:0:0:
212,352,133868,1,0,0:0:0:0:
228,352,133968,1,4,0:0:0:0:
244,352,134068,1,0,0:0:0:0:
260,352,134168,1,0,0:0:0:0:
276,352,134268,1,14,0:0:0:0:
448,280,134468,5,2,0:0:0:0:
400,56,134768,1,2,0:0:0:0:
212,168,135068,1,2,0:0:0:0:
212,168,135268,2,0,P|152:112|60:124,1,180,0|8,0:0|0:0,0:0:0:0:
192,288,141468,5,8,0:0:0:0:
352,176,141668,1,8,0:0:0:0:
160,176,141868,1,2,0:0:0:0:
320,288,142068,1,2,0:0:0:0:
256,96,142268,1,0,0:0:0:0:
256,96,142368,1,0,0:0:0:0:
256,96,142468,1,0,0:0:0:0:
148,48,142668,5,0,0:0:0:0:
40,96,142868,1,8,0:0:0:0:
160,176,143068,1,0,0:0:0:0:
160,176,143168,1,0,0:0:0:0:
160,176,143268,2,0,L|104:248,1,90,0|8,0:0|0:0,0:0:0:0:
256,96,143668,2,8,L|320:160,1,90
424,104,144068,5,4,0:0:0:0:
460,244,144268,1,2,0:0:0:0:
320,160,144468,2,0,L|308:252,1,90,8|8,0:0|0:0,0:0:0:0:
380,344,144868,5,8,0:0:0:0:
424,104,145068,1,2,0:0:0:0:
224,116,145268,1,8,0:0:0:0:
256,272,145468,2,2,P|160:308|72:256,1,180
52,192,146068,1,2,0:0:0:0:
40,176,146168,1,0,0:0:0:0:
28,160,146268,1,2,0:0:0:0:
256,192,146468,12,0,147668,0:0:0:0:
256,192,150068,5,10,0:0:0:0:
212,96,150468,6,0,L|300:80,1,90,4|0,0:0|0:0,0:0:0:0:
380,264,150868,2,0,L|396:176,1,90,8|0,0:0|0:0,0:0:0:0:
132,264,151268,2,0,L|116:176,1,90,8|0,0:0|0:0,0:0:0:0:
212,324,151668,2,0,L|300:340,1,90,8|0,0:0|0:0,0:0:0:0:
92,352,152068,5,0,0:0:0:0:
168,180,152268,1,8,0:0:0:0:
212,324,152468,1,2,0:0:0:0:
24,224,152668,1,8,0:0:0:0:
24,224,152768,1,0,0:0:0:0:
24,224,152868,1,0,0:0:0:0:
52,128,153068,2,0,B|76:88|120:80|120:80,1,90,0|8,0:0|0:0,0:0:0:0:
240,108,153468,1,0,0:0:0:0:
240,108,153568,1,0,0:0:0:0:
240,108,153668,2,0,B|272:108|272:108|288:120|288:120|328:120,1,90
376,336,154268,5,8,0:0:0:0:
256,224,154468,1,2,0:0:0:0:
256,336,154668,1,8,0:0:0:0:
368,224,154868,1,2,0:0:0:0:
144,336,155068,1,0,0:0:0:0:
144,224,155268,1,4,0:0:0:0:
64,144,155468,6,0,L|160:144,1,90,0|8,0:0|0:0,0:0:0:0:
208,64,155868,1,0,0:0:0:0:
448,144,156068,2,0,L|336:144,1,90
304,64,156468,1,8,0:0:0:0:
304,64,156668,1,0,0:0:0:0:
256,192,156868,12,8,158068,0:0:0:0:
360,352,158268,5,8,0:0:0:0:
440,304,158468,1,2,0:0:0:0:
360,272,158668,1,8,0:0:0:0:
384,160,158868,1,4,0:0:0:0:
256,192,159068,1,2,0:0:0:0:
152,352,159268,5,4,0:0:0:0:
72,304,159468,1,2,0:0:0:0:
152,272,159668,1,8,0:0:0:0:
128,160,159868,1,8,0:0:0:0:
256,192,160068,1,4,0:0:0:0:
320,72,160268,5,8,0:0:0:0:
320,72,160368,1,0,0:0:0:0:
320,72,160468,1,2,0:0:0:0:
184,72,160668,1,8,0:0:0:0:
184,72,160768,1,0,0:0:0:0:
184,72,160868,1,8,0:0:0:0:
256,192,161068,5,2,0:0:0:0:
256,216,161168,1,0,0:0:0:0:
256,240,161268,1,2,0:0:0:0:
256,264,161368,1,0,0:0:0:0:
256,288,161468,1,8,0:0:0:0:
256,312,161568,1,0,0:0:0:0:
256,336,161668,1,8,0:0:0:0:
