osu file format v12

[General]
AudioFilename: Ellie Goulding - Starry Eyed.mp3
AudioLeadIn: 0
PreviewTime: 28868
Countdown: 1
SampleSet: Soft
StackLeniency: 0.7
Mode: 0
LetterboxInBreaks: 0
WidescreenStoryboard: 0

[Editor]
DistanceSpacing: 1
BeatDivisor: 4
GridSize: 4

[Metadata]
Title:Starry Eyed
TitleUnicode:Starry Eyed
Artist:Ellie Goulding
ArtistUnicode:Ellie Goulding
Creator:Kareov
Version:Easy
Source:
Tags:lights sun rainbow kick ass 384059043
BeatmapID:285731
BeatmapSetID:108250

[Difficulty]
HPDrainRate:2
CircleSize:3
OverallDifficulty:2
ApproachRate:3
SliderMultiplier:0.999999999999999
SliderTickRate:2

[Events]
//Background and Video events
0,0,"wakemeup.png",0,0
//Break Periods
2,62468,68228
2,108868,120628
2,136068,141028
//Storyboard Layer 0 (Background)
//Storyboard Layer 1 (Fail)
//Storyboard Layer 2 (Pass)
//Storyboard Layer 3 (Foreground)
//Storyboard Sound Samples
//Background Colour Transformations
3,100,163,162,255

[TimingPoints]
68,400,4,2,1,70,1,0
12740,-100,4,2,1,30,0,0
13339,-100,4,2,1,40,0,0
14431,-100,4,2,1,50,0,0
15668,-100,4,2,1,60,0,0
15868,-100,4,2,1,70,0,0
35023,-100,4,2,1,70,0,0
36868,-100,4,2,1,70,0,1
43168,-100,4,2,1,70,0,0
43268,-100,4,2,1,70,0,1
49568,-100,4,2,1,70,0,0
49668,-100,4,2,1,70,0,1
62468,-100,4,2,1,70,0,0
81553,-100,4,3,1,70,0,0
81841,-100,4,2,1,70,0,0
83268,-100,4,2,1,70,0,1
89568,-100,4,2,1,70,0,0
89668,-100,4,2,1,70,0,1
95968,-100,4,2,1,70,0,0
96068,-100,4,2,1,70,0,1
108868,-100,4,2,1,50,0,0
115268,-100,4,2,1,60,0,0
121268,-100,4,3,1,60,0,0
121668,-100,4,2,1,60,0,0
124468,-100,4,3,1,60,0,0
124868,-100,4,2,1,60,0,0
136068,-200,4,2,1,60,0,0
142347,-100,4,2,1,60,0,0
142468,-100,4,2,1,60,0,1
147668,-100,4,2,1,60,0,0
150068,-100,4,2,1,60,0,1
150168,-100,4,2,1,60,0,0
150468,-100,4,2,1,60,0,1
158468,-100,4,2,1,60,0,0
161668,-100,4,2,1,60,0,1
161768,-100,4,2,1,60,0,0

[Colours]
Combo1 : 255,128,64
Combo2 : 0,128,255
Combo3 : 128,128,255

[HitObjects]
400,112,12868,6,0,L|304:80,1,99.9999999999999,2|0,0:0|0:0,0:0:0:0:
206,80,13668,2,0,L|111:111,1,99.9999999999999,2|0,0:0|0:0,0:0:0:0:
256,192,14468,12,4,16068,0:0:0:0:
376,248,16868,6,0,B|376:296|376:296|336:328,1,99.9999999999999,0|8,0:0|0:0,0:0:0:0:
256,264,17668,1,0,0:0:0:0:
176,328,18068,2,0,B|136:296|136:296|136:248,1,99.9999999999999,8|0,0:0|0:0,0:0:0:0:
56,192,18868,2,0,B|-8:192|0:120,2,99.9999999999999,8|0|8,0:0|0:0|0:0,0:0:0:0:
200,56,20468,5,8,0:0:0:0:
256,144,20868,1,0,0:0:0:0:
312,56,21268,2,0,B|392:56|448:112,1,150,8|0,0:0|0:0,0:0:0:0:
488,136,22068,2,0,L|488:256,1,99.9999999999999,2|4,0:0|0:0,0:0:0:0:
320,352,23268,5,0,0:0:0:0:
256,280,23668,1,8,0:0:0:0:
192,352,24068,2,0,B|72:352|48:240,1,200,2|0,0:0|0:0,0:0:0:0:
136,192,25268,1,8,0:0:0:0:
80,108,25668,2,0,B|160:44|160:44|264:44,1,200,2|0,0:0|0:0,0:0:0:0:
328,232,27268,6,0,P|344:272|304:312,1,99.9999999999999,0|8,0:0|0:0,0:0:0:0:
202,310,28068,2,0,P|168:272|184:232,1,99.9999999999999,0|8,0:0|0:0,0:0:0:0:
128,144,28868,6,0,B|144:80|208:48|256:168|256:168|304:48|368:80|384:144,1,400,2|4,0:0|0:0,0:0:0:0:
380,344,31268,1,8,0:0:0:0:
180,368,32068,6,0,B|88:312|112:192,1,200,4|2,0:0|0:0,0:0:0:0:
140,100,33268,1,8,0:0:0:0:
220,40,33668,2,4,L|296:40,2,74.9999999999999,2|2|2,0:0|0:0|0:0,0:0:0:0:
256,192,34468,12,0,36468,0:0:0:0:
364,244,37268,6,0,B|364:288|364:288|324:328,1,99.9999999999999,8|0,0:0|0:0,0:0:0:0:
188,328,38068,2,0,B|148:288|148:288|148:244,1,99.9999999999999,8|0,0:0|0:0,0:0:0:0:
184,48,39268,2,0,P|256:68|328:52,1,150,4|0,0:0|0:0,0:0:0:0:
432,88,40268,1,4,0:0:0:0:
448,192,40668,2,4,L|448:248,1,50,4|8,0:0|0:0,0:0:0:0:
256,296,41668,1,2,0:0:0:0:
208,100,42468,6,0,B|256:76|304:100,1,99.9999999999999,0|8,0:0|0:0,0:0:0:0:
256,192,43268,1,4,0:0:0:0:
92,76,44068,6,0,P|52:108|108:332,1,300,2|8,0:0|0:0,0:0:0:0:
180,276,45668,2,0,L|332:276,1,150,2|2,0:0|0:0,0:0:0:0:
380,188,46668,1,2,0:0:0:0:
364,88,47068,2,0,P|256:32|148:84,1,250,2|4,0:0|0:0,0:0:0:0:
0,116,48668,2,0,L|0:280,1,150
88,316,49668,6,0,B|152:316|152:256,1,99.9999999999999,4|8,0:0|0:0,0:0:0:0:
256,268,50468,1,2,0:0:0:0:
360,256,50868,2,0,B|360:316|424:316,1,99.9999999999999,8|0,0:0|0:0,0:0:0:0:
304,96,52268,2,4,B|256:80|256:80|208:96,1,99.9999999999999
96,192,53268,6,0,L|144:280,1,99.9999999999999,8|0,0:0|0:0,0:0:0:0:
240,256,54068,2,0,L|344:256,1,99.9999999999999,8|4,0:0|0:0,0:0:0:0:
348,8,55468,6,4,B|332:40|304:56|260:40|260:40,1,99.9999999999999
120,84,56468,1,8,0:0:0:0:
44,148,56868,1,0,0:0:0:0:
132,192,57268,2,0,L|132:264,2,50,8|0|8,0:0|0:0|0:0,0:0:0:0:
256,192,59268,12,0,60868,0:0:0:0:
320,32,69668,5,0,0:0:0:0:
256,104,70068,1,8,0:0:0:0:
192,32,70468,2,0,B|72:32|48:144,1,200,2|0,0:0|0:0,0:0:0:0:
136,192,71668,1,8,0:0:0:0:
80,272,72068,2,0,B|160:336|160:336|264:336,1,200,2|0,0:0|0:0,0:0:0:0:
328,152,73668,6,0,P|344:112|304:72,1,99.9999999999999,0|8,0:0|0:0,0:0:0:0:
202,74,74468,2,0,P|168:112|184:152,1,99.9999999999999,0|8,0:0|0:0,0:0:0:0:
256,224,75268,6,0,L|256:352,2,99.9999999999999,2|0|2,0:0|0:0|0:0,0:0:0:0:
448,264,76868,6,2,L|344:280,1,99.9999999999999
232,184,77868,2,0,L|304:184,1,50,8|8,0:0|0:0,0:0:0:0:
256,192,78468,12,0,80068,0:0:0:0:
256,192,80868,5,2,0:0:0:0:
256,192,81668,12,0,83268,0:0:0:0:
148,140,83668,6,0,B|148:96|148:96|188:56,1,99.9999999999999,8|0,0:0|0:0,0:0:0:0:
324,56,84468,2,0,B|364:96|364:96|364:140,1,99.9999999999999,8|0,0:0|0:0,0:0:0:0:
328,336,85668,2,0,P|256:316|184:332,1,150,4|0,0:0|0:0,0:0:0:0:
80,296,86668,1,4,0:0:0:0:
64,192,87068,2,4,L|64:136,1,50,4|8,0:0|0:0,0:0:0:0:
256,88,88068,1,2,0:0:0:0:
304,284,88868,6,0,B|256:308|208:284,1,99.9999999999999,0|8,0:0|0:0,0:0:0:0:
256,192,89668,1,4,0:0:0:0:
420,308,90468,6,0,P|460:276|404:52,1,300,2|8,0:0|0:0,0:0:0:0:
332,108,92068,2,0,L|180:108,1,150,2|2,0:0|0:0,0:0:0:0:
132,196,93068,1,2,0:0:0:0:
148,296,93468,2,0,P|256:352|364:300,1,250,2|4,0:0|0:0,0:0:0:0:
512,268,95068,2,0,L|512:104,1,150
424,68,96068,6,0,B|360:68|360:128,1,99.9999999999999,4|8,0:0|0:0,0:0:0:0:
256,116,96868,1,2,0:0:0:0:
152,128,97268,2,0,B|152:68|88:68,1,99.9999999999999,8|0,0:0|0:0,0:0:0:0:
208,288,98668,2,4,B|256:304|256:304|304:288,1,99.9999999999999
432,192,99668,5,8,0:0:0:0:
408,96,100068,1,0,0:0:0:0:
316,56,100468,1,8,0:0:0:0:
224,92,100868,2,0,P|148:76|108:80,1,99.9999999999999,2|8,0:0|0:0,0:0:0:0:
108,228,101868,6,4,B|124:196|156:184|196:196|196:196,1,99.9999999999999
308,292,102868,1,8,0:0:0:0:
408,308,103268,1,0,0:0:0:0:
456,220,103668,2,0,L|456:148,2,50,8|0|8,0:0|0:0|0:0,0:0:0:0:
256,192,105668,12,0,107268,0:0:0:0:
304,336,122068,5,8,0:0:0:0:
388,284,122468,2,0,B|432:120|256:52,1,300,0|8,0:0|0:0,0:0:0:0:
172,104,124068,1,2,0:0:0:0:
208,336,125268,5,8,0:0:0:0:
124,284,125668,2,0,B|80:120|256:52,1,300,0|8,0:0|0:0,0:0:0:0:
340,104,127268,1,2,0:0:0:0:
156,340,128468,6,8,L|356:340,1,200
420,264,129668,2,0,P|492:192|424:96,1,200,0|2,0:0|0:0,0:0:0:0:
208,56,131268,6,0,B|240:56|240:56|284:80|284:80|324:80,2,99.9999999999999,0|8|0,0:0|0:0|0:0,0:0:0:0:
256,192,132868,12,0,134468,0:0:0:0:
328,48,142468,6,0,B|384:68|440:88|440:192,1,200,4|0,0:0|0:0,0:0:0:0:
256,272,144068,1,2,0:0:0:0:
72,192,144868,2,0,B|72:88|128:68|184:48,1,200,0|4,0:0|0:0,0:0:0:0:
256,236,146468,2,0,L|256:352,2,99.9999999999999,0|8|2,0:0|0:0|0:0,0:0:0:0:
300,40,148068,2,0,B|256:64|256:64|212:40,1,99.9999999999999,2|2,0:0|0:0,0:0:0:0:
476,340,150068,5,2,0:0:0:0:
416,260,150468,2,0,B|344:192|344:192|344:92,1,200,4|0,0:0|0:0,0:0:0:0:
256,136,151668,1,8,0:0:0:0:
168,92,152068,2,0,B|168:192|168:192|96:260,1,200,4|0,0:0|0:0,0:0:0:0:
208,360,153468,2,0,B|264:360|264:360|296:336|296:336|352:336,1,150,0|8,0:0|0:0,0:0:0:0:
444,292,154468,2,0,L|444:352,2,50,0|8|8,0:0|0:0|0:0,0:0:0:0:
444,192,155268,6,0,B|444:160|444:160|436:132|436:132|436:92,1,99.9999999999999,4|8,0:0|0:0,0:0:0:0:
348,48,156068,2,0,B|288:32|256:56|224:80|152:52,1,200
60,92,157268,1,8,0:0:0:0:
72,192,157668,2,0,P|96:248|24:360,1,200,4|0,0:0|0:0,0:0:0:0:
212,272,159268,2,0,P|268:292|300:272,1,99.9999999999999,0|8,0:0|0:0,0:0:0:0:
400,320,160068,2,2,P|464:324|420:192,1,250
372,120,161468,2,0,L|308:52,1,50,0|4,0:0|0:0,0:0:0:0:
