osu file format v12

[General]
AudioFilename: Ellie Goulding - Burn.mp3
AudioLeadIn: 1500
PreviewTime: 111329
Countdown: 2
SampleSet: Soft
StackLeniency: 1
Mode: 0
LetterboxInBreaks: 1
EpilepsyWarning: 1
WidescreenStoryboard: 1

[Editor]
DistanceSpacing: 0.9
BeatDivisor: 2
GridSize: 4

[Metadata]
Title:Burn
TitleUnicode:Burn
Artist:Ellie Goulding
ArtistUnicode:Ellie Goulding
Creator:Ultimate
Version:Normal
Source:
Tags:Elly golding lights sb storyboard
BeatmapID:310366
BeatmapSetID:118166

[Difficulty]
HPDrainRate:3
CircleSize:3
OverallDifficulty:4
ApproachRate:5
SliderMultiplier:1.4
SliderTickRate:1

[Events]
//Background and Video events
0,0,"bg.jpg",0,0
//Break Periods
2,109805,111518
//Storyboard Layer 0 (Background)
//Storyboard Layer 1 (Fail)
//Storyboard Layer 2 (Pass)
//Storyboard Layer 3 (Foreground)
//Storyboard Sound Samples
//Background Colour Transformations
3,100,0,0,0

[TimingPoints]
985,344.827586206897,4,2,0,40,1,0
985,-166.666666666667,4,2,0,40,0,0
6502,-142.857142857143,4,2,0,40,0,0
12019,-142.857142857143,4,2,0,40,0,0
22709,-142.857142857143,4,2,0,50,0,0
34088,-142.857142857143,4,2,0,65,0,0
44950,-142.857142857143,4,2,0,80,0,0
50640,-142.857142857143,4,2,0,90,0,0
50812,-142.857142857143,4,2,0,80,0,0
53398,-142.857142857143,4,2,0,90,0,0
53571,-142.857142857143,4,2,0,80,0,0
55122,-142.857142857143,4,2,0,40,0,0
55295,-142.857142857143,4,2,0,50,0,0
55467,-142.857142857143,4,2,0,60,0,0
55640,-142.857142857143,4,2,0,70,0,0
55812,-142.857142857143,4,2,0,80,0,0
55985,-142.857142857143,4,2,0,90,0,0
56157,-142.857142857143,4,2,0,100,0,1
67191,-142.857142857143,4,2,0,90,0,0
111339,344.827586206897,4,2,0,40,1,0
112718,-142.857142857143,4,2,0,100,0,1
144787,-142.857142857143,4,2,0,80,0,0
145821,-142.857142857143,4,2,0,100,0,0

[Colours]
Combo1 : 253,83,53
Combo2 : 77,223,84
Combo3 : 48,151,235
Combo4 : 251,146,51

[HitObjects]
84,192,985,2,0,P|76:260|104:316,2,125.999996154785,2|2|2,0:0|0:0|0:0,0:0:0:0:
168,208,2364,2,0,L|304:200,2,125.999996154785,2|2|2,0:0|0:0|0:0,0:0:0:0:
200,128,3743,2,0,P|245:170|250:231,1,125.999996154785,2|2,0:0|0:0,0:0:0:0:
136,288,4778,1,2,0:0:0:0:
136,204,5122,2,0,P|100:152|112:84,2,125.999996154785,2|2|2,0:0|0:0|0:0,0:0:0:0:
212,248,6502,5,2,0:0:0:0:
332,196,7019,2,0,P|324:112|272:76,1,146.999995513916,2|2,0:0|0:0,0:0:0:0:
256,160,7881,1,2,0:0:0:0:
124,140,8398,2,0,P|100:216|140:272,1,146.999995513916,2|2,0:0|0:0,0:0:0:0:
184,200,9260,6,0,P|212:136|172:68,1,146.999995513916,2|2,0:0|0:0,0:0:0:0:
48,40,10295,1,2,0:0:0:0:
20,124,10640,2,0,P|12:188|56:264,1,146.999995513916,2|2,0:0|0:0,0:0:0:0:
204,280,11674,1,2,0:0:0:0:
204,280,12019,6,0,L|352:276,2,146.999995513916,4|0|0,1:0|0:0|0:0,0:0:0:0:
148,212,13398,2,0,P|132:164|156:112,1,97.9999970092774,2|0,0:0|0:0,0:0:0:0:
236,140,14088,1,2,0:0:0:0:
324,160,14433,2,0,P|396:152|432:44,2,195.999994018555,0|0|0,0:0|0:0|0:0,0:0:0:0:
348,76,16157,2,0,B|304:52|304:52|244:52,1,97.9999970092774
236,140,16847,2,0,L|236:248,1,97.9999970092774,2|2,0:0|0:0,0:0:0:0:
172,300,17536,6,0,P|108:328|20:252,1,195.999994018555,4|0,1:0|0:0,0:0:0:0:
108,240,18571,2,0,L|128:128,1,97.9999970092774,0|2,0:0|0:0,0:0:0:0:
88,64,19260,1,0,0:0:0:0:
168,24,19605,1,2,0:0:0:0:
204,104,19950,2,0,P|276:128|340:80,1,146.999995513916,0|0,0:0|0:0,0:0:0:0:
264,48,20812,6,0,L|272:148,1,97.9999970092774,0|2,0:0|0:0,0:0:0:0:
336,204,21502,2,0,B|332:256|332:256|288:304,1,97.9999970092774,0|2,0:0|0:0,0:0:0:0:
210,289,22191,2,0,B|180:256|180:256|176:204,1,97.9999970092774,0|2,0:0|0:0,0:0:0:0:
124,136,22881,6,0,B|165:106|212:120|236:143|236:143|316:120,1,195.999994018555,4|0,1:0|0:0,0:0:0:0:
436,84,24088,1,0,0:0:0:0:
436,84,24433,2,0,P|470:132|445:221,2,146.999995513916,2|0|2,0:0|0:0|0:0,0:0:0:0:
388,156,25812,2,0,P|368:232|408:288,2,146.999995513916,2|0|2,0:0|0:0|0:0,0:0:0:0:
348,80,27191,2,0,L|196:116,2,146.999995513916,2|0|2,0:0|0:0|0:0,0:0:0:0:
432,56,28571,1,4,1:0:0:0:
384,332,30122,6,0,P|423:275|404:192,2,146.999995513916,0|2|0,0:0|0:0|0:0,0:0:0:0:
256,292,31674,1,2,0:0:0:0:
256,204,32019,1,2,0:0:0:0:
160,116,32536,2,0,P|120:172|140:256,2,146.999995513916,0|2|0,0:0|0:0|0:0,0:0:0:0:
292,96,34088,6,0,B|380:84|380:84|424:44,2,146.999995513916,0|0|0,1:0|0:0|0:0,0:0:0:0:
228,36,35467,2,0,P|212:130|256:176,1,146.999995513916,0|0,1:0|0:0,0:0:0:0:
368,208,36502,1,0,0:0:0:0:
456,204,36847,2,0,B|468:256|440:292|440:292|380:320,2,146.999995513916,0|0|0,1:0|0:0|0:0,0:0:0:0:
404,132,38226,2,0,P|356:96|296:24,1,146.999995513916,0|0,1:0|0:0,0:0:0:0:
104,128,39605,6,0,L|92:276,2,146.999995513916,0|0|0,1:0|0:0|0:0,0:0:0:0:
56,56,40985,2,0,P|141:50|183:95,1,146.999995513916,0|0,1:0|0:0,0:0:0:0:
200,220,42019,1,0,0:0:0:0:
200,220,42364,2,0,P|255:264|328:248,2,146.999995513916,0|0|0,1:0|0:0|0:0,0:0:0:0:
276,180,43743,2,0,B|300:92|300:92|344:52,1,146.999995513916,0|0,1:0|0:0,0:0:0:0:
200,220,45122,6,0,B|144:220|144:220|96:240|96:240|52:256|20:236|8:216,2,195.999994018555,0|0|0,1:0|0:0|1:0,0:0:0:0:
292,124,47019,2,0,P|216:68|140:108,1,146.999995513916,0|0,1:0|0:0,0:0:0:0:
212,152,47881,2,0,P|308:208|368:160,2,195.999994018555,0|0|0,1:0|0:0|1:0,0:0:0:0:
292,124,49605,1,0,0:0:0:0:
368,80,49950,2,0,P|428:104|448:148,1,97.9999970092774,0|0,1:0|1:0,0:0:0:0:
388,196,50639,6,0,L|380:356,1,146.999995513916,4|0,1:0|1:0,0:0:0:0:
276,260,51674,2,0,L|284:100,1,146.999995513916,0|0,1:0|0:0,0:0:0:0:
168,44,52709,1,0,1:0:0:0:
100,100,53053,1,0,1:0:0:0:
132,180,53398,2,0,P|116:240|136:332,2,146.999995513916,4|0|0,1:0|1:0|1:0,0:0:0:0:
300,236,55122,2,0,L|400:272,2,97.9999970092774,0|0|0,1:0|1:0|1:0,0:0:0:0:
272,152,56157,5,4,1:0:0:0:
312,24,56674,1,0,1:0:0:0:
436,68,57191,1,0,1:0:0:0:
400,196,57709,1,0,1:0:0:0:
400,196,58226,2,0,L|400:316,1,97.9999970092774,0|0,1:0|0:0,0:0:0:0:
320,248,58916,6,0,P|304:192|364:108,1,146.999995513916,4|0,1:0|1:0,0:0:0:0:
476,144,59950,2,0,P|492:200|432:284,1,146.999995513916,0|0,1:0|1:0,0:0:0:0:
320,252,60985,2,0,L|208:236,1,97.9999970092774,0|0,1:0|0:0,0:0:0:0:
144,280,61674,5,4,1:0:0:0:
68,172,62191,2,0,P|48:100|84:24,2,146.999995513916,0|0|0,1:0|1:0|1:0,0:0:0:0:
200,196,63743,2,0,L|312:208,1,97.9999970092774,0|0,1:0|0:0,0:0:0:0:
372,256,64433,1,4,1:0:0:0:
468,164,64950,2,0,P|484:104|436:16,1,146.999995513916,0|0,1:0|1:0,0:0:0:0:
316,44,65985,2,0,P|300:104|348:192,1,146.999995513916,0|0,1:0|0:0,0:0:0:0:
392,104,66847,1,0,0:0:0:0:
320,44,67191,6,0,L|160:56,1,146.999995513916,4|2,0:1|0:0,0:0:0:0:
88,156,68226,1,2,0:0:0:0:
88,156,68571,2,0,P|76:228|108:316,1,146.999995513916,2|2,0:0|0:0,0:0:0:0:
224,260,69605,2,0,L|344:272,1,97.9999970092774,0|2,0:0|0:0,0:0:0:0:
428,188,70467,2,0,B|436:124|436:124|440:68|400:40,2,146.999995513916,2|2|0,0:0|0:0|0:0,0:0:0:0:
352,112,72019,2,0,L|200:104,1,146.999995513916,2|2,0:0|0:0,0:0:0:0:
132,264,73226,6,0,L|284:272,1,146.999995513916,2|2,0:0|0:0,0:0:0:0:
188,184,74088,2,0,B|97:179|97:179|68:176|48:152,2,146.999995513916,2|2|2,0:0|0:0|0:0,0:0:0:0:
272,164,75467,2,0,P|284:116|284:64,1,97.9999970092774,4|2,0:1|0:0,0:0:0:0:
364,40,76157,1,0,0:0:0:0:
428,100,76502,1,2,0:0:0:0:
380,176,76847,1,0,0:0:0:0:
380,176,77191,2,0,P|384:264|344:312,1,146.999995513916,2|0,0:0|0:0,0:0:0:0:
264,292,78053,6,0,L|96:300,1,146.999995513916,4|2,0:1|0:0,0:0:0:0:
44,248,78916,1,0,0:0:0:0:
92,172,79260,2,0,P|72:128|96:32,2,146.999995513916,2|0|2,0:0|0:0|0:0,0:0:0:0:
180,164,80640,2,0,L|280:152,1,97.9999970092774,2|0,0:0|0:0,0:0:0:0:
364,140,81329,6,0,P|384:184|360:280,1,146.999995513916,2|0,0:0|0:0,0:0:0:0:
276,276,82191,1,2,0:0:0:0:
276,140,82709,2,0,P|308:72|376:56,1,146.999995513916,2|0,0:0|0:0,0:0:0:0:
440,108,83571,6,0,B|440:208|440:208|408:248,1,146.999995513916,4|2,0:1|0:0,0:0:0:0:
332,208,84433,1,0,0:0:0:0:
200,232,84950,2,0,P|192:308|232:368,2,146.999995513916,4|2|0,0:1|0:0|0:0,0:0:0:0:
256,164,86329,6,0,P|284:92|244:20,1,146.999995513916,4|2,0:1|0:0,0:0:0:0:
196,96,87191,1,0,0:0:0:0:
116,128,87536,2,0,B|88:144|76:176|76:176|64:264,1,146.999995513916,4|2,0:1|0:0,0:0:0:0:
104,336,88398,2,0,B|132:320|144:288|144:288|156:200,1,146.999995513916,4|2,0:1|0:0,0:0:0:0:
236,172,89260,6,0,P|324:172|384:120,1,146.999995513916,0|0,1:0|1:0,0:0:0:0:
248,88,90295,1,0,0:0:0:0:
248,88,90640,2,0,P|160:88|100:140,2,146.999995513916,0|0|0,1:0|1:0|0:0,0:0:0:0:
232,176,92019,2,0,B|216:272|216:272|244:328,1,146.999995513916,0|0,1:0|1:0,0:0:0:0:
344,240,93053,1,0,0:0:0:0:
344,240,93398,2,0,B|360:144|360:144|332:88,1,146.999995513916,0|0,1:0|1:0,0:0:0:0:
212,64,94433,1,2,0:3:0:0:
132,104,94778,6,0,P|88:164|112:248,2,146.999995513916,0|0|0,1:0|1:0|0:0,0:0:0:0:
216,128,96157,2,0,P|226:198|183:255,1,146.999995513916,0|0,1:0|1:0,0:0:0:0:
296,324,97191,1,0,0:0:0:0:
296,324,97536,2,0,L|472:320,2,146.999995513916,0|0|0,1:0|1:0|0:0,0:0:0:0:
244,252,98916,2,0,P|224:184|280:88,1,146.999995513916,0|0,1:0|1:0,0:0:0:0:
324,224,99950,1,2,0:3:0:0:
244,256,100295,6,0,B|184:280|184:280|136:300|80:260,1,146.999995513916,0|0,1:0|1:0,0:0:0:0:
120,144,101329,1,2,0:3:0:0:
204,120,101674,2,0,P|284:116|352:160,1,146.999995513916,0|0,1:0|1:0,0:0:0:0:
220,204,102709,1,2,0:3:0:0:
136,228,103053,2,0,P|60:204|36:140,2,146.999995513916,0|0|2,1:0|1:0|0:3,0:0:0:0:
224,208,104433,2,0,L|360:220,1,97.9999970092774,0|2,1:0|0:3,0:0:0:0:
384,156,105122,1,2,1:3:0:0:
308,112,105467,1,2,1:3:0:0:
228,76,105812,6,0,P|156:52|88:92,1,146.999995513916,4|0,1:0|1:0,0:0:0:0:
100,212,106847,2,0,P|172:236|240:196,2,146.999995513916,0|0|2,1:0|1:0|1:3,0:0:0:0:
164,144,108226,1,2,1:3:0:0:
228,80,108571,2,0,L|400:88,2,146.999995513916,4|0|0,1:0|1:0|1:0,0:0:0:0:
240,152,112718,5,4,1:0:0:0:
200,24,113235,1,0,1:0:0:0:
76,68,113752,1,0,1:0:0:0:
112,196,114270,1,0,1:0:0:0:
112,196,114787,2,0,L|112:316,1,97.9999970092774,0|0,1:0|0:0,0:0:0:0:
192,248,115477,6,0,P|208:192|148:108,1,146.999995513916,4|0,1:0|1:0,0:0:0:0:
36,144,116511,2,0,P|20:200|80:284,1,146.999995513916,0|0,1:0|1:0,0:0:0:0:
192,252,117546,2,0,L|304:236,1,97.9999970092774,0|0,1:0|0:0,0:0:0:0:
368,280,118235,5,4,1:0:0:0:
444,172,118752,2,0,P|464:100|428:24,2,146.999995513916,0|0|0,1:0|1:0|1:0,0:0:0:0:
312,196,120304,2,0,L|200:208,1,97.9999970092774,0|0,1:0|0:0,0:0:0:0:
140,256,120994,1,4,1:0:0:0:
44,164,121511,2,0,P|28:104|76:16,1,146.999995513916,0|0,1:0|1:0,0:0:0:0:
196,44,122546,2,0,P|212:104|164:192,1,146.999995513916,0|0,1:0|1:0,0:0:0:0:
120,104,123408,1,0,1:0:0:0:
192,44,123752,6,0,L|352:56,1,146.999995513916,4|0,1:0|1:0,0:0:0:0:
424,156,124787,1,0,1:0:0:0:
424,156,125132,2,0,P|436:228|404:316,1,146.999995513916,0|0,1:0|1:0,0:0:0:0:
288,260,126166,2,0,L|168:272,1,97.9999970092774,0|0,1:0|1:0,0:0:0:0:
84,188,127028,2,0,B|76:124|76:124|72:68|112:40,1,146.999995513916,0|0,1:0|1:0,0:0:0:0:
164,112,127890,2,0,B|228:120|228:120|284:124|312:84,1,146.999995513916,0|0,1:0|1:0,0:0:0:0:
380,228,128925,1,0,1:0:0:0:
380,228,129270,6,0,P|424:168|400:84,2,146.999995513916,4|0|0,1:0|1:0|1:0,0:0:0:0:
304,276,130649,2,0,P|294:206|337:149,1,146.999995513916,0|0,1:0|1:0,0:0:0:0:
224,80,131683,1,0,1:0:0:0:
224,80,132028,2,0,L|48:84,2,146.999995513916,0|0|0,1:0|1:0|1:0,0:0:0:0:
276,152,133408,2,0,P|296:220|240:316,1,146.999995513916,0|0,1:0|1:0,0:0:0:0:
196,180,134442,1,0,1:0:0:0:
276,148,134787,6,0,B|336:124|336:124|384:104|440:144,1,146.999995513916,4|0,1:0|1:0,0:0:0:0:
400,260,135821,1,0,1:0:0:0:
316,284,136166,2,0,P|236:288|168:244,1,146.999995513916,0|0,1:0|1:0,0:0:0:0:
300,200,137201,1,0,1:0:0:0:
384,176,137545,2,0,P|460:200|484:264,2,146.999995513916,0|0|0,1:0|1:0|1:0,0:0:0:0:
296,196,138925,2,0,L|160:184,1,97.9999970092774,0|0,1:0|0:0,0:0:0:0:
136,248,139614,1,0,1:0:0:0:
212,292,139959,1,0,1:0:0:0:
292,328,140304,6,0,P|364:352|432:312,1,146.999995513916,4|0,1:0|1:0,0:0:0:0:
420,192,141339,2,0,P|348:168|280:208,2,146.999995513916,0|0|0,1:0|1:0|1:0,0:0:0:0:
356,260,142718,1,0,1:0:0:0:
292,324,143063,2,0,L|120:316,2,146.999995513916,4|0|0,1:0|1:0|1:0,0:0:0:0:
324,152,144787,6,0,P|340:104|308:32,2,97.9999970092774,0|0|0,1:0|1:0|1:0,0:0:0:0:
256,100,145821,1,4,0:0:0:0:
