osu file format v12

[General]
AudioFilename: Ellie Goulding - Burn.mp3
AudioLeadIn: 1500
PreviewTime: 111329
Countdown: 2
SampleSet: Soft
StackLeniency: 1
Mode: 0
LetterboxInBreaks: 1
EpilepsyWarning: 1
WidescreenStoryboard: 1

[Editor]
DistanceSpacing: 1.2
BeatDivisor: 4
GridSize: 4

[Metadata]
Title:Burn
TitleUnicode:Burn
Artist:Ellie Goulding
ArtistUnicode:Ellie Goulding
Creator:Ultimate
Version:Insane
Source:
Tags:Elly golding lights sb storyboard
BeatmapID:309626
BeatmapSetID:118166

[Difficulty]
HPDrainRate:6
CircleSize:4
OverallDifficulty:8
ApproachRate:8
SliderMultiplier:2
SliderTickRate:1

[Events]
//Background and Video events
0,0,"bg.jpg",0,0
//Break Periods
2,109805,110933
//Storyboard Layer 0 (Background)
//Storyboard Layer 1 (Fail)
//Storyboard Layer 2 (Pass)
//Storyboard Layer 3 (Foreground)
//Storyboard Sound Samples
//Background Colour Transformations
3,100,0,0,0

[TimingPoints]
985,344.827586206897,4,2,0,40,1,0
985,-166.666666666667,4,2,0,40,0,0
6502,-142.857142857143,4,2,0,40,0,0
12019,-142.857142857143,4,2,0,40,0,0
22709,-142.857142857143,4,2,0,50,0,0
34088,-142.857142857143,4,2,0,65,0,0
44950,-125,4,2,0,80,0,0
50640,-125,4,2,0,90,0,0
50812,-125,4,2,0,80,0,0
53398,-125,4,2,0,90,0,0
53571,-125,4,2,0,80,0,0
55122,-125,4,2,0,40,0,0
55295,-125,4,2,0,50,0,0
55467,-125,4,2,0,60,0,0
55640,-125,4,2,0,70,0,0
55812,-125,4,2,0,80,0,0
55985,-125,4,2,0,90,0,0
56157,-111.111111111111,4,2,0,100,0,1
67191,-125,4,2,0,90,0,0
111339,344.827586206897,4,2,0,40,1,0
111683,-111.111111111111,4,2,0,40,0,0
111856,-111.111111111111,4,2,0,50,0,0
112028,-111.111111111111,4,2,0,60,0,0
112201,-111.111111111111,4,2,0,70,0,0
112373,-111.111111111111,4,2,0,80,0,0
112545,-111.111111111111,4,2,0,90,0,0
112718,-111.111111111111,4,2,0,100,0,1
144787,-111.111111111111,4,2,0,80,0,0
145821,-111.111111111111,4,2,0,100,0,0

[Colours]
Combo1 : 253,83,53
Combo2 : 77,223,84
Combo3 : 48,151,235
Combo4 : 251,146,51

[HitObjects]
72,84,985,2,0,P|56:144|84:192,1,119.999996337891,2|0,0:0|0:0,0:0:0:0:
176,176,1502,1,2,0:0:0:0:
176,176,2019,2,0,L|192:252,1,59.9999981689454,2|0,0:0|0:0,0:0:0:0:
212,324,2364,2,0,P|256:344|332:324,1,119.999996337891,2|0,0:0|0:0,0:0:0:0:
320,196,2881,2,0,L|352:76,1,119.999996337891,2|0,0:0|0:0,0:0:0:0:
396,216,3398,2,0,L|416:288,1,59.9999981689454,2|0,0:0|0:0,0:0:0:0:
256,240,3743,6,0,P|196:240|152:204,1,119.999996337891,2|0,0:0|0:0,0:0:0:0:
216,32,4260,2,0,B|220:104|220:104|196:148,1,119.999996337891,2|0,0:0|0:0,0:0:0:0:
120,136,4778,2,0,P|68:132|44:132,1,59.9999981689454,2|0,0:0|0:0,0:0:0:0:
180,224,5122,2,0,P|168:292|168:348,1,119.999996337891,2|0,0:0|0:0,0:0:0:0:
344,344,5640,2,0,P|343:284|332:226,1,119.999996337891,2|0,0:0|0:0,0:0:0:0:
316,148,6157,1,2,0:0:0:0:
380,100,6329,1,0,0:0:0:0:
308,72,6502,6,0,B|260:72|260:72|212:48|160:76,1,139.999995727539,2|0,0:0|0:0,0:0:0:0:
124,200,7019,2,0,B|172:200|172:200|220:224|272:196,1,139.999995727539,2|0,0:0|0:0,0:0:0:0:
216,136,7536,1,2,0:0:0:0:
216,136,7709,1,0,0:0:0:0:
272,280,7881,2,0,P|352:304|400:268,1,139.999995727539,2|0,0:0|0:0,0:0:0:0:
408,168,8398,2,0,P|412:92|412:24,1,139.999995727539,2|0,0:0|0:0,0:0:0:0:
332,152,8916,2,0,P|327:181|332:228,1,69.9999978637696,2|0,0:0|0:0,0:0:0:0:
464,344,9260,6,0,P|492:276|452:208,1,139.999995727539,2|0,0:0|0:0,0:0:0:0:
288,212,9778,2,0,L|144:208,1,139.999995727539,2|0,0:0|0:0,0:0:0:0:
336,272,10295,1,2,0:0:0:0:
336,272,10640,2,0,P|364:204|334:150,1,139.999995727539,2|0,0:0|0:0,0:0:0:0:
260,284,11157,1,2,0:0:0:0:
108,44,11674,2,0,L|104:128,1,69.9999978637696,2|0,0:0|0:0,0:0:0:0:
156,168,12019,6,0,P|136:284|212:348,2,209.999993591309,4|0|2,1:0|0:0|0:0,0:0:0:0:
336,104,13398,2,0,L|428:96,1,69.9999978637696,2|0,0:0|0:0,0:0:0:0:
436,192,13743,1,2,0:0:0:0:
436,192,13916,2,0,L|340:200,1,69.9999978637696,0|2,0:0|0:0,0:0:0:0:
184,212,14433,1,2,0:0:0:0:
184,212,14605,6,0,P|180:292|208:348,2,139.999995727539,2|0|0,0:0|0:0|0:0,0:0:0:0:
64,52,15640,2,0,L|76:136,1,69.9999978637696,0|2,0:0|0:0,0:0:0:0:
148,140,15985,2,0,P|228:144|288:112,2,139.999995727539,2|0|0,0:0|0:0|0:0,0:0:0:0:
104,204,16847,1,2,0:0:0:0:
136,272,17019,2,0,P|136:312|132:352,1,69.9999978637696,0|2,0:0|0:0,0:0:0:0:
212,268,17364,6,0,P|212:208|224:120,1,139.999995727539,4|0,1:0|0:0,0:0:0:0:
376,208,18053,2,0,P|376:268|364:356,1,139.999995727539,2|0,0:0|0:0,0:0:0:0:
300,176,18571,2,0,P|320:144|368:124,1,69.9999978637696,2|0,0:0|0:0,0:0:0:0:
452,240,18916,2,0,P|432:272|380:292,1,69.9999978637696,2|0,0:0|0:0,0:0:0:0:
296,180,19260,1,2,0:0:0:0:
216,176,19433,1,0,0:0:0:0:
228,96,19605,2,0,P|232:56|232:12,2,69.9999978637696,2|0|0,0:0|0:0|0:0,0:0:0:0:
156,128,20122,6,0,P|76:148|24:96,1,139.999995727539,2|0,0:0|0:0,0:0:0:0:
100,72,20640,1,0,0:0:0:0:
100,72,20812,2,0,L|80:216,1,139.999995727539,2|0,0:0|0:0,0:0:0:0:
140,272,21329,2,0,L|212:260,1,69.9999978637696,2|0,0:0|0:0,0:0:0:0:
296,240,21674,2,0,P|288:157|336:104,1,139.999995727539,2|0,0:0|0:0,0:0:0:0:
468,144,22191,2,0,P|475:226|428:280,1,139.999995727539,2|0,0:0|0:0,0:0:0:0:
360,316,22709,1,0,0:0:0:0:
360,316,22881,6,0,B|324:332|324:332|284:308|228:296,1,139.999995727539,4|0,1:0|0:0,0:0:0:0:
152,248,23398,1,0,0:0:0:0:
152,248,23571,2,0,P|136:188|180:116,1,139.999995727539,2|0,0:0|0:0,0:0:0:0:
240,200,24088,2,0,P|256:240|244:292,1,69.9999978637696,2|0,0:0|0:0,0:0:0:0:
156,252,24433,2,0,L|16:256,1,139.999995727539,2|0,0:0|0:0,0:0:0:0:
176,152,24950,2,0,P|232:120|304:156,1,139.999995727539,2|0,0:0|0:0,0:0:0:0:
372,236,25467,2,0,L|424:292,2,69.9999978637696,2|0|2,0:0|0:0|0:0,0:0:0:0:
364,128,25985,6,0,L|360:52,1,69.9999978637696
256,100,26329,1,2,0:0:0:0:
148,128,26502,2,0,L|152:52,2,69.9999978637696,0|0|2,0:0|0:0|0:0,0:0:0:0:
96,192,27019,2,0,P|72:272|96:328,1,139.999995727539,2|0,0:0|0:0,0:0:0:0:
184,328,27536,2,0,P|208:248|184:192,1,139.999995727539,2|0,0:0|0:0,0:0:0:0:
228,128,28053,1,2,0:0:0:0:
300,136,28226,1,0,0:0:0:0:
372,144,28398,6,0,P|424:108|436:32,2,139.999995727539,4|0|0,1:0|0:0|0:0,0:0:0:0:
360,328,29433,1,0,0:0:0:0:
360,328,29605,2,0,L|280:336,1,69.9999978637696,2|0,0:0|0:0,0:0:0:0:
232,288,29950,2,0,P|216:220|244:140,1,139.999995727539,2|0,0:0|0:0,0:0:0:0:
308,260,30467,2,0,P|304:328|244:368,1,139.999995727539,2|0,0:0|0:0,0:0:0:0:
152,352,30985,2,0,L|76:340,1,69.9999978637696,2|0,0:0|0:0,0:0:0:0:
60,228,31329,6,0,P|76:144|120:116,1,139.999995727539,2|0,0:0|0:0,0:0:0:0:
136,196,31847,2,0,P|132:268|80:308,1,139.999995727539,2|0,0:0|0:0,0:0:0:0:
172,128,32364,2,0,L|248:132,1,69.9999978637696,2|0,0:0|0:0,0:0:0:0:
348,148,32709,2,0,P|380:96|356:24,1,139.999995727539,2|0,0:0|0:0,0:0:0:0:
300,80,33226,2,0,P|264:140|288:204,1,139.999995727539,2|2,0:0|0:0,0:0:0:0:
285,201,33743,1,2,0:0:0:0:
260,272,33916,1,0,0:0:0:0:
260,272,34088,6,0,P|192:332|88:280,2,209.999993591309,0|0|2,1:0|0:0|0:0,0:0:0:0:
336,284,35295,1,2,0:0:0:0:
412,296,35467,2,0,B|428:200|428:200|436:148|408:112|360:108,2,209.999993591309,0|0|2,1:0|0:0|0:0,0:0:0:0:
352,184,36674,1,2,0:0:0:0:
352,184,36847,6,0,P|299:104|386:34,1,209.999993591309,0|0,1:0|0:0,0:0:0:0:
160,64,37709,2,0,L|168:136,1,69.9999978637696,0|2,0:0|0:0,0:0:0:0:
224,188,38053,1,2,0:0:0:0:
224,188,38226,2,0,P|204:272|80:296,1,209.999993591309,0|0,1:0|0:0,0:0:0:0:
304,328,39088,2,0,L|392:348,1,69.9999978637696,0|2,0:0|0:0,0:0:0:0:
432,296,39433,1,2,0:0:0:0:
432,296,39605,6,0,P|448:232|440:152,1,139.999995727539,0|0,1:0|0:0,0:0:0:0:
272,92,40122,2,0,P|256:156|264:236,1,139.999995727539,0|0,0:0|0:0,0:0:0:0:
144,300,40640,2,0,L|220:280,1,69.9999978637696,2|2,0:0|0:0,0:0:0:0:
84,240,40985,2,0,P|68:188|92:96,1,139.999995727539,0|0,1:0|0:0,0:0:0:0:
156,216,41502,2,0,P|144:288|80:316,1,139.999995727539
152,140,42019,1,2,0:0:0:0:
228,160,42191,1,2,0:0:0:0:
228,160,42364,6,0,B|304:144|304:144|344:88,1,139.999995727539,0|0,1:0|0:0,0:0:0:0:
472,132,42881,2,0,B|396:148|396:148|356:204,1,139.999995727539
376,276,43398,1,2,0:0:0:0:
376,276,43571,1,2,0:0:0:0:
376,276,43743,2,0,P|296:348|156:248,1,279.999991455078,0|0,1:0|0:0,0:0:0:0:
220,224,44605,2,0,L|224:128,1,69.9999978637696,0|2,0:0|0:0,0:0:0:0:
288,120,44950,1,2,0:0:0:0:
288,120,45122,6,0,P|324:192|288:272,1,160,0|0,1:0|0:0,0:0:0:0:
212,224,45640,2,0,L|52:236,1,160,0|0,1:0|0:0,0:0:0:0:
16,132,46157,2,0,L|104:124,1,80,2|2,0:0|0:0,0:0:0:0:
140,188,46502,2,0,P|144:268|216:308,1,160,0|0,1:0|0:0,0:0:0:0:
284,256,47019,2,0,P|280:176|214:139,1,160,0|0,1:0|0:0,0:0:0:0:
140,192,47536,2,0,L|88:256,1,80,2|2,0:0|0:0,0:0:0:0:
208,284,47881,6,0,P|288:336|360:232,2,240,0|0|2,1:0|1:0|0:0,0:0:0:0:
220,208,49088,1,2,0:0:0:0:
228,132,49260,2,0,P|188:88|68:172,1,240,0|0,1:0|1:0,0:0:0:0:
128,216,49950,2,0,L|112:308,1,80,0|2,1:0|0:3,0:0:0:0:
248,344,50295,2,0,L|264:264,1,80,0|2,1:0|0:3,0:0:0:0:
328,228,50640,6,0,B|356:152|356:152|324:80,1,160,4|0,1:0|0:0,0:0:0:0:
188,80,51157,2,0,B|156:152|156:152|184:228,1,160,0|0,1:0|0:0,0:0:0:0:
336,308,51674,2,0,P|392:276|396:184,1,160,0|0,1:0|0:0,0:0:0:0:
113,187,52191,2,0,P|112:264|176:308,1,160,0|0,1:0|0:0,0:0:0:0:
256,296,52709,1,0,1:0:0:0:
256,220,52881,2,0,L|256:124,2,80,2|0|2,0:3|1:0|0:3,0:0:0:0:
332,240,53398,6,0,P|400:244|456:176,1,160,4|0,1:0|0:0,0:0:0:0:
392,56,53916,2,0,P|324:52|268:120,1,160,0|0,1:0|0:0,0:0:0:0:
360,148,54433,1,4,1:0:0:0:
88,300,55122,6,0,P|80:248|80:208,1,80,0|2,1:0|1:3,0:0:0:0:
212,112,55467,2,0,P|220:164|220:204,1,80,0|2,1:0|1:3,0:0:0:0:
284,288,55812,1,0,1:0:0:0:
284,288,55985,1,2,1:3:0:0:
356,196,56157,6,0,L|362:114|368:8,1,179.999994506836,4|0,1:0|0:3,0:0:0:0:
284,152,56674,2,0,P|284:240|372:276,1,179.999994506836,0|0,1:0|0:3,0:0:0:0:
428,240,57191,2,0,P|428:152|352:112,1,179.999994506836,0|0,1:0|0:3,0:0:0:0:
244,84,57709,2,0,P|140:60|68:36,1,179.999994506836,0|2,1:0|1:3,0:0:0:0:
164,148,58226,2,0,P|176:196|180:248,1,89.9999972534181,0|2,1:0|0:3,0:0:0:0:
112,332,58571,1,8,1:2:0:0:
56,228,58743,1,8,0:2:0:0:
184,240,58916,6,0,P|248:264|360:248,1,179.999994506836,4|0,1:0|0:3,0:0:0:0:
289,184,59433,2,0,P|280:304|323:336,1,179.999994506836,0|0,1:0|0:3,0:0:0:0:
368,184,59950,2,0,P|372:132|372:68,2,89.9999972534181,0|0|0,1:0|0:0|0:3,0:0:0:0:
448,276,60467,1,0,1:0:0:0:
324,320,60640,2,0,P|276:324|228:316,1,89.9999972534181,0|2,0:0|0:3,0:0:0:0:
204,168,60985,2,0,P|252:164|300:172,2,89.9999972534181,0|2|8,1:0|0:3|1:2,0:0:0:0:
108,228,61502,1,8,0:2:0:0:
108,228,61674,6,0,B|64:200|64:148|64:148|88:64,1,179.999994506836,4|0,1:0|0:3,0:0:0:0:
256,108,62191,2,0,P|280:184|208:248,1,179.999994506836,0|0,1:0|0:3,0:0:0:0:
204,168,62709,2,0,B|292:200|292:200|332:216|384:192,1,179.999994506836,0|0,1:0|0:3,0:0:0:0:
412,92,63226,2,0,B|428:44|428:44|468:16,2,89.9999972534181,0|0|2,0:0|1:0|0:3,0:0:0:0:
448,212,63743,1,0,1:0:0:0:
364,312,63916,1,2,0:3:0:0:
248,260,64088,2,0,P|184:260|144:264,1,89.9999972534181,8|8,1:2|1:2,0:0:0:0:
260,336,64433,6,0,P|324:276|260:184,1,179.999994506836,4|0,1:0|0:3,0:0:0:0:
176,160,64950,2,0,B|84:132|84:132|60:92|88:36,1,179.999994506836,0|0,1:0|0:3,0:0:0:0:
244,120,65467,2,0,P|248:192|155:235,2,179.999994506836,0|0|0,1:0|1:0|1:0,0:0:0:0:
356,60,66329,2,0,P|416:40|448:32,2,89.9999972534181,2|0|2,0:3|1:0|0:3,0:0:0:0:
364,188,66847,1,8,1:2:0:0:
364,188,67019,1,8,1:2:0:0:
376,312,67191,6,0,P|308:344|212:336,1,160,4|0,1:2|0:0,0:0:0:0:
212,260,67709,2,0,L|192:80,1,160,0|0,1:0|0:0,0:0:0:0:
124,60,68226,2,0,P|88:76|32:84,1,80,0|0,1:0|0:0,0:0:0:0:
48,83,68571,1,0,1:0:0:0:
272,208,68916,2,0,P|284:144|284:108,2,80,0|0|0,0:0|1:0|0:0,0:0:0:0:
208,256,69433,1,0,0:0:0:0:
136,224,69605,1,0,1:0:0:0:
136,224,69778,6,0,P|68:252|80:340,1,160,0|0,1:0|0:0,0:0:0:0:
376,224,70467,2,0,P|444:252|432:340,1,160,0|0,1:0|0:0,0:0:0:0:
442,328,70985,1,0,1:0:0:0:
442,328,71157,1,0,1:0:0:0:
256,188,71502,2,0,B|272:136|272:136|244:80|244:80|256:16,1,160,0|0,0:0|1:0,0:0:0:0:
336,184,72019,2,0,L|308:276,1,80,0|0,1:0|0:0,0:0:0:0:
312,260,72364,1,0,1:0:0:0:
236,292,72536,6,0,P|108:268|88:232,1,160,0|0,1:0|0:0,0:0:0:0:
112,172,73053,1,0,0:0:0:0:
132,92,73226,2,0,P|260:116|280:152,1,160,0|0,1:0|0:0,0:0:0:0:
212,188,73743,2,0,L|216:292,1,80,0|0,1:0|0:0,0:0:0:0:
215,267,74088,1,0,1:0:0:0:
316,284,74260,2,0,L|312:204,1,80,0|0,0:0|1:0,0:0:0:0:
360,140,74605,1,0,0:0:0:0:
332,64,74778,2,0,B|356:32|356:32|400:16,2,80,0|0|0,1:0|0:0|1:0,0:0:0:0:
256,92,75295,1,0,0:0:0:0:
256,92,75467,2,0,P|188:100|160:100,1,80,4|0,1:0|0:0,0:0:0:0:
112,52,75812,5,0,1:0:0:0:
140,176,75985,2,0,P|136:236|120:284,2,80,0|0|0,1:0|0:0|1:0,0:0:0:0:
64,148,76502,1,0,1:0:0:0:
144,180,76674,2,0,L|236:184,1,80,0|0,0:0|1:0,0:0:0:0:
284,236,77019,1,0,1:0:0:0:
284,236,77191,1,0,1:0:0:0:
344,184,77364,2,0,P|360:96|320:24,2,160,0|0|4,1:0|1:0|1:0,0:0:0:0:
136,164,78398,5,0,1:0:0:0:
136,164,78571,2,0,P|132:124|148:72,1,80,0|0,0:0|1:0,0:0:0:0:
184,228,78916,2,0,P|192:280|104:348,1,160,0|0,0:0|1:0,0:0:0:0:
116,268,79433,6,0,P|208:304|252:272,1,160,4|0,1:0|1:0,0:0:0:0:
324,244,79950,2,0,L|416:248,1,80,0|0,0:0|1:0,0:0:0:0:
448,180,80295,2,0,P|464:96|420:32,1,160,0|0,0:0|1:0,0:0:0:0:
426,36,80812,5,4,1:0:0:0:
204,100,81157,2,0,B|172:72|172:72|160:12,2,80,0|0|0,1:0|0:0|1:0,0:0:0:0:
236,172,81674,2,0,P|240:284|240:336,1,160,0|0,0:0|1:0,0:0:0:0:
164,196,82191,6,0,P|172:128|260:100,1,160,4|0,1:0|1:0,0:0:0:0:
328,120,82709,2,0,B|376:116|376:116|424:88,1,80,0|0,0:0|1:0,0:0:0:0:
324,196,83053,2,0,L|320:292,1,80
320,275,83398,1,0,1:0:0:0:
260,332,83571,6,0,P|172:328|124:272,1,160,4|0,1:0|0:0,0:0:0:0:
172,212,84088,2,0,P|168:92|164:44,2,160,0|0|0,1:0|0:0|1:0,0:0:0:0:
101,166,84950,6,0,P|181:130|249:170,1,160,4|0,1:0|1:0,0:0:0:0:
308,240,85467,1,0,0:0:0:0:
392,176,85640,2,0,P|400:132|404:76,2,80,0|0|0,1:0|0:0|0:0,0:0:0:0:
408,276,86157,1,0,1:0:0:0:
408,276,86329,6,0,P|344:340|272:340,1,160,4|0,1:0|1:0,0:0:0:0:
192,288,86847,2,0,L|184:184,1,80,0|0,0:0|1:0,0:0:0:0:
128,120,87191,1,0,0:0:0:0:
200,40,87364,1,0,0:0:0:0:
280,104,87536,1,0,1:0:0:0:
280,104,87709,6,0,P|388:112|424:60,1,160,4|0,1:0|0:0,0:0:0:0:
340,44,88226,1,0,0:0:0:0:
340,44,88398,2,0,L|368:208,1,160,0|0,1:0|0:0,0:0:0:0:
452,196,88916,2,0,P|437:252|396:276,1,80,0|0,1:0|0:0,0:0:0:0:
333,275,89260,6,0,P|268:236|272:148,1,160,4|0,1:0|0:0,0:0:0:0:
336,196,89778,2,0,P|252:260|192:228,1,160,0|2,1:0|0:2,0:0:0:0:
210,245,90295,1,2,1:2:0:0:
120,192,90467,1,0,0:0:0:0:
120,192,90640,2,0,P|116:292|180:344,1,160,0|0,1:0|0:0,0:0:0:0:
358,332,91157,2,0,P|404:268|392:192,1,160,0|2,1:0|0:2,0:0:0:0:
320,88,91674,2,0,P|304:52|296:0,1,80,2|0,1:2|0:0,0:0:0:0:
400,92,92019,6,0,P|352:160|274:153,1,160,0|0,1:0|0:0,0:0:0:0:
281,158,92536,1,0,1:0:0:0:
128,292,92881,2,0,B|92:328|92:328|44:340,2,80,2|2|0,0:2|1:2|0:0,0:0:0:0:
104,188,93398,2,0,P|88:92|80:16,1,160,0|0,1:0|0:0,0:0:0:0:
180,128,93916,2,0,P|188:172|196:228,1,80,0|0,1:0|0:0,0:0:0:0:
193,206,94260,1,2,0:2:0:0:
264,284,94432,1,2,1:2:0:0:
340,208,94605,1,0,0:0:0:0:
340,208,94777,6,0,B|364:148|364:148|384:92|344:40,1,160,0|0,1:0|0:0,0:0:0:0:
157,56,95295,2,0,B|128:92|148:148|148:148|172:208,1,160,0|2,1:0|0:2,0:0:0:0:
256,120,95812,2,0,L|256:20,1,80,2|0,1:2|0:0,0:0:0:0:
256,40,96157,1,0,1:0:0:0:
376,300,96502,2,0,P|400:256|412:216,1,80,0|0,0:0|1:0,0:0:0:0:
136,300,97019,2,0,P|112:256|100:216,2,80,2|2|0,0:2|1:2|0:0,0:0:0:0:
184,208,97536,6,0,P|112:144|40:172,1,160,0|0,1:0|0:0,0:0:0:0:
52,316,98053,2,0,P|124:380|196:352,1,160,0|2,1:0|0:2,0:0:0:0:
240,284,98571,2,0,L|276:212,1,80,2|0,1:2|0:0,0:0:0:0:
324,128,98916,2,0,P|396:64|468:92,1,160,0|0,1:0|0:0,0:0:0:0:
456,240,99433,2,0,P|384:304|312:276,1,160,0|2,1:0|0:2,0:0:0:0:
272,208,99950,2,0,P|253:172|236:136,1,80,2|0,1:2|0:0,0:0:0:0:
144,92,100295,6,0,P|84:88|60:88,1,80,4|0,1:0|0:0,0:0:0:0:
32,208,100640,1,0,1:0:0:0:
32,208,100812,2,0,P|92:212|116:212,1,80,0|0,1:0|0:0,0:0:0:0:
192,276,101157,1,2,0:2:0:0:
244,188,101329,1,2,1:2:0:0:
244,188,101502,1,2,0:2:0:0:
332,136,101674,6,0,B|372:128|372:128|416:128,2,80,0|0|0,1:0|0:0|1:0,0:0:0:0:
332,248,102191,2,0,B|372:256|372:256|416:256,2,80,0|0|2,1:0|0:0|0:2,0:0:0:0:
240,188,102709,1,2,1:2:0:0:
152,132,102881,1,2,0:2:0:0:
152,132,103053,6,0,P|136:204|196:280,1,160,4|0,1:0|1:0,0:0:0:0:
328,244,103571,2,0,P|344:172|284:96,1,160,0|2,1:0|0:2,0:0:0:0:
208,48,104088,2,0,P|168:44|112:32,1,80,2|2,1:2|0:2,0:0:0:0:
284,32,104433,2,0,P|264:108|184:120,1,160,0|0,1:0|1:0,0:0:0:0:
192,123,104950,1,0,1:0:0:0:
112,188,105122,2,0,L|116:292,1,80,0|2,1:0|0:3,0:0:0:0:
228,320,105467,2,0,L|224:216,1,80,0|2,0:0|0:3,0:0:0:0:
332,192,105812,6,0,P|392:196|428:188,2,80,4|0|0,1:0|0:0|1:0,0:0:0:0:
312,64,106329,2,0,P|252:60|216:68,2,80,0|0|0,1:0|0:0|1:0,0:0:0:0:
240,140,106847,2,0,P|164:100|176:8,2,160,0|0|0,1:0|1:0|1:0,0:0:0:0:
316,212,107709,1,0,0:0:0:0:
280,308,107881,2,0,P|248:332|204:360,1,80,0|2,1:0|0:3,0:0:0:0:
84,312,108226,2,0,P|116:288|160:260,1,80,0|2,1:0|0:3,0:0:0:0:
236,140,108571,6,0,B|236:88|236:88|232:40|192:16|148:28,1,160,4|0,1:0|1:0,0:0:0:0:
176,188,109088,2,0,P|256:216|308:164,1,160,0|0,1:0|1:0,0:0:0:0:
305,170,109605,1,4,1:0:0:0:
196,236,111683,6,0,P|216:288|248:320,1,89.9999972534181,0|0,1:0|1:0,0:0:0:0:
316,148,112028,2,0,P|296:96|264:64,1,89.9999972534181,0|0,1:0|1:0,0:0:0:0:
256,192,112373,1,0,1:0:0:0:
256,192,112545,1,2,1:3:0:0:
120,248,112718,6,0,B|80:220|84:172|104:148|104:148|164:112,1,179.999994506836,4|0,1:0|0:0,0:0:0:0:
351,113,113235,2,0,B|408:148|408:148|428:172|432:220|392:248,1,179.999994506836,0|0,1:0|0:0,0:0:0:0:
280,168,113752,2,0,P|272:68|340:24,1,179.999994506836,0|0,1:0|0:0,0:0:0:0:
316,252,114270,2,0,B|244:276|200:212|200:212|176:160,1,179.999994506836,0|0,1:0|0:0,0:0:0:0:
148,56,114787,2,0,L|48:52,2,89.9999972534181,0|0|8,1:0|0:0|1:2,0:0:0:0:
260,88,115304,1,8,0:0:0:0:
372,120,115476,6,0,B|416:168|404:228|404:228|388:304,1,179.999994506836,0|0,1:0|0:0,0:0:0:0:
316,200,115994,2,0,B|408:200|408:200|452:184|464:120,1,179.999994506836,0|0,1:0|0:0,0:0:0:0:
332,48,116511,2,0,L|140:48,1,179.999994506836,0|0,1:0|0:0,0:0:0:0:
296,124,117028,2,0,B|372:148|428:96|412:24,1,179.999994506836,0|0,1:0|0:0,0:0:0:0:
224,92,117545,2,0,P|224:152|260:196,1,89.9999972534181,0|0,1:0|0:0,0:0:0:0:
321,259,117890,1,8,1:2:0:0:
237,342,118063,1,8,0:2:0:0:
237,342,118235,6,0,B|140:336|140:336|72:332|28:256|96:176,2,269.999991760254,4|0|0,1:0|1:0|1:0,0:0:0:0:
144,256,119442,2,0,L|180:156,1,89.9999972534181,0|0,0:0|0:0,0:0:0:0:
160,56,119787,1,0,1:0:0:0:
160,56,119959,2,0,B|204:40|204:40|248:40,1,89.9999972534181,0|0,0:0|1:0,0:0:0:0:
340,156,120304,2,0,B|296:172|296:172|252:172,1,89.9999972534181,0|0,1:0|0:0,0:0:0:0:
324,40,120649,1,8,1:2:0:0:
324,40,120821,1,8,0:0:0:0:
432,100,120994,6,0,B|464:172|420:223|420:223|360:256,1,179.999994506836,0|0,1:0|0:0,0:0:0:0:
272,300,121511,2,0,L|172:348,1,89.9999972534181,0|0,1:0|0:0,0:0:0:0:
92,280,121856,1,0,0:0:0:0:
92,280,122028,2,0,P|72:212|148:148,1,179.999994506836,0|0,1:0|0:0,0:0:0:0:
168,264,122545,2,0,P|144:340|44:340,1,179.999994506836,0|0,1:0|1:0,0:0:0:0:
208,196,123063,2,0,L|312:196,1,89.9999972534181,0|0,1:0|0:0,0:0:0:0:
392,152,123407,1,8,1:2:0:0:
392,152,123580,1,8,0:0:0:0:
392,152,123752,6,0,P|396:60|316:24,1,179.999994506836,4|0,1:0|1:0,0:0:0:0:
320,180,124270,2,0,P|384:232|468:164,1,179.999994506836,0|2,1:0|0:0,0:0:0:0:
328,104,124787,2,0,L|212:104,1,89.9999972534181,2|0,1:2|0:0,0:0:0:0:
172,152,125132,2,0,P|168:60|248:24,1,179.999994506836,0|0,1:0|1:0,0:0:0:0:
244,180,125650,2,0,P|180:232|96:164,1,179.999994506836,0|2,1:0|0:0,0:0:0:0:
238,104,126166,1,2,1:2:0:0:
352,152,126339,1,0,0:0:0:0:
352,152,126511,6,0,L|452:160,1,89.9999972534181,0|0,1:0|0:0,0:0:0:0:
440,52,126856,1,0,1:0:0:0:
352,236,127028,2,0,P|280:196|288:96,1,179.999994506836,0|2,1:0|0:0,0:0:0:0:
444,240,127545,2,0,L|448:356,1,89.9999972534181,2|0,1:2|0:0,0:0:0:0:
356,152,127890,2,0,L|352:36,2,89.9999972534181,0|0|0,1:0|0:0|1:0,0:0:0:0:
208,96,128407,2,0,P|156:140|192:252,1,179.999994506836,0|2,1:0|0:2,0:0:0:0:
284,124,128925,2,0,P|280:56|260:32,1,89.9999972534181,2|2,1:2|0:0,0:0:0:0:
232,180,129270,6,0,L|292:272,1,89.9999972534181,4|0,1:0|0:0,0:0:0:0:
356,152,129614,1,0,1:0:0:0:
448,296,129787,2,0,L|388:204,1,89.9999972534181,0|0,1:0|0:0,0:0:0:0:
240,320,130131,1,2,1:2:0:0:
240,320,130304,2,0,P|288:332|344:304,1,89.9999972534181,2|0,1:2|0:0,0:0:0:0:
188,260,130649,1,0,1:0:0:0:
64,224,130821,1,0,0:0:0:0:
132,320,130994,1,0,1:0:0:0:
136,204,131166,2,0,P|120:96|52:48,1,179.999994506836,0|2,1:0|1:2,0:0:0:0:
60,228,131683,2,0,P|52:276|60:328,1,89.9999972534181,2|0,1:2|0:0,0:0:0:0:
184,264,132028,6,0,L|308:260,1,89.9999972534181,0|0,1:0|0:0,0:0:0:0:
240,156,132373,1,0,1:0:0:0:
408,152,132545,2,0,L|284:156,1,89.9999972534181,0|0,1:0|0:0,0:0:0:0:
408,232,132890,1,2,1:2:0:0:
408,232,133063,2,0,P|468:204|484:168,1,89.9999972534181,2|0,1:2|0:0,0:0:0:0:
316,76,133407,2,0,P|256:104|240:140,2,89.9999972534181,0|0|0,1:0|0:0|1:0,0:0:0:0:
320,232,133925,2,0,P|252:300|180:260,1,179.999994506836,0|2,1:0|1:2,0:0:0:0:
144,148,134442,1,2,1:2:0:0:
144,148,134614,1,2,1:2:0:0:
144,148,134787,6,0,B|132:104|132:104|148:48,1,89.9999972534181,4|0,1:0|0:0,0:0:0:0:
256,36,135132,1,0,1:0:0:0:
367,61,135304,2,0,B|380:104|380:104|368:148,1,89.9999972534181,0|0,1:0|0:0,0:0:0:0:
332,260,135649,2,0,P|313:297|320:348,2,89.9999972534181,2|2|0,1:2|1:2|1:0,0:0:0:0:
256,172,136166,1,0,1:0:0:0:
180,260,136339,2,0,P|199:297|192:348,1,89.9999972534181,0|0,0:0|1:0,0:0:0:0:
120,312,136683,2,0,P|132:196|216:192,1,179.999994506836,0|2,1:0|1:2,0:0:0:0:
332,180,137201,2,0,L|428:180,1,89.9999972534181,2|0,1:2|1:0,0:0:0:0:
300,108,137545,6,0,P|254:169|310:256,1,179.999994506836,0|0,1:0|1:0,0:0:0:0:
452,252,138063,2,0,P|497:179|450:108,1,179.999994506836,0|2,1:0|1:2,0:0:0:0:
450,108,138580,1,2,1:2:0:0:
372,180,138752,1,0,1:0:0:0:
300,104,138925,2,0,P|212:80|128:104,2,179.999994506836,0|0|0,1:0|1:0|1:0,0:0:0:0:
268,216,139787,1,2,0:3:0:0:
268,216,139959,1,0,1:0:0:0:
268,216,140132,1,2,0:3:0:0:
240,328,140304,6,0,P|164:276|152:184,1,179.999994506836,4|0,1:0|0:0,0:0:0:0:
292,100,140821,2,0,P|368:152|380:244,1,179.999994506836,0|0,1:0|0:0,0:0:0:0:
264,212,141339,2,0,L|80:184,2,179.999994506836,0|0|0,1:0|1:0|1:0,0:0:0:0:
328,308,142201,1,0,0:0:0:0:
416,232,142373,2,0,B|424:188|424:188|416:116,1,89.9999972534181,0|2,1:0|0:3,0:0:0:0:
256,48,142718,2,0,B|248:92|248:92|256:164,1,89.9999972534181,0|2,1:0|0:3,0:0:0:0:
208,264,143063,6,0,P|128:340|48:300,1,179.999994506836,4|0,1:0|0:0,0:0:0:0:
224,188,143580,2,0,P|304:112|384:152,1,179.999994506836,0|0,1:0|0:0,0:0:0:0:
284,240,144097,2,0,P|212:264|144:192,2,179.999994506836,0|0|0,1:0|0:0|1:0,0:0:0:0:
396,272,144959,1,0,0:0:0:0:
368,156,145132,2,0,P|372:112|364:52,1,89.9999972534181,0|0,1:0|0:0,0:0:0:0:
144,66,145476,2,0,P|140:111|144:156,1,89.9999972534181,0|0,1:0|0:0,0:0:0:0:
256,112,145821,5,4,0:1:0:0:
