osu file format v12

[General]
AudioFilename: Ellie Goulding - Burn.mp3
AudioLeadIn: 1500
PreviewTime: 111329
Countdown: 2
SampleSet: Soft
StackLeniency: 1
Mode: 0
LetterboxInBreaks: 1
EpilepsyWarning: 1
WidescreenStoryboard: 1

[Editor]
DistanceSpacing: 1.4
BeatDivisor: 4
GridSize: 4

[Metadata]
Title:Burn
TitleUnicode:Burn
Artist:Ellie Goulding
ArtistUnicode:Ellie Goulding
Creator:Ultimate
Version:Hard
Source:
Tags:Elly golding lights sb storyboard
BeatmapID:303987
BeatmapSetID:118166

[Difficulty]
HPDrainRate:5
CircleSize:4
OverallDifficulty:6
ApproachRate:7
SliderMultiplier:1.5
SliderTickRate:1

[Events]
//Background and Video events
0,0,"bg.jpg",0,0
//Break Periods
2,109805,110783
//Storyboard Layer 0 (Background)
//Storyboard Layer 1 (Fail)
//Storyboard Layer 2 (Pass)
//Storyboard Layer 3 (Foreground)
//Storyboard Sound Samples
//Background Colour Transformations
3,100,0,0,0

[TimingPoints]
985,344.827586206897,4,2,0,40,1,0
985,-166.666666666667,4,2,0,40,0,0
6502,-142.857142857143,4,2,0,40,0,0
12019,-142.857142857143,4,2,0,40,0,0
22709,-142.857142857143,4,2,0,50,0,0
34088,-142.857142857143,4,2,0,65,0,0
44950,-125,4,2,0,80,0,0
50640,-125,4,2,0,90,0,0
50812,-125,4,2,0,80,0,0
53398,-125,4,2,0,90,0,0
53571,-125,4,2,0,80,0,0
55122,-125,4,2,0,40,0,0
55295,-125,4,2,0,50,0,0
55467,-125,4,2,0,60,0,0
55640,-125,4,2,0,70,0,0
55812,-125,4,2,0,80,0,0
55985,-125,4,2,0,90,0,0
56157,-111.111111111111,4,2,0,100,0,1
67191,-125,4,2,0,90,0,0
111339,344.827586206897,4,2,0,40,1,0
111683,-100,4,2,0,40,0,0
111856,-111.111111111111,4,2,0,50,0,0
112028,-111.111111111111,4,2,0,60,0,0
112201,-111.111111111111,4,2,0,70,0,0
112373,-100,4,2,0,80,0,0
112545,-111.111111111111,4,2,0,90,0,0
112718,-111.111111111111,4,2,0,100,0,1
144787,-111.111111111111,4,2,0,80,0,0
145821,-111.111111111111,4,2,0,100,0,0

[Colours]
Combo1 : 253,83,53
Combo2 : 77,223,84
Combo3 : 48,151,235
Combo4 : 251,146,51

[HitObjects]
128,152,985,2,0,P|120:240|160:288,2,134.999995880127,2|2|2,0:0|0:0|0:0,0:0:0:0:
216,172,2364,2,0,L|352:176,1,134.999995880127,2|2,0:0|0:0,0:0:0:0:
192,96,3398,1,2,0:0:0:0:
120,132,3743,6,0,P|81:185|91:250,1,134.999995880127,2|2,0:0|0:0,0:0:0:0:
220,272,4778,1,2,0:0:0:0:
220,272,5122,2,0,P|256:228|244:148,2,134.999995880127,2|2|2,0:0|0:0|0:0,0:0:0:0:
164,196,6502,6,0,P|156:124|180:88,1,104.999996795654,2|0,0:0|0:0,0:0:0:0:
248,76,7019,2,0,L|360:84,1,104.999996795654,2|0,0:0|0:0,0:0:0:0:
424,52,7536,1,2,0:0:0:0:
460,120,7709,1,0,0:0:0:0:
460,120,7881,2,0,P|472:188|456:240,1,104.999996795654,2|0,0:0|0:0,0:0:0:0:
388,208,8398,2,0,L|280:192,1,104.999996795654,2|0,0:0|0:0,0:0:0:0:
208,176,8916,1,2,0:0:0:0:
208,176,9260,6,0,P|192:92|244:28,2,157.499995193482,2|2|2,0:0|0:0|0:0,0:0:0:0:
364,200,10640,2,0,P|404:134|386:60,2,157.499995193482,2|2|2,0:0|0:0|0:0,0:0:0:0:
208,252,12019,6,0,P|160:272|100:248,1,104.999996795654,4|0,1:0|0:0,0:0:0:0:
156,192,12536,2,0,P|236:176|288:236,1,157.499995193482,0|2,0:0|0:0,0:0:0:0:
312,300,13226,1,0,0:0:0:0:
312,300,13398,2,0,L|416:284,1,104.999996795654,2|2,0:0|0:0,0:0:0:0:
464,132,14088,2,0,L|468:68,2,52.4999983978272,2|0|0,0:0|0:0|0:0,0:0:0:0:
396,168,14605,6,0,P|336:180|280:152,1,104.999996795654,2|0,0:0|0:0,0:0:0:0:
464,136,15295,2,0,P|469:191|434:234,1,104.999996795654,2|0,0:0|0:0,0:0:0:0:
396,168,15812,2,0,B|376:96,1,52.4999983978272,2|0,0:0|0:0,0:0:0:0:
364,44,16157,2,0,B|312:32|312:32|264:56,1,104.999996795654,2|0,0:0|0:0,0:0:0:0:
272,128,16674,1,0,0:0:0:0:
272,128,16847,2,0,L|208:128,1,52.4999983978272,2|0,0:0|0:0,0:0:0:0:
156,80,17191,1,2,0:0:0:0:
156,80,17364,6,0,P|104:152|144:216,2,157.499995193482,4|0|0,1:0|0:0|0:0,0:0:0:0:
184,152,18571,2,0,L|248:156,1,52.4999983978272,2|0,0:0|0:0,0:0:0:0:
256,232,18916,2,0,L|192:228,1,52.4999983978272,2|0,0:0|0:0,0:0:0:0:
144,284,19260,1,2,0:0:0:0:
60,152,19605,2,0,P|52:104|52:80,2,52.4999983978272,2|0|0,0:0|0:0|0:0,0:0:0:0:
120,204,20122,6,0,P|168:200|212:160,1,104.999996795654,2|0,0:0|0:0,0:0:0:0:
56,152,20812,2,0,P|40:204|59:255,1,104.999996795654,2|0,0:0|0:0,0:0:0:0:
120,204,21329,2,0,L|144:136,1,52.4999983978272,2|0,0:0|0:0,0:0:0:0:
105,84,21674,2,0,P|160:80|204:114,1,104.999996795654,2|0,0:0|0:0,0:0:0:0:
229,180,22191,2,0,P|273:206|324:196,1,104.999996795654,2|0,0:0|0:0,0:0:0:0:
288,124,22709,1,0,0:0:0:0:
288,124,22881,6,0,P|364:124|406:200,1,157.499995193482,4|0,1:0|0:0,0:0:0:0:
324,196,23571,2,0,P|264:204|220:164,1,104.999996795654,2|0,0:0|0:0,0:0:0:0:
208,104,24088,1,2,0:0:0:0:
208,104,24260,1,0,0:0:0:0:
136,136,24433,2,0,P|104:176|100:232,1,104.999996795654,2|0,0:0|0:0,0:0:0:0:
139,299,24950,2,0,P|172:264|172:192,1,104.999996795654,2|0,0:0|0:0,0:0:0:0:
252,176,25467,2,0,L|312:180,1,52.4999983978272,2|0,0:0|0:0,0:0:0:0:
384,184,25812,6,0,P|416:144|420:88,1,104.999996795654,2|0,0:0|0:0,0:0:0:0:
380,24,26329,2,0,P|348:56|348:128,1,104.999996795654,2|0,0:0|0:0,0:0:0:0:
342,113,26847,1,2,0:0:0:0:
396,260,27191,2,0,P|356:312|272:304,1,157.499995193482,2|2,0:0|0:0,0:0:0:0:
152,200,28053,2,0,L|104:144,1,52.4999983978272,2|2,0:0|0:0,0:0:0:0:
192,132,28398,6,0,P|232:200|196:264,1,157.499995193482,4|0,1:0|0:0,0:0:0:0:
152,200,29088,2,0,P|116:160|116:104,1,104.999996795654,2|0,0:0|0:0,0:0:0:0:
168,56,29605,2,0,L|232:48,1,52.4999983978272,2|0,0:0|0:0,0:0:0:0:
296,72,29950,2,0,P|332:104|404:96,1,104.999996795654,2|0,0:0|0:0,0:0:0:0:
364,28,30467,2,0,L|324:136,1,104.999996795654,2|0,0:0|0:0,0:0:0:0:
352,200,30985,1,2,0:0:0:0:
376,276,31157,1,0,0:0:0:0:
376,276,31329,6,0,P|316:324|272:320,1,104.999996795654,2|0,0:0|0:0,0:0:0:0:
244,260,31847,2,0,L|192:168,1,104.999996795654,2|0,0:0|0:0,0:0:0:0:
276,156,32364,2,0,L|304:208,1,52.4999983978272,2|0,0:0|0:0,0:0:0:0:
324,276,32709,2,0,P|276:336|236:340,1,104.999996795654,2|0,0:0|0:0,0:0:0:0:
164,244,33226,2,0,P|212:184|252:180,2,104.999996795654,2|0|2,0:0|0:0|0:0,0:0:0:0:
144,320,34088,5,4,1:0:0:0:
352,208,34605,2,0,B|412:172|412:172|452:144|436:88,1,157.499995193482,0|2,0:0|0:0,0:0:0:0:
292,160,35467,2,0,P|282:242|353:283,2,157.499995193482,0|0|2,1:0|0:0|0:0,0:0:0:0:
352,208,36674,1,2,0:0:0:0:
408,264,36847,6,0,P|388:337|311:351,2,157.499995193482,0|0|2,1:0|0:0|0:0,0:0:0:0:
428,188,38053,1,2,0:0:0:0:
428,188,38226,2,0,B|448:112|448:112|420:32,1,157.499995193482,0|0,1:0|0:0,0:0:0:0:
348,176,39088,2,0,L|332:232,2,52.4999983978272,0|2|2,0:0|0:0|0:0,0:0:0:0:
292,120,39605,6,0,P|232:108|192:128,1,104.999996795654,4|0,1:0|0:0,0:0:0:0:
248,184,40122,2,0,P|308:196|352:168,1,104.999996795654
376,104,40640,2,0,L|448:112,1,52.4999983978272,2|2,0:0|0:0,0:0:0:0:
468,180,40985,1,0,1:0:0:0:
376,308,41329,2,0,L|304:300,1,52.4999983978272
168,280,41847,1,0,0:0:0:0:
168,280,42019,1,2,0:0:0:0:
168,280,42191,1,2,0:0:0:0:
140,204,42364,6,0,P|136:152|176:96,1,104.999996795654,0|0,1:0|0:0,0:0:0:0:
232,148,42881,2,0,L|344:152,1,104.999996795654
372,232,43398,2,0,L|312:232,1,52.4999983978272,2|2,0:0|0:0,0:0:0:0:
240,228,43743,2,0,P|176:208|156:176,1,104.999996795654,0|0,1:0|0:0,0:0:0:0:
224,68,44260,2,0,P|288:88|308:120,2,104.999996795654,0|0|2,0:0|0:0|0:0,0:0:0:0:
140,88,45122,6,0,L|16:116,1,120,0|0,1:0|0:0,0:0:0:0:
68,188,45640,2,0,L|192:160,1,120,0|2,1:0|0:0,0:0:0:0:
185,161,46157,1,2,0:0:0:0:
372,88,46502,2,0,L|496:116,1,120,0|0,1:0|0:0,0:0:0:0:
444,188,47020,2,0,L|320:160,1,120,0|2,1:0|0:0,0:0:0:0:
256,116,47536,2,0,L|256:52,1,60,2|0,0:0|0:0,0:0:0:0:
176,88,47881,6,0,P|180:160|220:192,1,120,0|0,1:0|0:0,0:0:0:0:
298,189,48398,2,0,P|338:146|336:88,1,120,0|2,1:0|0:0,0:0:0:0:
256,116,48916,1,2,0:0:0:0:
216,188,49088,1,2,0:0:0:0:
256,260,49260,2,0,P|328:264|376:216,2,120,0|0|0,1:0|0:0|1:0,0:0:0:0:
172,252,50122,1,2,0:3:0:0:
172,252,50295,2,0,L|104:248,1,60,0|2,1:0|0:3,0:0:0:0:
52,188,50640,6,0,P|36:124|76:64,1,120,4|0,1:0|0:0,0:0:0:0:
116,136,51157,2,0,P|132:204|100:256,1,120,0|0,1:0|0:0,0:0:0:0:
132,60,51674,2,0,L|328:64,1,180,0|0,1:0|0:0,0:0:0:0:
384,288,52709,2,0,L|320:288,1,60,0|2,1:0|0:3,0:0:0:0:
296,208,53053,2,0,L|360:208,1,60,0|2,1:0|0:3,0:0:0:0:
440,224,53398,6,0,P|468:272|444:348,1,120,4|0,1:0|0:0,0:0:0:0:
384,288,53916,2,0,P|356:240|380:164,1,120,0|0,1:0|0:0,0:0:0:0:
367,179,54433,1,4,1:0:0:0:
88,204,55122,6,0,P|80:164|80:132,1,60,0|0,1:0|1:0,0:0:0:0:
160,164,55467,2,0,P|168:204|168:236,2,60,0|0|0,1:0|1:0|1:0,0:0:0:0:
204,92,55985,1,0,1:0:0:0:
296,108,56157,6,0,P|364:96|396:32,1,134.999995880127,4|0,1:0|0:0,0:0:0:0:
268,36,56674,2,0,P|224:76|232:152,1,134.999995880127,0|0,1:0|0:0,0:0:0:0:
296,224,57191,2,0,L|388:328,1,134.999995880127,0|0,1:0|0:0,0:0:0:0:
408,224,57709,2,0,B|357:168|357:168|332:140|296:140,1,134.999995880127,0|2,1:0|0:3,0:0:0:0:
220,196,58226,2,0,L|152:256,1,67.4999979400635,0|0,1:0|0:0,0:0:0:0:
124,148,58571,2,0,L|192:88,1,67.4999979400635,8|8,1:2|0:0,0:0:0:0:
272,136,58916,6,0,P|300:184|268:260,1,134.999995880127,4|0,1:0|0:0,0:0:0:0:
168,256,59433,2,0,P|140:208|176:128,1,134.999995880127,0|0,1:0|0:0,0:0:0:0:
232,212,59950,2,0,P|240:288|180:332,2,134.999995880127,0|0|0,1:0|0:0|0:0,0:0:0:0:
164,136,60812,2,0,L|116:80,2,67.4999979400635,2|0|0,0:3|1:0|0:0,0:0:0:0:
264,124,61329,1,8,1:2:0:0:
360,112,61502,1,8,0:0:0:0:
360,112,61674,6,0,P|400:168|356:308,2,202.499993820191,4|0|0,1:0|1:0|1:0,0:0:0:0:
68,196,63226,2,0,P|56:264|104:324,1,134.999995880127,0|2,1:0|0:3,0:0:0:0:
160,244,63743,2,0,P|172:208|164:156,1,67.4999979400635,0|0,1:0|0:0,0:0:0:0:
128,56,64088,2,0,P|116:92|124:144,1,67.4999979400635,8|8,1:2|0:0,0:0:0:0:
216,104,64433,6,0,B|290:106|290:106|348:80,1,134.999995880127,4|0,1:0|0:0,0:0:0:0:
392,172,64950,2,0,B|389:246|389:246|416:304,1,134.999995880127,0|0,1:0|0:0,0:0:0:0:
464,212,65467,2,0,P|444:108|408:92,1,134.999995880127,0|0,1:0|0:0,0:0:0:0:
320,132,65985,2,0,P|340:236|376:252,1,134.999995880127,0|2,1:0|0:3,0:0:0:0:
396,152,66502,2,0,P|396:92|388:64,1,67.4999979400635,0|0,1:0|0:0,0:0:0:0:
316,132,66847,2,0,L|324:220,1,67.4999979400635,8|8,1:2|0:0,0:0:0:0:
328,276,67191,6,0,P|288:312|208:320,1,120,4|0,1:0|0:0,0:0:0:0:
188,252,67709,2,0,L|184:132,1,120,0|0,1:0|0:0,0:0:0:0:
132,80,68226,1,0,1:0:0:0:
132,80,68571,1,0,1:0:0:0:
284,112,68916,2,0,L|288:171,1,60,0|0,0:0|1:0,0:0:0:0:
212,200,69260,2,0,L|207:140,1,60
132,168,69605,1,0,1:0:0:0:
132,168,69778,6,0,P|108:224|140:288,1,120,0|0,1:0|0:0,0:0:0:0:
284,296,70467,2,0,P|308:240|276:176,1,120,0|0,1:0|0:0,0:0:0:0:
288,187,70985,1,0,1:0:0:0:
288,187,71157,1,0,1:0:0:0:
140,136,71502,2,0,P|112:104|132:16,1,120,0|0,0:0|1:0,0:0:0:0:
184,72,72019,2,0,P|216:116|196:192,1,120,0|0,0:0|1:0,0:0:0:0:
140,216,72536,1,0,1:0:0:0:
260,312,72881,6,0,L|344:300,1,60
368,240,73226,2,0,B|388:184|388:184|356:120|392:68,1,180,0|0,1:0|1:0,0:0:0:0:
304,196,74088,2,0,P|300:276|400:312,2,180,0|0|0,1:0|1:0|1:0,0:0:0:0:
156,152,75467,6,0,L|88:132,2,60,4|0|0,1:0|0:0|1:0,0:0:0:0:
228,124,75985,2,0,P|260:80|248:12,1,120,0|0,1:0|0:0,0:0:0:0:
184,60,76502,1,0,1:0:0:0:
276,184,76847,1,0,1:0:0:0:
348,156,77019,2,0,L|416:160,1,60,0|0,0:0|1:0,0:0:0:0:
484,148,77364,2,0,P|496:220|472:280,1,120,0|0,1:0|1:0,0:0:0:0:
328,228,78053,6,0,L|208:232,1,120,4|0,1:0|0:0,0:0:0:0:
152,184,78571,2,0,B|176:152|225:157|225:157|270:156,2,120,0|0|0,1:0|1:0|0:0,0:0:0:0:
116,256,79433,5,4,1:0:0:0:
256,324,79778,1,0,0:0:0:0:
256,324,79950,2,0,B|308:324|308:324|356:320|376:268,1,120,0|0,1:0|1:0,0:0:0:0:
172,260,80640,1,0,0:0:0:0:
172,260,80812,6,0,P|120:312|60:308,1,120,4|0,1:0|0:0,0:0:0:0:
92,232,81329,2,0,P|144:180|204:184,1,120,0|0,1:0|1:0,0:0:0:0:
260,212,81847,2,0,L|336:240,1,60
392,256,82191,6,0,P|436:188|420:136,1,120,4|0,1:0|0:0,0:0:0:0:
429,153,82709,1,0,1:0:0:0:
292,80,83053,2,0,L|300:8,2,60,0|0|0,1:0|0:0|0:0,0:0:0:0:
220,112,83571,6,0,P|140:136|88:144,1,120,4|0,1:0|0:0,0:0:0:0:
104,142,84088,1,0,1:0:0:0:
220,36,84433,2,0,P|280:64|292:136,1,120,0|0,1:0|0:0,0:0:0:0:
288,188,84950,6,0,L|276:316,1,120,4|0,1:0|0:0,0:0:0:0:
212,224,85467,2,0,P|214:150|263:108,1,120,0|0,1:0|1:0,0:0:0:0:
324,120,85985,2,0,L|412:124,1,60,0|0,0:0|0:0,0:0:0:0:
452,84,86329,5,4,1:0:0:0:
432,240,86674,1,0,0:0:0:0:
432,240,86847,2,0,B|424:292|424:292|416:336|360:352,2,120,0|0|0,1:0|1:0|0:0,0:0:0:0:
380,180,87709,6,0,P|328:156|268:168,1,120,4|0,1:0|0:0,0:0:0:0:
316,232,88226,1,0,0:0:0:0:
316,232,88398,2,0,P|368:256|428:244,1,120,4|0,1:0|0:0,0:0:0:0:
460,172,88916,2,0,L|452:92,1,60,0|0,1:0|0:0,0:0:0:0:
396,60,89260,5,4,1:0:0:0:
160,180,89777,2,0,B|84:228|84:228|36:264|68:328,1,180,0|2,1:0|0:0,0:0:0:0:
224,224,90639,2,0,P|230:144|150:103,2,180,0|0|2,1:0|1:0|0:0,0:0:0:0:
160,180,91846,1,0,0:0:0:0:
84,140,92019,6,0,P|79:78|184:35,2,180,0|0|2,1:0|1:0|0:0,0:0:0:0:
80,220,93225,1,0,0:0:0:0:
80,220,93398,6,0,P|75:282|180:328,1,180,0|0,1:0|1:0,0:0:0:0:
212,184,94260,2,0,L|232:116,2,60,2|2|0,0:0|0:0|0:0,0:0:0:0:
220,264,94777,6,0,P|280:276|332:236,1,120,4|0,1:0|0:0,0:0:0:0:
264,200,95295,2,0,P|204:188|156:220,1,120,0|2,1:0|0:0,0:0:0:0:
120,288,95812,2,0,L|40:276,1,60,2|0,0:0|0:0,0:0:0:0:
36,204,96157,1,0,1:0:0:0:
132,80,96502,2,0,L|212:92,1,60,0|0,0:0|1:0,0:0:0:0:
344,112,97019,1,2,0:0:0:0:
344,112,97191,1,2,0:0:0:0:
344,112,97363,1,0,0:0:0:0:
376,184,97536,6,0,P|380:252|336:300,1,120,0|0,1:0|0:0,0:0:0:0:
288,244,98053,2,0,L|160:240,1,120,0|2,1:0|0:0,0:0:0:0:
140,152,98570,2,0,L|202:154,1,60,2|0,0:0|0:0,0:0:0:0:
280,156,98915,2,0,P|356:188|376:224,1,120,0|0,1:0|0:0,0:0:0:0:
296,332,99433,2,0,P|220:300|200:264,2,120,0|2|2,1:0|0:0|0:0,0:0:0:0:
372,296,100295,6,0,L|492:268,1,120,0|0,1:0|0:0,0:0:0:0:
444,196,100812,2,0,L|320:224,1,120,0|2,1:0|0:0,0:0:0:0:
327,223,101329,1,2,0:0:0:0:
140,296,101674,2,0,L|16:268,1,120,0|0,1:0|0:0,0:0:0:0:
68,196,102192,2,0,L|192:224,1,120,0|2,1:0|0:0,0:0:0:0:
256,268,102708,2,0,L|256:332,1,60,2|2,0:0|0:0,0:0:0:0:
336,296,103053,6,0,P|332:224|292:192,1,120,0|0,1:0|0:0,0:0:0:0:
214,195,103571,2,0,P|174:238|176:296,1,120,0|2,1:0|0:0,0:0:0:0:
256,268,104088,1,2,0:0:0:0:
296,196,104260,1,2,0:0:0:0:
256,124,104432,2,0,P|184:120|136:168,2,120,0|0|0,1:0|0:0|1:0,0:0:0:0:
340,132,105294,1,2,0:3:0:0:
340,132,105467,2,0,L|408:136,1,60,0|2,1:0|0:3,0:0:0:0:
460,196,105812,6,0,P|476:260|436:320,1,120,4|0,1:0|0:0,0:0:0:0:
396,248,106329,2,0,P|380:180|412:128,1,120,0|0,1:0|0:0,0:0:0:0:
380,324,106846,2,0,L|184:320,1,180,0|0,1:0|0:0,0:0:0:0:
128,96,107881,2,0,L|192:96,1,60,0|2,1:0|0:3,0:0:0:0:
216,176,108225,2,0,L|152:176,1,60,0|2,1:0|0:3,0:0:0:0:
72,160,108571,6,0,P|45:112|68:36,1,120,4|0,1:0|0:0,0:0:0:0:
128,96,109088,2,0,P|156:144|132:220,1,120,0|0,1:0|0:0,0:0:0:0:
145,205,109605,1,4,1:0:0:0:
224,164,111683,6,0,P|292:156|316:156,1,75,0|0,1:0|1:0,0:0:0:0:
364,216,112028,1,0,1:0:0:0:
344,304,112201,1,0,1:0:0:0:
260,280,112373,2,0,P|192:288|168:288,1,75,0|0,1:0|1:0,0:0:0:0:
152,208,112718,6,0,P|144:136|196:84,1,134.999995880127,4|0,1:0|0:0,0:0:0:0:
264,120,113235,2,0,P|332:140|404:156,1,134.999995880127,0|0,1:0|0:0,0:0:0:0:
464,96,113752,2,0,P|404:56|328:92,1,134.999995880127,0|0,1:0|0:0,0:0:0:0:
324,212,114270,2,0,P|384:252|460:216,1,134.999995880127,0|0,1:0|0:0,0:0:0:0:
395,152,114787,1,0,1:0:0:0:
312,124,114959,1,0,0:0:0:0:
248,184,115132,2,0,L|200:232,1,67.4999979400635,8|8,1:2|0:0,0:0:0:0:
136,288,115476,6,0,P|64:284|20:228,1,134.999995880127,0|0,1:0|0:0,0:0:0:0:
32,156,115994,2,0,B|16:92|16:92|8:52|36:16,1,134.999995880127,0|0,1:0|0:0,0:0:0:0:
100,76,116511,2,0,B|116:140|116:140|124:180|96:216,2,134.999995880127,0|0|0,1:0|1:0|1:0,0:0:0:0:
180,40,117373,2,0,L|256:48,1,67.4999979400635,0|0,0:0|1:0,0:0:0:0:
292,116,117718,1,0,0:0:0:0:
232,180,117890,2,0,P|228:228|232:260,1,67.4999979400635,8|8,1:2|0:2,0:0:0:0:
300,300,118235,6,0,P|400:316|488:256,2,202.499993820191,4|0|0,1:0|1:0|1:0,0:0:0:0:
336,220,119442,2,0,L|364:144,1,67.4999979400635,0|0,0:0|0:0,0:0:0:0:
272,148,119787,2,0,L|244:224,1,67.4999979400635,0|0,1:0|0:0,0:0:0:0:
172,256,120132,1,0,0:0:0:0:
108,196,120304,2,0,P|80:140|128:60,1,134.999995880127,0|8,1:0|1:2,0:0:0:0:
324,88,120994,6,0,P|352:144|304:224,1,134.999995880127,0|0,1:0|0:0,0:0:0:0:
272,148,121511,2,0,L|208:20,1,134.999995880127,0|0,1:0|0:0,0:0:0:0:
192,144,122028,2,0,P|216:204|284:224,1,134.999995880127,0|0,1:0|0:0,0:0:0:0:
368,216,122545,2,0,B|428:212|428:212|472:208|500:236,2,134.999995880127,0|0|0,1:0|1:0|1:0,0:0:0:0:
328,296,123407,1,8,1:2:0:0:
328,296,123580,1,8,0:2:0:0:
328,296,123752,6,0,P|260:316|192:284,1,134.999995880127,4|0,1:0|1:0,0:0:0:0:
200,204,124270,2,0,L|196:68,1,134.999995880127,0|2,1:0|0:0,0:0:0:0:
276,152,124787,2,0,L|279:231,1,67.4999979400635,2|0,1:2|0:0,0:0:0:0:
212,280,125132,2,0,P|144:260|124:184,1,134.999995880127,0|0,1:0|1:0,0:0:0:0:
121,204,125649,1,0,1:0:0:0:
248,80,125994,2,0,P|248:32|252:8,2,67.4999979400635,2|2|0,0:2|1:2|0:0,0:0:0:0:
324,128,126511,6,0,P|340:200|304:260,1,134.999995880127,0|0,1:0|1:0,0:0:0:0:
240,204,127028,2,0,L|132:116,1,134.999995880127,0|2,1:0|0:0,0:0:0:0:
148,32,127545,2,0,L|208:80,1,67.4999979400635,2|0,1:2|0:0,0:0:0:0:
264,124,127890,2,0,P|320:184|300:260,1,134.999995880127,0|0,1:0|1:0,0:0:0:0:
214,282,128407,2,0,P|158:222|178:146,1,134.999995880127,0|2,1:0|0:2,0:0:0:0:
240,204,128925,1,2,1:2:0:0:
240,204,129097,1,0,0:0:0:0:
240,204,129270,6,0,L|392:204,1,134.999995880127,0|0,1:0|1:0,0:0:0:0:
448,160,129787,2,0,B|432:128|384:120|384:120|300:120,1,134.999995880127,0|2,1:0|0:0,0:0:0:0:
240,120,130304,2,0,L|156:120,1,67.4999979400635
172,120,130649,1,0,1:0:0:0:
308,284,130994,1,0,1:0:0:0:
308,284,131166,2,0,P|336:232|292:144,1,134.999995880127,0|2,1:0|0:2,0:0:0:0:
248,220,131683,2,0,L|176:276,1,67.4999979400635,2|0,1:2|0:0,0:0:0:0:
116,224,132028,6,0,B|88:160|88:160|124:84,1,134.999995880127,0|0,1:0|1:0,0:0:0:0:
176,36,132545,2,0,B|204:100|204:100|168:176,1,134.999995880127,0|2,1:0|0:0,0:0:0:0:
176,158,133063,1,2,1:2:0:0:
396,224,133407,6,0,B|424:160|424:160|388:84,1,134.999995880127,0|0,1:0|1:0,0:0:0:0:
336,36,133925,2,0,B|308:100|308:100|340:168,1,134.999995880127,0|2,1:0|0:0,0:0:0:0:
308,244,134442,2,0,L|276:328,1,67.4999979400635,2|2,1:2|0:0,0:0:0:0:
196,308,134787,6,0,L|228:224,1,67.4999979400635,4|0,1:0|0:0,0:0:0:0:
188,164,135132,1,0,1:0:0:0:
188,164,135304,2,0,P|128:128|68:152,1,134.999995880127,0|2,1:0|1:2,0:0:0:0:
32,228,135821,2,0,L|40:304,1,67.4999979400635,2|0,1:2|0:0,0:0:0:0:
116,336,136166,1,0,1:0:0:0:
196,308,136339,2,0,L|272:312,1,67.4999979400635,0|0,0:0|1:0,0:0:0:0:
348,336,136683,2,0,P|392:284|372:200,1,134.999995880127,0|2,1:0|1:2,0:0:0:0:
344,144,137201,1,2,1:2:0:0:
344,144,137373,1,0,0:0:0:0:
344,144,137545,6,0,L|200:148,1,134.999995880127,0|0,1:0|1:0,0:0:0:0:
256,68,138063,2,0,L|400:64,1,134.999995880127,0|2,1:0|1:2,0:0:0:0:
390,64,138580,1,2,1:2:0:0:
440,232,138925,2,0,P|440:300|380:336,1,134.999995880127,0|0,1:0|1:0,0:0:0:0:
328,272,139442,2,0,P|300:176|296:140,1,134.999995880127,0|0,1:0|1:0,0:0:0:0:
328,60,139959,1,2,0:3:0:0:
248,28,140132,1,0,1:0:0:0:
208,104,140304,6,0,P|192:176|220:240,1,134.999995880127,4|0,1:0|0:0,0:0:0:0:
298,231,140821,2,0,P|320:168|304:104,1,134.999995880127,0|0,1:0|0:0,0:0:0:0:
244,172,141339,2,0,P|229:269|324:308,2,202.499993820191,0|0|0,1:0|1:0|1:0,0:0:0:0:
316,124,142545,2,0,L|392:128,2,67.4999979400635,2|0|2,0:3|1:0|0:3,0:0:0:0:
368,52,143063,6,0,P|428:64|460:152,1,134.999995880127,4|0,1:0|0:0,0:0:0:0:
400,204,143580,2,0,P|340:192|308:104,1,134.999995880127,0|0,1:0|0:0,0:0:0:0:
384,128,144097,1,0,1:0:0:0:
80,304,144787,6,0,P|76:256|80:208,1,67.4999979400635,0|2,1:0|0:3,0:0:0:0:
168,252,145132,2,0,P|172:300|168:348,1,67.4999979400635,0|2,1:0|0:3,0:0:0:0:
256,344,145476,1,0,1:0:0:0:
296,268,145649,1,2,0:3:0:0:
256,192,145821,5,4,0:1:0:0:
