osu file format v12

[General]
AudioFilename: Ellie Goulding - Burn.mp3
AudioLeadIn: 1500
PreviewTime: 111329
Countdown: 2
SampleSet: Soft
StackLeniency: 1
Mode: 0
LetterboxInBreaks: 1
EpilepsyWarning: 1
WidescreenStoryboard: 1

[Editor]
DistanceSpacing: 1
BeatDivisor: 2
GridSize: 4

[Metadata]
Title:Burn
TitleUnicode:Burn
Artist:Ellie Goulding
ArtistUnicode:Ellie Goulding
Creator:Ultimate
Version:Easy
Source:
Tags:Elly golding lights sb storyboard
BeatmapID:307752
BeatmapSetID:118166

[Difficulty]
HPDrainRate:1
CircleSize:2
OverallDifficulty:2
ApproachRate:3
SliderMultiplier:1
SliderTickRate:1

[Events]
//Background and Video events
0,0,"bg.jpg",0,0
//Break Periods
2,109805,111278
//Storyboard Layer 0 (Background)
//Storyboard Layer 1 (Fail)
//Storyboard Layer 2 (Pass)
//Storyboard Layer 3 (Foreground)
//Storyboard Sound Samples
//Background Colour Transformations
3,100,0,0,0

[TimingPoints]
985,344.827586206897,4,2,0,40,1,0
985,-166.666666666667,4,2,0,40,0,0
22709,-166.666666666667,4,2,0,50,0,0
34088,-166.666666666667,4,2,0,65,0,0
44950,-166.666666666667,4,2,0,80,0,0
50640,-166.666666666667,4,2,0,90,0,0
50812,-166.666666666667,4,2,0,80,0,0
53398,-166.666666666667,4,2,0,90,0,0
53571,-166.666666666667,4,2,0,80,0,0
56157,-166.666666666667,4,2,0,100,0,1
67191,-166.666666666667,4,2,0,90,0,0
111339,344.827586206897,4,2,0,90,1,0
112718,-166.666666666667,4,2,0,100,0,1
144787,-166.666666666667,4,2,0,80,0,0
145821,-166.666666666667,4,2,0,100,0,0

[Colours]
Combo1 : 253,83,53
Combo2 : 77,223,84
Combo3 : 48,151,235
Combo4 : 251,146,51

[HitObjects]
100,248,985,2,0,P|92:208|116:136,1,89.9999972534181,0|2,0:0|0:0,0:0:0:0:
244,208,2364,2,0,L|340:236,1,89.9999972534181,0|2,0:0|0:0,0:0:0:0:
304,84,3743,2,0,P|252:68|200:80,1,89.9999972534181,0|2,0:0|0:0,0:0:0:0:
244,220,5122,1,2,0:0:0:0:
324,264,5640,1,2,0:0:0:0:
400,152,6502,6,0,P|408:92|396:48,1,89.9999972534181,0|2,0:0|0:0,0:0:0:0:
252,76,7881,2,0,L|144:88,1,89.9999972534181,0|2,0:0|0:0,0:0:0:0:
80,212,9260,2,0,P|68:264|76:320,1,89.9999972534181,0|2,0:0|0:0,0:0:0:0:
220,288,10640,1,2,0:0:0:0:
308,276,11157,1,2,0:0:0:0:
392,152,12019,6,0,B|404:92|404:92|384:20,2,119.999996337891,4|0|2,1:0|0:0|0:0,0:0:0:0:
272,132,14088,1,2,0:0:0:0:
184,112,14605,2,0,L|104:120,1,59.9999981689454,0|2,0:0|0:0,0:0:0:0:
92,296,15985,2,0,L|172:288,1,59.9999981689454,0|2,0:0|0:0,0:0:0:0:
332,268,17364,6,0,P|356:212|344:136,1,119.999996337891,4|0,1:0|0:0,0:0:0:0:
204,184,18916,2,0,P|196:128|232:64,1,119.999996337891,2|0,0:0|0:0,0:0:0:0:
312,68,20122,2,0,L|379:67,1,59.9999981689454,0|2,0:0|0:0,0:0:0:0:
396,244,21502,2,0,L|329:245,1,59.9999981689454,0|2,0:0|0:0,0:0:0:0:
156,240,22881,6,0,P|136:184|144:112,1,119.999996337891,4|0,1:0|0:0,0:0:0:0:
312,72,24605,2,0,L|416:100,1,89.9999972534181,0|2,0:0|0:0,0:0:0:0:
440,176,25640,2,0,P|440:256|428:292,1,89.9999972534181,0|2,0:0|0:0,0:0:0:0:
288,260,27019,1,0,0:0:0:0:
200,256,27536,1,2,0:0:0:0:
172,172,28053,2,0,L|149:95,1,59.9999981689454,0|4,0:0|1:0,0:0:0:0:
388,56,30122,6,0,L|416:160,1,89.9999972534181,0|2,0:0|0:0,0:0:0:0:
436,228,31157,1,0,0:0:0:0:
388,304,31674,1,2,0:0:0:0:
240,292,32536,2,0,L|144:288,1,89.9999972534181,0|2,0:0|0:0,0:0:0:0:
256,120,34088,6,0,P|392:92|432:176,1,239.999992675781,4|0,1:0|1:0,0:0:0:0:
256,288,36847,2,0,P|120:316|80:232,1,239.999992675781,0|0,1:0|1:0,0:0:0:0:
292,200,39605,6,0,P|344:252|344:320,2,119.999996337891,0|0|0,1:0|0:0|1:0,0:0:0:0:
240,108,41674,1,2,0:0:0:0:
188,200,42364,2,0,P|136:252|136:320,2,119.999996337891,0|0|0,1:0|0:0|1:0,0:0:0:0:
240,296,44433,1,2,0:0:0:0:
340,252,45122,6,0,B|368:152|368:152|392:72|320:32,1,239.999992675781,0|0,1:0|1:0,0:0:0:0:
172,252,47881,2,0,B|144:152|144:152|120:72|192:32,2,239.999992675781,0|0|4,1:0|1:0|1:0,0:0:0:0:
256,204,51157,6,0,L|226:97,2,89.999997253418,0|0|0,1:0|1:0|1:0,0:0:0:0:
440,252,53398,2,0,L|470:359,2,89.999997253418,4|0|0,1:0|1:0|1:0,0:0:0:0:
256,52,56157,6,0,P|208:56|152:84,1,89.999997253418,4|0,1:0|1:0,0:0:0:0:
192,160,57191,2,0,P|240:156|296:128,1,89.999997253418,0|0,1:0|1:0,0:0:0:0:
356,96,58226,1,0,1:0:0:0:
440,184,58916,6,0,P|452:232|440:296,1,89.999997253418,4|0,1:0|1:0,0:0:0:0:
360,284,59950,2,0,L|256:296,1,89.999997253418,0|0,1:0|1:0,0:0:0:0:
192,248,60985,1,0,1:0:0:0:
252,144,61674,6,0,B|260:100|260:100|248:44,1,89.999997253418,4|0,1:0|1:0,0:0:0:0:
160,68,62709,2,0,L|68:80,1,89.999997253418,0|0,1:0|1:0,0:0:0:0:
28,160,63743,1,0,1:0:0:0:
108,248,64433,6,0,P|104:300|108:352,2,89.999997253418,4|0|0,1:0|1:0|1:0,0:0:0:0:
180,192,65985,2,0,P|232:192|296:188,1,89.999997253418,0|0,1:0|0:0,0:0:0:0:
372,128,67191,5,4,1:0:0:0:
316,56,67709,1,0,1:0:0:0:
232,92,68226,2,0,L|148:88,1,59.9999981689454,0|0,1:0|1:0,0:0:0:0:
104,148,69088,1,0,1:0:0:0:
144,228,69605,6,0,L|176:292,1,59.9999981689454,0|0,1:0|1:0,0:0:0:0:
256,316,70467,1,0,1:0:0:0:
288,232,70985,5,0,1:0:0:0:
372,268,71502,2,0,P|432:264|472:248,1,89.9999972534181,0|0,1:0|1:0,0:0:0:0:
444,168,72536,6,0,P|440:96|408:48,1,119.999996337891,0|0,1:0|1:0,0:0:0:0:
336,100,73743,2,0,L|272:136,1,59.9999981689454,0|0,1:0|1:0,0:0:0:0:
196,108,74605,1,0,1:0:0:0:
164,192,75122,6,0,L|172:272,1,59.9999981689454,0|0,1:0|1:0,0:0:0:0:
244,304,75985,2,0,P|344:304|392:264,1,149.999995422363,0|0,1:0|1:0,0:0:0:0:
412,192,77364,6,0,L|480:192,2,59.9999981689454,0|0|4,1:0|1:0|1:0,0:0:0:0:
348,128,78571,2,0,L|280:100,1,59.9999981689454,2|0,0:0|1:0,0:0:0:0:
212,144,79433,5,4,1:0:0:0:
240,228,79950,2,0,L|236:304,1,59.9999981689454,2|0,0:0|1:0,0:0:0:0:
156,328,80812,5,4,1:0:0:0:
124,244,81329,2,0,L|128:168,1,59.9999981689454,2|0,0:0|1:0,0:0:0:0:
176,108,82191,6,0,P|164:56|188:0,1,89.9999972534181,4|2,1:0|0:0,0:0:0:0:
256,64,83226,2,0,L|328:64,1,59.9999981689454,0|4,0:0|1:0,0:0:0:0:
384,124,84088,6,0,P|408:192|384:280,1,149.999995422363,2|4,0:0|1:0,0:0:0:0:
304,256,85467,2,0,L|148:248,1,149.999995422363,2|4,0:0|1:0,0:0:0:0:
67,221,86847,6,0,B|75:193|108:149|169:159|169:159|216:164,1,149.999995422363,2|4,0:0|1:0,0:0:0:0:
304,256,88398,2,0,L|376:248,1,59.9999981689454,4|0,1:0|0:0,0:0:0:0:
432,192,89260,6,0,P|420:84|304:80,1,239.999992675781,4|0,1:0|1:0,0:0:0:0:
80,192,92019,2,0,P|92:300|208:304,1,239.999992675781,0|0,1:0|1:0,0:0:0:0:
256,72,94778,6,0,B|256:232|256:232|300:264|296:320,1,239.999992675781,0|0,1:0|1:0,0:0:0:0:
168,96,97536,2,0,P|253:164|346:86,2,239.999992675781,0|0|0,1:0|1:0|1:0,0:0:0:0:
256,72,100812,6,0,L|256:152,1,59.9999981689454,0|2,1:0|0:0,0:0:0:0:
332,180,101674,2,0,P|340:224|332:280,1,89.9999972534181,0|0,1:0|1:0,0:0:0:0:
248,256,102709,2,0,L|172:248,1,59.9999981689454,2|0,0:0|1:0,0:0:0:0:
104,284,103571,5,0,1:0:0:0:
68,200,104088,2,0,P|64:168|72:120,1,59.9999981689454,2|0,0:0|1:0,0:0:0:0:
148,100,104950,2,0,L|308:100,1,149.999995422363,0|4,1:0|1:0,0:0:0:0:
380,64,106329,5,0,1:0:0:0:
440,132,106847,2,0,P|452:184|440:240,1,89.9999972534181,0|0,1:0|1:0,0:0:0:0:
376,276,107881,6,0,L|392:336,2,59.9999981689454,0|0|4,1:0|1:0|1:0,0:0:0:0:
348,188,109088,1,0,1:0:0:0:
324,100,109605,1,0,1:0:0:0:
256,52,112718,6,0,P|304:56|360:84,1,89.999997253418,4|0,1:0|1:0,0:0:0:0:
320,160,113752,2,0,P|272:156|216:128,1,89.999997253418,0|0,1:0|1:0,0:0:0:0:
156,96,114787,1,0,1:0:0:0:
72,184,115477,6,0,P|60:232|72:296,1,89.999997253418,4|0,1:0|1:0,0:0:0:0:
152,284,116511,2,0,L|256:296,1,89.999997253418,0|0,1:0|1:0,0:0:0:0:
320,248,117546,1,0,1:0:0:0:
260,144,118235,6,0,B|252:100|252:100|264:44,1,89.999997253418,4|0,1:0|1:0,0:0:0:0:
352,68,119270,2,0,L|444:80,1,89.999997253418,0|0,1:0|1:0,0:0:0:0:
484,160,120304,1,0,1:0:0:0:
404,248,120994,6,0,P|408:300|404:352,2,89.999997253418,4|0|0,1:0|1:0|1:0,0:0:0:0:
332,192,122546,2,0,P|280:192|216:188,1,89.999997253418,0|0,1:0|1:0,0:0:0:0:
140,128,123752,6,0,P|152:68|176:32,1,89.9999972534181,4|0,1:0|1:0,0:0:0:0:
252,68,124787,2,0,L|324:84,1,59.9999981689454,0|0,1:0|1:0,0:0:0:0:
400,64,125649,1,0,1:0:0:0:
416,152,126166,2,0,L|424:224,1,59.9999981689454,0|0,1:0|1:0,0:0:0:0:
368,284,127028,6,0,P|324:316|228:304,1,149.999995422363,0|0,1:0|1:0,0:0:0:0:
212,220,128407,2,0,L|204:148,1,59.9999981689454,0|0,1:0|0:0,0:0:0:0:
196,72,129270,6,0,P|264:92|288:124,1,89.9999972534181,4|0,1:0|1:0,0:0:0:0:
360,132,130304,2,0,L|424:128,1,59.9999981689454,0|0,1:0|1:0,0:0:0:0:
484,192,131166,2,0,P|492:272|452:328,1,149.999995422363,0|0,1:0|1:0,0:0:0:0:
368,300,132545,5,0,1:0:0:0:
356,212,133063,2,0,L|345:124,1,59.9999981689454,0|0,1:0|1:0,0:0:0:0:
284,88,133925,1,0,1:0:0:0:
128,116,134787,6,0,P|96:216|184:304,1,239.999992675781,4|0,1:0|1:0,0:0:0:0:
384,268,137545,2,0,P|416:168|328:80,1,239.999992675781,4|0,1:0|1:0,0:0:0:0:
300,320,140304,6,0,P|256:332|212:320,2,89.9999972534181,4|0|0,1:0|1:0|1:0,0:0:0:0:
212,64,143063,2,0,P|256:52|300:64,2,89.9999972534181,4|0|0,1:0|1:0|1:0,0:0:0:0:
256,176,144787,6,0,L|256:240,3,59.9999981689454,0|0|0|4,1:0|1:0|1:0|0:1,0:0:0:0:
