osu file format v14

[General]
AudioFilename: burn nightcore.mp3
AudioLeadIn: 0
PreviewTime: 73986
Countdown: 0
SampleSet: Soft
StackLeniency: 0.7
Mode: 0
LetterboxInBreaks: 1
WidescreenStoryboard: 1

[Editor]
Bookmarks: 22541,86615
DistanceSpacing: 1
BeatDivisor: 4
GridSize: 8
TimelineZoom: 1

[Metadata]
Title:Burn (Nightcore Mix)
TitleUnicode:Burn (Nightcore Mix)
Artist:Ellie Goulding
ArtistUnicode:Ellie Goulding
Creator:Bedrock
Version:Scorching
Source:
Tags:synthpop nightcore
BeatmapID:627013
BeatmapSetID:276591

[Difficulty]
HPDrainRate:5
CircleSize:4
OverallDifficulty:8
ApproachRate:9
SliderMultiplier:1.00000000596046
SliderTickRate:1

[Events]
//Background and Video events
0,0,"lemokou.png",0,0
//Break Periods
2,112534,119205
2,138971,146935
//Storyboard Layer 0 (Background)
//Storyboard Layer 1 (Fail)
//Storyboard Layer 2 (Pass)
//Storyboard Layer 3 (Foreground)
//Storyboard Sound Samples

[TimingPoints]
840,287.35632183908,4,2,0,60,1,0
129575,-100,4,3,0,41,0,0
158311,-100,4,3,0,41,0,1
185897,-100,4,3,0,41,0,0

[HitObjects]
104,96,840,5,0,0:0:0:0:
304,240,1271,1,0,0:0:0:0:
408,96,1702,2,0,P|384:80|360:72,1,50.0000002980232
104,288,1989,2,0,P|136:304|248:312,1,150.00000089407
176,40,2851,1,0,0:0:0:0:
144,208,2995,1,0,0:0:0:0:
320,120,3138,2,0,P|352:136|424:240,1,150.00000089407
64,336,4000,1,0,0:0:0:0:
128,40,4288,1,0,0:0:0:0:
424,328,4719,1,0,0:0:0:0:
400,96,5150,5,0,0:0:0:0:
272,208,5294,1,0,0:0:0:0:
96,240,5437,2,0,P|88:192|152:104,1,150.000000894069
203,102,6299,1,0,0:0:0:0:
232,272,6443,1,0,0:0:0:0:
288,120,6587,2,0,P|328:160|376:240,1,150.000000894069
400,336,7449,1,0,0:0:0:0:
160,280,7592,1,0,0:0:0:0:
336,256,7736,2,0,P|368:216|384:160,1,100.000000596046
304,48,8167,2,0,P|272:88|256:144,1,100.000000596046
64,328,8598,5,0,0:0:0:0:
176,256,8742,1,0,0:0:0:0:
184,96,8885,1,0,0:0:0:0:
328,288,9173,1,0,0:0:0:0:
256,192,9460,1,0,0:0:0:0:
240,336,9604,1,0,0:0:0:0:
112,232,9748,1,0,0:0:0:0:
96,96,9891,1,0,0:0:0:0:
32,280,10035,5,0,0:0:0:0:
440,72,11184,6,0,P|400:64|376:64,1,50.000000298023
256,152,11472,2,0,P|248:192|248:216,1,50.000000298023
72,312,11759,2,0,P|112:320|136:320,1,50.000000298023
256,232,12047,2,0,P|264:192|264:168,1,50.000000298023
424,256,12477,1,0,0:0:0:0:
272,240,12765,1,0,0:0:0:0:
208,96,13052,1,0,0:0:0:0:
320,96,13339,1,0,0:0:0:0:
424,128,13626,1,0,0:0:0:0:
256,232,13914,5,0,0:0:0:0:
64,256,14058,2,0,P|56:224|56:192,1,50.000000298023
48,40,14345,1,0,0:0:0:0:
144,160,14489,1,0,0:0:0:0:
408,232,14776,2,0,L|360:184|280:168,1,150.000000894069
208,192,15495,6,0,P|200:168|192:136,1,50.000000298023
392,72,15782,2,0,L|440:96,1,50.000000298023
368,272,16069,2,0,L|336:320,1,50.000000298023
64,304,16357,1,0,0:0:0:0:
256,272,16500,1,0,0:0:0:0:
136,240,16644,1,0,0:0:0:0:
144,144,16788,2,0,P|240:128|256:128,1,100.000000596046
368,240,17362,2,0,P|272:256|256:256,1,100.000000596046
320,128,17937,1,0,0:0:0:0:
192,256,18225,1,0,0:0:0:0:
80,72,19087,6,0,L|80:128,1,50.000000298023
216,120,19375,1,0,0:0:0:0:
80,248,19661,1,0,0:0:0:0:
384,232,20092,2,0,L|448:232,1,50.000000298023
360,136,20380,1,0,0:0:0:0:
240,96,20523,5,0,0:0:0:0:
240,248,20667,1,0,0:0:0:0:
176,176,20811,1,0,0:0:0:0:
304,168,20954,2,0,P|352:160|368:152,1,50.000000298023
400,272,21242,1,0,0:0:0:0:
224,336,21385,1,0,0:0:0:0:
80,224,21673,2,0,L|128:240,1,50.000000298023
344,328,22535,1,0,0:0:0:0:
432,224,22823,2,0,L|384:240,1,50.000000298023
176,320,23397,5,0,0:0:0:0:
320,288,23541,1,0,0:0:0:0:
240,240,23685,2,0,P|240:184|192:96,1,150.000000894069
320,96,24259,1,0,0:0:0:0:
208,72,24690,1,0,0:0:0:0:
112,144,24834,1,0,0:0:0:0:
96,264,24977,6,0,P|120:296|144:312,1,50.000000298023
416,264,25265,2,0,P|392:296|368:312,1,50.000000298023
256,216,25552,2,0,L|256:144,1,50.000000298023
392,80,25839,1,0,0:0:0:0:
448,160,25983,1,0,0:0:0:0:
352,104,26271,1,0,0:0:0:0:
368,192,26415,1,0,0:0:0:0:
256,144,27133,2,0,L|256:200,1,50.000000298023
160,304,27420,1,0,0:0:0:0:
352,304,27564,1,0,0:0:0:0:
136,208,27995,5,0,0:0:0:0:
376,208,28138,1,0,0:0:0:0:
88,112,28282,2,0,P|232:56|296:48,1,200.000001192092
416,112,29144,1,0,0:0:0:0:
416,272,29288,1,0,0:0:0:0:
336,192,29431,2,0,L|120:192,1,200.000001192092
64,144,30294,5,0,0:0:0:0:
64,280,30437,1,0,0:0:0:0:
256,320,30581,2,0,P|312:296|416:176,1,200.000001192092
432,48,31443,1,0,0:0:0:0:
344,136,31587,1,0,0:0:0:0:
256,224,31730,2,0,P|168:136|144:64,1,200.000001192092
160,320,32592,5,0,0:0:0:0:
368,280,32736,1,0,0:0:0:0:
160,232,32880,2,0,P|160:192|248:48,1,200.000001192092
400,64,33742,2,0,P|424:96|432:128,1,50.000000298023
312,200,34029,2,0,P|256:184|128:104,1,200.000001192092
88,112,34891,5,0,0:0:0:0:
256,64,35035,1,0,0:0:0:0:
64,256,35179,2,0,P|112:272|264:288,1,200.000001192092
448,320,36041,1,0,0:0:0:0:
448,184,36184,1,0,0:0:0:0:
368,256,36328,2,0,P|328:256|200:144,1,200.000001192092
72,120,37190,5,0,0:0:0:0:
88,312,37334,1,0,0:0:0:0:
200,280,37477,2,0,L|200:64,1,200.000001192092
440,120,38339,1,0,0:0:0:0:
424,312,38483,1,0,0:0:0:0:
312,280,38627,2,0,L|312:64,1,200.000001192092
176,336,39489,5,0,0:0:0:0:
336,336,39633,1,0,0:0:0:0:
256,256,39776,2,0,L|256:56,1,200.000001192092
184,144,40638,1,0,0:0:0:0:
328,144,40782,1,0,0:0:0:0:
56,128,40926,2,0,P|152:64|248:48,1,200.000001192092
96,272,41644,6,0,L|152:296,1,50.000000298023
416,272,41931,2,0,L|360:296,1,50.000000298023
144,200,42219,1,0,0:0:0:0:
368,200,42650,1,0,0:0:0:0:
256,64,43081,1,0,0:0:0:0:
72,88,43943,5,0,0:0:0:0:
128,288,44087,1,0,0:0:0:0:
368,144,44230,1,0,0:0:0:0:
176,168,44374,1,0,0:0:0:0:
288,296,44518,2,0,L|384:248,1,100.000000596046
288,216,44949,2,0,L|192:168,1,100.000000596046
288,136,45380,2,0,L|384:88,1,100.000000596046
88,312,45954,5,0,0:0:0:0:
168,72,46098,1,0,0:0:0:0:
312,272,46242,1,0,0:0:0:0:
64,208,46385,1,0,0:0:0:0:
376,160,46529,1,0,0:0:0:0:
200,304,46673,1,0,0:0:0:0:
88,128,46817,2,0,P|136:160|192:176,1,100.000000596046
424,128,47248,2,0,P|376:160|320:176,1,100.000000596046
256,232,47679,2,0,L|256:336,1,100.000000596046
256,152,48110,2,0,L|256:48,1,100.000000596046
168,96,48541,5,0,0:0:0:0:
344,288,48684,1,0,0:0:0:0:
344,96,48828,1,0,0:0:0:0:
168,288,48971,1,0,0:0:0:0:
80,144,49115,2,0,L|64:32,1,100.000000596046
304,56,49546,2,0,L|416:40,1,100.000000596046
432,240,49977,2,0,L|448:352,1,100.000000596046
208,328,50408,2,0,L|96:344,1,100.000000596046
288,240,50839,5,0,0:0:0:0:
256,80,50983,1,0,0:0:0:0:
80,168,51127,1,0,0:0:0:0:
376,160,51271,1,0,0:0:0:0:
192,232,51414,2,0,L|192:336,1,100.000000596046
320,152,51845,2,0,L|320:48,1,100.000000596046
296,256,52276,2,0,L|396:256,1,100.000000596046
216,128,52707,2,0,B|176:128|176:128|160:104|160:104|136:128|136:128,1,100.000000596046
64,288,53138,5,0,0:0:0:0:
224,224,53282,1,0,0:0:0:0:
104,64,53426,1,0,0:0:0:0:
320,96,53569,1,0,0:0:0:0:
232,288,53713,2,0,P|312:280|344:272,1,100.000000596046
280,96,54144,2,0,P|200:104|168:112,1,100.000000596046
160,168,54575,2,0,P|168:248|176:280,1,100.000000596046
352,216,55006,2,0,P|344:136|336:104,1,100.000000596046
120,304,55437,5,0,0:0:0:0:
320,192,55581,1,0,0:0:0:0:
120,224,55725,2,0,L|144:168,1,50.000000298023
216,80,56012,2,0,P|288:48|368:40,1,150.000000894069
368,56,57018,6,0,L|400:112,1,50.000000298023
360,336,57449,1,0,0:0:0:0:
128,296,57592,1,0,0:0:0:0:
304,248,57736,1,0,0:0:0:0:
192,136,57880,1,0,0:0:0:0:
56,56,58023,1,0,0:0:0:0:
56,208,58167,1,0,0:0:0:0:
336,168,58454,1,0,0:0:0:0:
296,64,58742,2,0,L|272:48,1,25.0000001490115
432,224,59029,2,0,L|424:256,1,25.0000001490115
296,296,59173,2,0,L|248:288,1,25.0000001490115
184,176,59317,2,0,L|192:152,1,25.0000001490115
48,320,59604,1,0,0:0:0:0:
360,200,59891,5,0,0:0:0:0:
128,80,60035,1,0,0:0:0:0:
176,304,60179,1,0,0:0:0:0:
288,104,60322,1,0,0:0:0:0:
392,80,60466,2,0,P|416:120|440:240,1,150.000000894069
312,336,61041,1,0,0:0:0:0:
216,232,61903,5,0,0:0:0:0:
216,152,62046,1,0,0:0:0:0:
296,152,62190,1,0,0:0:0:0:
296,232,62333,1,0,0:0:0:0:
223,277,62477,1,0,0:0:0:0:
186,175,62620,1,0,0:0:0:0:
288,138,62764,1,0,0:0:0:0:
325,240,62907,1,0,0:0:0:0:
247,326,63052,1,0,0:0:0:0:
153,215,63195,1,0,0:0:0:0:
264,121,63339,1,0,0:0:0:0:
358,232,63482,1,0,0:0:0:0:
256,344,63627,1,0,0:0:0:0:
128,264,63771,1,0,0:0:0:0:
384,264,63914,1,0,0:0:0:0:
216,208,64058,2,0,P|184:192|160:176,1,50.000000298023
296,208,64345,2,0,P|328:192|352:176,1,50.000000298023
256,80,64776,1,0,0:0:0:0:
64,104,65064,6,0,L|64:160,1,50.000000298023
104,256,65351,1,0,0:0:0:0:
224,192,65495,1,0,0:0:0:0:
264,90,65639,2,0,L|264:40,1,50.000000298023
416,130,65926,1,0,0:0:0:0:
376,232,66070,2,0,L|376:282,1,50.000000298023,8|0,0:0|0:0,0:0:0:0:
176,280,66357,6,0,P|160:312|136:328,1,50.000000298023
176,144,66644,1,0,0:0:0:0:
165,239,66788,2,0,P|143:267|116:279,1,50.000000298023
191,106,67075,1,0,0:0:0:0:
360,160,67219,2,0,L|312:184,1,50.000000298023,8|0,0:0|0:0,0:0:0:0:
48,200,67506,6,0,L|96:216,1,50.000000298023
256,256,67794,1,0,0:0:0:0:
104,136,67937,2,0,L|160:176,1,50.000000298023
272,272,68225,1,0,0:0:0:0:
184,96,68368,2,0,L|208:152,1,50.000000298023,8|0,0:0|0:0,0:0:0:0:
416,120,68656,6,0,L|368:160,1,50.000000298023
384,312,68943,1,0,0:0:0:0:
264,96,69087,2,0,L|248:160,1,50.000000298023
304,264,69374,1,0,0:0:0:0:
56,240,69518,2,0,P|48:200|56:176,1,50.000000298023,8|0,0:0|0:0,0:0:0:0:
400,144,69805,6,0,L|344:168,1,50.000000298023
184,224,70092,1,0,0:0:0:0:
240,56,70236,2,0,L|272:120,1,50.000000298023
336,264,70523,1,0,0:0:0:0:
128,144,70667,2,0,P|120:104|120:80,1,50.000000298023,8|0,0:0|0:0,0:0:0:0:
104,280,70954,6,0,L|144:320,1,50.000000298023
344,336,71242,1,0,0:0:0:0:
480,200,71385,2,0,L|432:232,1,50.000000298023
224,224,71673,1,0,0:0:0:0:
344,80,71817,2,0,L|392:104,1,50.000000298023,8|0,0:0|0:0,0:0:0:0:
200,112,72104,5,0,0:0:0:0:
368,216,72248,1,0,0:0:0:0:
120,224,72391,1,0,0:0:0:0:
360,240,72535,1,0,0:0:0:0:
224,336,72679,1,0,0:0:0:0:
400,224,72822,5,0,0:0:0:0:
144,144,72966,1,0,0:0:0:0:
352,120,73109,2,0,L|312:224,1,100.000000596046
280,296,73540,1,0,0:0:0:0:
256,192,73684,2,0,L|256:160,1,25.0000001490115
56,120,73972,5,0,0:0:0:0:
56,264,74115,1,0,0:0:0:0:
136,160,74259,2,0,P|160:192|312:256,1,200.000001192092
456,120,75121,1,0,0:0:0:0:
456,264,75264,1,0,0:0:0:0:
376,160,75408,2,0,P|352:192|200:256,1,200.000001192092
120,336,76271,5,0,0:0:0:0:
208,160,76415,1,0,0:0:0:0:
80,232,76558,2,0,P|88:56|96:48,1,200.000001192092
392,336,77420,1,0,0:0:0:0:
304,160,77564,1,0,0:0:0:0:
432,232,77707,2,0,P|424:56|416:48,1,200.000001192092
320,280,78569,5,0,0:0:0:0:
96,280,78713,1,0,0:0:0:0:
256,192,78857,2,0,P|272:160|400:40,1,200.000001192092
192,280,79719,1,0,0:0:0:0:
416,280,79862,1,0,0:0:0:0:
256,192,80007,2,0,P|240:160|112:40,1,200.000001192092
72,112,80868,5,0,0:0:0:0:
184,328,81012,1,0,0:0:0:0:
304,280,81156,2,0,P|208:232|144:152,1,200.000001192092
440,112,82018,1,0,0:0:0:0:
328,328,82162,1,0,0:0:0:0:
208,280,82306,2,0,P|304:232|368:152,1,200.000001192092
88,192,83167,5,0,0:0:0:0:
192,192,83311,1,0,0:0:0:0:
304,192,83454,2,0,P|360:184|464:80,1,200.000001192092
424,192,84317,1,0,0:0:0:0:
320,192,84461,1,0,0:0:0:0:
208,192,84604,2,0,P|152:200|48:304,1,200.000001192092
256,264,85466,5,0,0:0:0:0:
256,80,85610,1,0,0:0:0:0:
168,144,85753,2,0,B|168:296|168:296|216:336,1,200.000001192092
256,120,86615,1,0,0:0:0:0:
256,304,86759,1,0,0:0:0:0:
344,240,86902,2,0,B|344:88|344:88|296:48,1,200.000001192092
128,128,87621,6,0,L|192:152,1,50.000000298023
384,256,87908,2,0,L|320:232,1,50.000000298023
256,192,88196,1,0,0:0:0:0:
56,48,88627,1,0,0:0:0:0:
56,336,89058,1,0,0:0:0:0:
384,128,89920,6,0,L|320:152,1,50.000000298023
128,256,90207,2,0,L|192:232,1,50.000000298023
256,192,90495,1,0,0:0:0:0:
456,48,90926,1,0,0:0:0:0:
456,336,91357,1,0,0:0:0:0:
72,312,91931,5,0,0:0:0:0:
328,144,92075,1,0,0:0:0:0:
88,64,92219,1,0,0:0:0:0:
240,264,92362,1,0,0:0:0:0:
416,56,92506,1,0,0:0:0:0:
96,192,92650,1,0,0:0:0:0:
208,152,92794,2,0,L|208:32,1,100.000000596046
304,232,93225,2,0,L|304:352,1,100.000000596046
176,136,93656,2,0,L|176:16,1,100.000000596046
336,248,94087,2,0,L|336:368,1,100.000000596046
136,192,94518,5,0,0:0:0:0:
80,120,94661,1,0,0:0:0:0:
376,192,94805,1,0,0:0:0:0:
432,264,94948,1,0,0:0:0:0:
288,136,95092,2,0,P|296:88|320:40,1,100.000000596046
224,248,95523,2,0,P|216:296|192:344,1,100.000000596046
312,224,95954,2,0,P|360:232|408:256,1,100.000000596046
200,160,96385,2,0,P|152:152|104:128,1,100.000000596046
144,232,96817,5,0,0:0:0:0:
368,152,96960,1,0,0:0:0:0:
224,80,97104,1,0,0:0:0:0:
288,304,97248,1,0,0:0:0:0:
216,232,97391,2,0,P|224:272|184:320,1,100.000000596046
296,152,97822,2,0,P|288:112|328:64,1,100.000000596046
216,152,98253,2,0,P|176:160|128:120,1,100.000000596046
296,232,98684,2,0,B|328:224|328:224|344:240|344:240|368:240|368:240|384:256,1,100.000000596046
144,128,99115,5,0,0:0:0:0:
88,304,99259,1,0,0:0:0:0:
208,216,99403,1,0,0:0:0:0:
336,328,99547,1,0,0:0:0:0:
320,144,99690,2,0,L|408:80,1,100.000000596046
320,240,100121,2,0,L|408:304,1,100.000000596046
192,240,100552,2,0,L|104:304,1,100.000000596046
192,144,100983,2,0,L|104:80,1,100.000000596046
48,272,101558,5,0,0:0:0:0:
280,320,101702,1,0,0:0:0:0:
96,184,101845,2,0,P|128:200|288:232,1,200.000001192092
432,176,102707,1,0,0:0:0:0:
248,104,102851,1,0,0:0:0:0:
320,144,102995,2,0,P|344:192|296:320,1,200.000001192092
136,96,103857,5,0,0:0:0:0:
88,240,104000,1,0,0:0:0:0:
208,152,104144,2,0,P|280:160|400:216,1,200.000001192092
216,80,105006,1,0,0:0:0:0:
264,296,105150,1,0,0:0:0:0:
144,144,105294,2,0,P|144:216|192:336,1,200.000001192092
64,280,106156,5,0,0:0:0:0:
344,224,106299,1,0,0:0:0:0:
160,56,106443,2,0,B|208:96|280:120|280:120|264:192,1,200.000001192092
448,280,107305,1,0,0:0:0:0:
168,224,107448,1,0,0:0:0:0:
352,56,107592,2,0,B|304:96|232:120|232:120|248:192,1,200.000001192092
64,272,108454,5,0,0:0:0:0:
328,328,108598,1,0,0:0:0:0:
296,248,108742,2,0,B|256:200|176:128|176:128|136:152,1,200.000001192092
448,272,109604,1,0,0:0:0:0:
184,328,109748,1,0,0:0:0:0:
216,248,109892,2,0,B|256:200|336:128|336:128|376:152,1,200.000001192092
256,192,110610,12,0,112334,0:0:0:0:
168,144,119805,5,0,0:0:0:0:
344,240,119949,1,0,0:0:0:0:
112,272,120092,1,0,0:0:0:0:
400,112,120236,1,0,0:0:0:0:
256,192,120380,1,0,0:0:0:0:
256,208,120811,1,0,0:0:0:0:
256,224,121242,1,0,0:0:0:0:
256,320,121817,1,0,0:0:0:0:
160,280,122104,5,0,0:0:0:0:
296,96,122248,1,0,0:0:0:0:
408,240,122391,1,0,0:0:0:0:
192,176,122535,1,0,0:0:0:0:
56,272,122679,1,0,0:0:0:0:
72,256,123110,1,0,0:0:0:0:
88,240,123541,1,0,0:0:0:0:
168,104,124403,5,0,0:0:0:0:
248,232,124546,1,0,0:0:0:0:
344,280,124690,1,0,0:0:0:0:
264,152,124833,1,0,0:0:0:0:
72,272,124977,2,0,P|112:288|184:288,1,100.000000596046
440,112,125408,2,0,P|400:96|328:96,1,100.000000596046
256,144,125839,2,0,L|256:256,1,100.000000596046
104,168,126414,1,0,0:0:0:0:
384,264,126702,5,0,0:0:0:0:
328,72,126845,1,0,0:0:0:0:
232,256,126989,1,0,0:0:0:0:
448,144,127133,1,0,0:0:0:0:
112,120,127276,2,0,P|152:112|224:104,1,100.000000596046
400,264,127707,2,0,P|360:272|288:280,1,100.000000596046
232,192,128138,2,0,L|304:192,2,50.000000298023,0|0|0,0:0|0:0|0:0,0:0:0:0:
200,280,129000,5,0,0:0:0:0:
312,104,129144,1,0,0:0:0:0:
392,192,129288,1,0,0:0:0:0:
256,128,129431,1,0,0:0:0:0:
256,192,129575,6,0,L|304:240,1,50.000000298023,8|4,0:0|0:0,0:0:0:0:
384,304,129862,1,4,0:0:0:0:
288,304,130006,2,0,L|216:304,1,50.000000298023,8|4,0:0|0:0,0:0:0:0:
288,208,130294,1,4,0:0:0:0:
384,208,130437,2,0,L|384:144,1,50.000000298023,8|4,0:0|0:0,0:0:0:0:
136,48,130725,6,0,P|120:88|120:112,1,50.000000298023,8|4,0:0|0:0,0:0:0:0:
256,136,131012,1,4,0:0:0:0:
376,48,131156,2,0,P|392:88|392:112,1,50.000000298023,8|4,0:0|0:0,0:0:0:0:
256,160,131443,1,4,0:0:0:0:
256,256,131587,2,0,L|256:320,1,50.000000298023,8|4,0:0|0:0,0:0:0:0:
168,208,131874,6,0,L|112:208,1,50.000000298023,8|4,0:0|0:0,0:0:0:0:
64,112,132161,1,4,0:0:0:0:
160,96,132305,2,0,L|216:96,1,50.000000298023,8|4,0:0|0:0,0:0:0:0:
264,192,132592,1,4,0:0:0:0:
352,104,132736,2,0,P|400:112|416:120,1,50.000000298023,8|4,0:0|0:0,0:0:0:0:
40,232,133023,6,0,P|64:248|88:256,1,50.000000298023,8|4,0:0|0:0,0:0:0:0:
224,136,133311,1,4,0:0:0:0:
192,336,133454,2,0,P|224:336|264:328,1,50.000000298023,8|4,0:0|0:0,0:0:0:0:
400,232,133742,1,4,0:0:0:0:
304,80,133885,2,0,P|280:64|240:56,1,50.000000298023,8|4,0:0|0:0,0:0:0:0:
120,240,134173,6,0,P|160:256|184:256,1,50.000000298023,8|4,0:0|0:0,0:0:0:0:
408,56,134460,1,4,0:0:0:0:
184,48,134604,2,0,P|152:64|136:80,1,50.000000298023,8|4,0:0|0:0,0:0:0:0:
272,184,134891,1,4,0:0:0:0:
416,320,135035,2,0,P|384:336|360:344,1,50.000000298023,8|4,0:0|0:0,0:0:0:0:
392,240,135322,6,0,P|352:256|328:256,1,50.000000298023,8|4,0:0|0:0,0:0:0:0:
104,56,135609,1,4,0:0:0:0:
328,48,135753,2,0,P|360:64|376:80,1,50.000000298023,8|4,0:0|0:0,0:0:0:0:
240,184,136040,1,4,0:0:0:0:
96,320,136184,2,0,P|128:336|152:344,1,50.000000298023,8|4,0:0|0:0,0:0:0:0:
144,104,136472,6,4,L|208:104,1,50.000000298023
368,104,136759,2,4,L|304:104,1,50.000000298023
128,168,137046,2,4,L|160:216,1,50.000000298023,0|0,0:0|0:0,0:0:0:0:
384,168,137334,2,4,L|352:216,1,50.000000298023,0|0,0:0|0:0,0:0:0:0:
336,232,137621,5,0,0:0:0:0:
320,256,137693,1,0,0:0:0:0:
296,272,137765,1,0,0:0:0:0:
272,280,137837,1,0,0:0:0:0:
248,280,137908,1,0,0:0:0:0:
224,272,137980,1,0,0:0:0:0:
200,256,138052,1,0,0:0:0:0:
184,240,138124,1,0,0:0:0:0:
176,216,138196,1,0,0:0:0:0:
176,192,138268,1,0,0:0:0:0:
184,168,138339,1,0,0:0:0:0:
192,144,138411,1,0,0:0:0:0:
184,120,138483,1,0,0:0:0:0:
176,96,138555,1,0,0:0:0:0:
160,72,138627,1,0,0:0:0:0:
136,56,138699,1,0,0:0:0:0:
112,48,138771,1,2,0:0:0:0:
104,232,147535,5,0,0:0:0:0:
408,152,147679,1,0,0:0:0:0:
296,216,147822,2,0,P|240:184|104:152,1,200.000001192092
296,72,148684,1,0,0:0:0:0:
152,296,148828,1,0,0:0:0:0:
352,160,148972,2,0,P|248:200|160:216,1,200.000001192092
88,120,149834,5,0,0:0:0:0:
312,320,149977,1,0,0:0:0:0:
384,88,150121,2,0,L|240:256,1,200.000001192092
96,304,150983,1,0,0:0:0:0:
176,72,151127,1,0,0:0:0:0:
408,112,151271,2,0,P|312:200|240:248,1,200.000001192092
88,176,151989,6,0,L|160:176,1,50.000000298023
448,288,152276,2,0,L|392:288,1,50.000000298023
128,312,152564,1,0,0:0:0:0:
384,72,152995,1,0,0:0:0:0:
64,56,153426,1,0,0:0:0:0:
192,80,154288,5,0,0:0:0:0:
256,296,154431,1,0,0:0:0:0:
320,80,154575,1,0,0:0:0:0:
128,200,154719,1,0,0:0:0:0:
384,200,154862,1,0,0:0:0:0:
368,200,155294,1,0,0:0:0:0:
352,200,155725,1,0,0:0:0:0:
256,192,156012,12,0,157161,0:0:0:0:
120,248,157449,5,0,0:0:0:0:
240,128,157592,1,0,0:0:0:0:
288,288,157736,1,0,0:0:0:0:
106,221,157880,1,0,0:0:0:0:
305,128,158023,1,0,0:0:0:0:
300,337,158167,1,0,0:0:0:0:
144,120,158311,2,0,P|176:208|192:232,1,100.000000596046
368,120,158742,2,0,P|336:208|320:232,1,100.000000596046
96,336,159173,2,0,L|96:232,1,100.000000596046
416,336,159604,2,0,L|416:232,1,100.000000596046
352,192,160035,5,0,0:0:0:0:
160,304,160179,1,0,0:0:0:0:
224,48,160322,1,0,0:0:0:0:
296,304,160466,1,0,0:0:0:0:
112,192,160610,2,0,L|72:88,1,100.000000596046
400,192,161041,2,0,L|440:88,1,100.000000596046
176,224,161472,2,0,P|176:280|208:320,1,100.000000596046
336,224,161903,2,0,P|336:280|304:320,1,100.000000596046
256,192,162334,5,0,0:0:0:0:
368,48,162477,1,0,0:0:0:0:
80,128,162621,1,0,0:0:0:0:
184,136,162765,1,0,0:0:0:0:
192,136,162837,1,0,0:0:0:0:
200,136,162908,2,0,L|264:104,1,50.000000298023,0|0,0:0|0:0,0:0:0:0:
328,248,163196,1,0,0:0:0:0:
320,248,163268,1,0,0:0:0:0:
312,248,163339,2,0,L|248:280,1,50.000000298023,0|0,0:0|0:0,0:0:0:0:
80,256,163627,1,0,0:0:0:0:
80,256,163699,1,0,0:0:0:0:
80,256,163771,2,0,L|80:296|80:328,1,50.000000298023
80,128,164058,1,0,0:0:0:0:
80,128,164130,1,0,0:0:0:0:
80,128,164202,2,0,L|80:88|80:56,1,50.000000298023
376,80,164489,5,0,0:0:0:0:
208,64,164633,1,0,0:0:0:0:
184,232,164776,1,0,0:0:0:0:
360,248,164920,1,0,0:0:0:0:
288,160,165064,1,0,0:0:0:0:
256,336,165207,1,0,0:0:0:0:
96,304,165351,1,10,0:0:0:0:
256,232,165495,1,0,0:0:0:0:
136,304,165639,1,10,0:0:0:0:
128,160,165782,1,0,0:0:0:0:
256,232,165926,1,0,0:0:0:0:
256,40,166069,2,0,L|256:104,1,50.000000298023
256,184,166357,1,0,0:0:0:0:
256,336,166500,2,0,L|256:272,1,50.000000298023
368,256,166788,1,0,0:0:0:0:
208,224,166931,1,0,0:0:0:0:
336,272,167075,5,0,0:0:0:0:
88,312,167219,1,0,0:0:0:0:
136,64,167362,2,0,P|288:152|304:168,1,200.000001192092
392,112,168225,1,0,0:0:0:0:
184,256,168368,1,0,0:0:0:0:
96,176,168512,2,0,P|264:128|312:120,1,200.000001192092
296,80,169374,1,0,0:0:0:0:
304,304,169518,1,0,0:0:0:0:
176,160,169661,2,0,L|368:224,1,200.000001192092
80,280,170523,1,0,0:0:0:0:
208,80,170667,1,0,0:0:0:0:
272,144,170811,2,0,B|168:160|168:160|152:200|152:200|120:256,1,200.000001192092
360,120,171673,5,0,0:0:0:0:
264,304,171817,1,0,0:0:0:0:
208,256,171960,2,0,B|248:208|248:208|352:240|352:240|384:216,1,200.000001192092
208,72,172822,1,0,0:0:0:0:
56,224,172966,1,0,0:0:0:0:
80,120,173110,2,0,B|136:144|136:144|128:208|128:208|208:192,1,200.000001192092
376,112,173972,1,0,0:0:0:0:
208,272,174115,1,0,0:0:0:0:
408,272,174259,2,0,L|360:216,1,50.000000298023
272,112,174546,1,0,0:0:0:0:
88,184,174690,1,0,0:0:0:0:
256,200,174834,1,0,0:0:0:0:
72,272,174977,1,0,0:0:0:0:
152,64,175121,2,0,L|224:56,1,50.000000298023
440,64,175408,2,0,B|432:144|432:144|376:208|376:208|400:232,1,200.000001192092
392,296,176271,5,0,0:0:0:0:
184,256,176414,1,0,0:0:0:0:
184,256,176558,2,0,B|128:208|128:208|176:144|176:144|128:104,1,200.000001192092
312,136,177420,1,0,0:0:0:0:
48,200,177564,1,0,0:0:0:0:
136,272,177707,2,0,B|192:216|192:216|176:88,1,200.000001192092
376,80,178569,5,0,0:0:0:0:
320,272,178713,1,0,0:0:0:0:
280,80,178857,2,0,B|312:144|312:144|376:184|376:184|400:248,1,200.000001192092
144,96,179719,1,0,0:0:0:0:
256,288,179862,1,0,0:0:0:0:
376,160,180006,2,0,B|296:208|296:208|224:192|224:192|192:232,1,200.000001192092
240,48,180725,5,0,0:0:0:0:
312,256,180868,1,0,0:0:0:0:
328,112,181012,1,0,0:0:0:0:
184,200,181156,1,0,0:0:0:0:
144,96,181299,2,0,L|192:112,1,50.000000298023
208,240,181587,1,0,0:0:0:0:
352,80,181730,2,0,L|336:128,1,50.000000298023
208,144,182018,1,0,0:0:0:0:
368,288,182161,2,0,L|320:272,1,50.000000298023
304,144,182449,1,0,0:0:0:0:
104,112,183023,5,0,0:0:0:0:
296,224,183167,1,0,0:0:0:0:
96,296,183311,1,0,0:0:0:0:
296,48,183454,1,0,0:0:0:0:
168,40,183598,2,0,L|208:88,1,50.000000298023
184,184,183885,1,0,0:0:0:0:
408,104,184029,2,0,L|360:144,1,50.000000298023
264,120,184316,1,0,0:0:0:0:
344,344,184460,2,0,L|304:296,1,50.000000298023
328,200,184747,1,0,0:0:0:0:
256,192,185035,12,0,185897,0:0:0:0:
