osu file format v12

[General]
AudioFilename: Ellie Goulding - Burn.mp3
AudioLeadIn: 0
PreviewTime: 111339
Countdown: 0
SampleSet: Normal
StackLeniency: 0.7
Mode: 1
LetterboxInBreaks: 0
WidescreenStoryboard: 1

[Editor]
DistanceSpacing: 1.2
BeatDivisor: 4
GridSize: 4

[Metadata]
Title:Burn
TitleUnicode:Burn
Artist:Ellie Goulding
ArtistUnicode:Ellie Goulding
Creator:Nashmun
Version:Kantan
Source:
Tags:Halcyon Days electropop
BeatmapID:351269
BeatmapSetID:140698

[Difficulty]
HPDrainRate:4
CircleSize:5
OverallDifficulty:3
ApproachRate:5
SliderMultiplier:1.2
SliderTickRate:1

[Events]
//Background and Video events
0,0,"42_52___let_it_burn__by_mylittlebluesky-d6r0y0v.jpg",0,0
//Break Periods
//Storyboard Layer 0 (Background)
//Storyboard Layer 1 (Fail)
//Storyboard Layer 2 (Pass)
//Storyboard Layer 3 (Foreground)
//Storyboard Sound Samples
//Background Colour Transformations
3,100,163,162,255

[TimingPoints]
985,344.827586206897,4,1,0,100,1,0
56157,-100,4,1,0,100,0,1
67191,-100,4,1,0,100,0,0
111339,344.827586206897,4,1,0,100,1,0
112718,-100,4,1,0,100,0,1
144787,-100,4,1,0,100,0,0

[Colours]
Combo1 : 0,72,255
Combo2 : 250,85,5

[HitObjects]
256,188,985,1,8,0:0:0:0:
256,188,2019,1,8,0:0:0:0:
256,188,2364,1,0,0:0:0:0:
256,188,3398,1,0,0:0:0:0:
256,188,3743,1,8,0:0:0:0:
256,188,4778,1,8,0:0:0:0:
256,188,5122,1,0,0:0:0:0:
256,188,5640,1,0,0:0:0:0:
256,188,6157,1,0,0:0:0:0:
256,188,6502,1,8,0:0:0:0:
256,188,7536,1,8,0:0:0:0:
256,188,7881,1,0,0:0:0:0:
256,188,8916,1,0,0:0:0:0:
256,188,9260,1,0,0:0:0:0:
256,188,9778,1,8,0:0:0:0:
256,188,10295,1,8,0:0:0:0:
256,188,10640,1,8,0:0:0:0:
256,188,11157,1,0,0:0:0:0:
256,188,11674,1,0,0:0:0:0:
256,188,12019,1,0,0:0:0:0:
256,188,13053,1,0,0:0:0:0:
256,188,13398,1,8,0:0:0:0:
256,188,14433,1,8,0:0:0:0:
256,188,14778,1,0,0:0:0:0:
256,188,15812,1,0,0:0:0:0:
256,188,16157,1,8,0:0:0:0:
256,188,16674,1,8,0:0:0:0:
76,228,17536,1,0,0:0:0:0:
256,192,18571,1,0,0:0:0:0:
256,192,18916,1,8,0:0:0:0:
256,192,19950,1,8,0:0:0:0:
256,192,20295,1,0,0:0:0:0:
256,192,21329,1,0,0:0:0:0:
256,192,21674,1,8,0:0:0:0:
256,192,22191,1,8,0:0:0:0:
256,192,22709,1,8,0:0:0:0:
256,192,23053,1,0,0:0:0:0:
256,192,24088,1,0,0:0:0:0:
256,192,24433,1,8,0:0:0:0:
256,192,24950,1,8,0:0:0:0:
256,192,25467,1,8,0:0:0:0:
256,192,25812,1,0,0:0:0:0:
256,192,26847,1,0,0:0:0:0:
256,192,27191,1,8,0:0:0:0:
256,192,27709,1,8,0:0:0:0:
256,192,28226,1,8,0:0:0:0:
256,192,28571,1,0,0:0:0:0:
256,192,29605,1,0,0:0:0:0:
256,192,29950,1,8,0:0:0:0:
256,192,30467,1,8,0:0:0:0:
256,192,30985,1,8,0:0:0:0:
256,192,31329,1,0,0:0:0:0:
256,192,32364,1,0,0:0:0:0:
256,192,32709,1,8,0:0:0:0:
256,192,33226,1,8,0:0:0:0:
256,192,33743,1,8,0:0:0:0:
256,188,34088,1,0,0:0:0:0:
256,188,34606,1,0,0:0:0:0:
256,188,35123,1,8,0:0:0:0:
256,188,35468,1,0,0:0:0:0:
256,188,35985,1,0,0:0:0:0:
256,188,36502,1,8,0:0:0:0:
256,188,36847,1,0,0:0:0:0:
256,188,37191,1,0,0:0:0:0:
256,188,37364,1,0,0:0:0:0:
256,188,37882,1,8,0:0:0:0:
36,188,38226,2,0,P|300:188|528:192,1,480
256,188,40123,1,0,0:0:0:0:
256,188,40640,1,8,0:0:0:0:
256,188,40985,1,0,0:0:0:0:
256,188,41502,1,0,0:0:0:0:
256,188,42019,1,8,0:0:0:0:
256,188,42364,1,0,0:0:0:0:
256,188,42709,1,0,0:0:0:0:
256,188,42881,1,0,0:0:0:0:
256,188,43399,1,8,0:0:0:0:
24,184,43744,2,0,P|288:184|516:188,1,480
256,188,45640,1,8,0:0:0:0:
256,188,46157,1,0,0:0:0:0:
256,188,46502,1,8,0:0:0:0:
256,188,46760,1,8,0:0:0:0:
256,188,47019,1,8,0:0:0:0:
256,188,47537,1,0,0:0:0:0:
256,188,47880,1,8,0:0:0:0:
256,188,48139,1,8,0:0:0:0:
256,188,48398,1,8,0:0:0:0:
256,188,48916,5,0,0:0:0:0:
256,188,49261,1,8,0:0:0:0:
256,188,49519,1,8,0:0:0:0:
256,188,49778,1,8,0:0:0:0:
256,188,50295,1,8,0:0:0:0:
256,192,50640,5,4,0:0:0:0:
256,192,51157,1,4,0:0:0:0:
256,192,51674,1,4,0:0:0:0:
256,192,52191,1,12,0:0:0:0:
256,192,53398,1,4,0:0:0:0:
256,192,53916,1,4,0:0:0:0:
256,192,54433,1,4,0:0:0:0:
256,188,56157,5,4,0:0:0:0:
256,188,56674,1,4,0:0:0:0:
256,188,57191,1,8,0:0:0:0:
256,188,57536,1,0,0:0:0:0:
256,188,58053,1,0,0:0:0:0:
256,188,58571,1,8,0:0:0:0:
256,188,58916,1,4,0:0:0:0:
256,188,59433,1,4,0:0:0:0:
256,188,59950,1,8,0:0:0:0:
256,188,60295,1,0,0:0:0:0:
256,188,60812,1,0,0:0:0:0:
256,188,61329,1,8,0:0:0:0:
256,188,61674,1,12,0:0:0:0:
256,188,62191,1,12,0:0:0:0:
256,188,62709,1,8,0:0:0:0:
256,188,63053,1,0,0:0:0:0:
256,188,63398,1,0,0:0:0:0:
256,188,63571,1,0,0:0:0:0:
256,188,64088,1,8,0:0:0:0:
256,188,64433,1,4,0:0:0:0:
256,188,64778,1,0,0:0:0:0:
256,188,64951,1,0,0:0:0:0:
256,188,65467,1,8,0:0:0:0:
256,188,65812,1,12,0:0:0:0:
256,188,66157,1,8,0:0:0:0:
256,188,66330,1,8,0:0:0:0:
256,188,66847,1,12,0:0:0:0:
256,188,67191,1,4,0:0:0:0:
256,188,67709,1,0,0:0:0:0:
256,188,68571,1,0,0:0:0:0:
256,188,69088,1,0,0:0:0:0:
256,188,69605,1,8,0:0:0:0:
256,188,69950,1,0,0:0:0:0:
256,188,70467,1,0,0:0:0:0:
256,188,71329,1,0,0:0:0:0:
256,188,71847,1,0,0:0:0:0:
256,188,72709,1,8,0:0:0:0:
256,188,73226,1,8,0:0:0:0:
256,188,73743,1,8,0:0:0:0:
256,188,74088,1,0,0:0:0:0:
256,188,74605,1,0,0:0:0:0:
256,188,75467,1,8,0:0:0:0:
256,188,75985,1,8,0:0:0:0:
256,188,76502,1,8,0:0:0:0:
36,188,76847,2,0,P|300:188|528:192,1,480
256,188,78743,1,0,0:0:0:0:
256,188,79260,1,8,0:0:0:0:
256,188,79605,1,0,0:0:0:0:
256,188,80640,1,8,0:0:0:0:
256,188,80985,1,0,0:0:0:0:
256,188,81502,1,0,0:0:0:0:
256,188,82364,1,0,0:0:0:0:
256,188,82881,1,0,0:0:0:0:
256,188,83398,1,8,0:0:0:0:
256,188,83743,1,0,0:0:0:0:
256,188,84260,1,0,0:0:0:0:
256,188,84777,1,8,0:0:0:0:
256,188,85122,1,0,0:0:0:0:
256,188,85640,1,0,0:0:0:0:
256,188,86157,1,8,0:0:0:0:
256,188,86502,1,0,0:0:0:0:
256,188,87019,1,0,0:0:0:0:
256,188,87536,1,8,0:0:0:0:
36,188,87881,2,0,P|300:188|528:192,1,480
256,188,89778,1,0,0:0:0:0:
256,188,90295,1,8,0:0:0:0:
256,188,90640,1,0,0:0:0:0:
256,188,91157,1,0,0:0:0:0:
256,188,91674,1,8,0:0:0:0:
256,188,92019,1,0,0:0:0:0:
256,188,92364,1,0,0:0:0:0:
256,188,92536,1,0,0:0:0:0:
256,188,93054,1,8,0:0:0:0:
36,188,93398,2,0,P|300:188|528:192,1,480
256,188,95295,1,0,0:0:0:0:
256,188,95812,1,8,0:0:0:0:
256,188,96157,1,0,0:0:0:0:
256,188,96674,1,0,0:0:0:0:
256,188,97191,1,8,0:0:0:0:
256,188,97536,1,0,0:0:0:0:
256,188,97881,1,0,0:0:0:0:
256,188,98053,1,0,0:0:0:0:
256,188,98571,1,8,0:0:0:0:
24,184,98916,2,0,P|288:184|516:188,1,480
256,188,100812,1,8,0:0:0:0:
256,188,101329,1,0,0:0:0:0:
256,188,101674,1,8,0:0:0:0:
256,188,101933,1,8,0:0:0:0:
256,188,102191,1,8,0:0:0:0:
256,188,102709,1,0,0:0:0:0:
256,188,103053,1,8,0:0:0:0:
256,188,103312,1,8,0:0:0:0:
256,188,103571,1,8,0:0:0:0:
256,188,104088,1,0,0:0:0:0:
256,188,104433,1,8,0:0:0:0:
256,188,104691,1,8,0:0:0:0:
256,188,104950,1,8,0:0:0:0:
256,192,105812,5,4,0:0:0:0:
256,192,106329,1,4,0:0:0:0:
256,192,106846,1,4,0:0:0:0:
256,192,107363,1,12,0:0:0:0:
256,192,108570,1,4,0:0:0:0:
256,192,109088,1,4,0:0:0:0:
256,192,109605,1,4,0:0:0:0:
256,188,112718,5,4,0:0:0:0:
256,188,113235,1,4,0:0:0:0:
256,188,113752,1,8,0:0:0:0:
256,188,114097,1,0,0:0:0:0:
256,188,114614,1,0,0:0:0:0:
256,188,115132,1,8,0:0:0:0:
256,188,115477,1,4,0:0:0:0:
256,188,115994,1,4,0:0:0:0:
256,188,116511,1,8,0:0:0:0:
256,188,116856,1,0,0:0:0:0:
256,188,117373,1,0,0:0:0:0:
256,188,117890,1,8,0:0:0:0:
256,188,118235,1,12,0:0:0:0:
256,188,118752,1,12,0:0:0:0:
256,188,119270,1,8,0:0:0:0:
256,188,119614,1,0,0:0:0:0:
256,188,119959,1,0,0:0:0:0:
256,188,120132,1,0,0:0:0:0:
256,188,120649,1,8,0:0:0:0:
256,188,120994,1,4,0:0:0:0:
256,188,121512,1,4,0:0:0:0:
256,188,122028,1,12,0:0:0:0:
256,188,122545,1,12,0:0:0:0:
256,188,123063,1,8,0:0:0:0:
256,188,123408,1,8,0:0:0:0:
256,188,123752,5,4,0:0:0:0:
256,188,124269,1,0,0:0:0:0:
256,188,124786,1,8,0:0:0:0:
256,188,125131,1,4,0:0:0:0:
256,188,125648,1,0,0:0:0:0:
256,188,126166,1,8,0:0:0:0:
256,188,126511,1,4,0:0:0:0:
256,188,127028,1,0,0:0:0:0:
256,188,127545,1,8,0:0:0:0:
256,188,127890,1,4,0:0:0:0:
256,188,128407,1,0,0:0:0:0:
256,188,128924,1,8,0:0:0:0:
256,188,129269,1,12,0:0:0:0:
256,188,129786,1,8,0:0:0:0:
256,188,130304,1,8,0:0:0:0:
256,188,130648,1,4,0:0:0:0:
256,188,130994,1,0,0:0:0:0:
256,188,131166,1,0,0:0:0:0:
256,188,131683,1,8,0:0:0:0:
256,188,132028,1,4,0:0:0:0:
256,188,132546,1,0,0:0:0:0:
256,188,133062,1,8,0:0:0:0:
256,188,133407,1,12,0:0:0:0:
256,188,133752,1,8,0:0:0:0:
256,188,133925,1,8,0:0:0:0:
256,188,134787,5,4,0:0:0:0:
256,188,135304,1,0,0:0:0:0:
256,188,135821,1,8,0:0:0:0:
256,188,136166,1,4,0:0:0:0:
256,188,136683,1,0,0:0:0:0:
256,188,137201,1,8,0:0:0:0:
256,188,137546,1,4,0:0:0:0:
256,188,138063,1,0,0:0:0:0:
256,188,138580,1,8,0:0:0:0:
256,188,138925,1,4,0:0:0:0:
256,188,139442,5,0,0:0:0:0:
256,188,140304,1,4,0:0:0:0:
256,188,140821,1,4,0:0:0:0:
256,188,141339,1,4,0:0:0:0:
256,188,141856,1,12,0:0:0:0:
256,188,143063,1,4,0:0:0:0:
256,188,143580,1,4,0:0:0:0:
256,188,144097,1,12,0:0:0:0:
32,188,144787,2,4,L|412:192,1,360
