osu file format v9

[General]
AudioFilename: Ellie_Goulding-BlackGold.mp3
AudioLeadIn: 500
PreviewTime: 35819
Countdown: 0
SampleSet: Soft
StackLeniency: 0.7
Mode: 0
LetterboxInBreaks: 1

[Editor]
DistanceSpacing: 0.8
BeatDivisor: 4
GridSize: 8

[Metadata]
Title:Black and Gold
Artist:Ellie Goulding
Creator:Charles445
Version:Normal
Source:
Tags:sam sparro

[Difficulty]
HPDrainRate:4
CircleSize:4
OverallDifficulty:3
ApproachRate:4
SliderMultiplier:1.2
SliderTickRate:1

[Events]
//Background and Video events
0,0,"ellie-goulding.jpg"
//Break Periods
2,59649,70311
//Storyboard Layer 0 (Background)
//Storyboard Layer 1 (Fail)
//Storyboard Layer 2 (Pass)
//Storyboard Layer 3 (Foreground)
//Storyboard Sound Samples
//Background Colour Transformations
3,100,163,162,255

[TimingPoints]
1450,363.636363636364,4,2,1,100,1,0
1995,-100,4,1,1,100,0,0
2359,-100,4,2,1,100,0,0
4904,-100,4,1,1,100,0,0
5359,-100,4,2,1,100,0,0
7813,-100,4,1,1,100,0,0
8177,-100,4,2,1,100,0,0
12268,-100,4,2,1,51,0,0
12450,-100,4,2,1,100,0,0
13722,-100,4,1,1,100,0,0
13904,-100,4,2,1,100,0,0
16540,-100,4,1,1,100,0,0
16904,-100,4,2,1,100,0,0
19450,-100,4,1,1,100,0,0
19813,-100,4,2,1,100,0,0
22359,-100,4,1,1,100,0,0
22722,-100,4,2,1,100,0,0
25268,-100,4,1,1,100,0,0
25631,-100,4,2,1,100,0,0
26268,-100,4,1,1,100,0,0
26450,-100,4,2,1,100,0,0
28177,-100,4,1,1,100,0,0
28540,-100,4,2,1,100,0,0
31177,-100,4,1,1,100,0,0
31359,-100,4,2,1,100,0,0
32086,-100,4,1,1,100,0,0
32268,-100,4,2,1,100,0,0
33995,-100,4,1,1,100,0,0
34359,-100,4,2,1,100,0,0
36904,-100,4,1,1,100,0,0
37268,-100,4,2,1,100,0,0
39813,-100,4,1,1,100,0,0
40177,-100,4,2,1,100,0,0
42722,-100,4,1,1,100,0,0
43086,-100,4,2,1,100,0,0
43540,-100,4,1,1,100,0,0
43722,-100,4,2,1,50,0,0
44631,-100,4,2,1,100,0,0
45631,-100,4,1,1,100,0,0
45995,-100,4,2,1,100,0,0
48540,-100,4,1,1,100,0,0
48904,-100,4,2,1,100,0,0
51450,-100,4,1,1,100,0,0
51813,-100,4,2,1,100,0,0
54268,-100,4,1,1,100,0,0
54540,-100,4,2,1,100,0,0
55177,-100,4,1,1,100,0,0
55359,-100,4,2,1,100,0,0
57177,-100,4,1,1,100,0,0
57722,-100,4,2,1,100,0,0
71813,-100,4,1,1,100,0,0
72177,-100,4,2,1,100,0,0
74813,-100,4,1,1,100,0,0
75268,-100,4,2,1,100,0,0
76268,-100,4,2,1,50,0,0
77086,-100,4,2,1,100,0,0
77722,-100,4,1,1,100,0,0
77904,-100,4,2,1,100,0,0
80480,-100,4,1,1,100,0,0
80904,-100,4,2,1,100,0,0
81359,-100,4,2,1,50,0,0
81631,-100,4,2,1,100,0,0
83450,-100,4,1,1,100,0,0
83813,-100,4,2,1,100,0,0
84813,-100,4,1,1,100,0,0
84995,-100,4,2,1,100,0,0
86268,-100,4,1,1,100,0,0
86722,-100,4,2,1,100,0,0
89268,-100,4,1,1,100,0,0
89540,-100,4,2,1,100,0,0
96086,-100,4,1,1,100,0,0
96268,-100,4,2,1,100,0,0
101904,-100,4,2,1,50,0,0
102813,-100,4,2,1,100,0,0
103722,-100,4,1,1,100,0,0
103904,-100,4,2,1,100,0,0
106722,-100,4,1,1,100,0,0
107086,-100,4,2,1,100,0,0
109631,-100,4,1,1,100,0,0
109995,-100,4,2,1,100,0,0
112450,-100,4,1,1,100,0,0
112722,-100,4,2,1,100,0,0
115450,-100,4,1,1,100,0,0
115813,-100,4,2,1,100,0,0
117540,-100,4,2,1,100,0,0
117631,-100,4,2,1,100,0,1
117813,-100,4,2,1,100,0,0

[Colours]
Combo1 : 20,20,20
Combo2 : 255,114,66
Combo3 : 239,138,1
Combo4 : 150,211,5
Combo5 : 255,179,0

[HitObjects]
256,40,1450,5,0
184,104,1813,2,0,B|184:152|200:160|208:176|256:176,1,120,8|0
352,176,2540,1,8
352,176,2904,1,0
256,176,3268,2,0,B|208:176|200:192|184:200|184:248,1,120,8|0
256,312,3995,1,8
352,312,4359,6,0,B|408:312|408:216,1,120,0|8
352,312,5086,2,0,B|296:312|296:216,1,120,0|8
352,144,5813,1,0
352,144,6177,1,8
352,144,6540,2,0,B|320:104|288:72|256:72|224:72|192:96|160:144,1,240
208,224,7631,5,8
304,224,7995,1,0
288,320,8359,2,0,B|224:320,1,60,8|0
256,176,9086,1,8
208,88,9450,2,0,B|224:56|256:53|288:56|304:88,1,120,0|8
256,192,10177,12,4,12359
176,136,13086,6,0,B|200:32|256:78|312:32|336:136,1,240
336,232,14177,1,8
240,232,14540,2,0,B|192:232|184:248|168:256|160:304,1,120,0|8
240,232,15268,2,0,B|192:232|184:216|168:208|160:160,1,120,0|8
160,64,15995,21,0
256,64,16359,1,8
352,64,16722,1,0
288,136,17086,2,0,B|208:136,1,60,8|0
256,232,17631,1,0
104,96,18540,6,0,B|104:16,2,60,8|8|0
104,192,19268,1,8
104,288,19631,2,0,B|224:312,1,120,0|8
268,323,20177,1,0
361,343,20540,1,0
320,192,21450,5,8
416,192,21813,2,0,B|416:136|400:120|344:120,1,120,0|8
416,192,22540,2,0,B|416:248|400:264|344:264,2,120,0|8|0
416,192,23631,1,8
256,192,24359,5,8
160,192,24722,1,4
216,272,25086,1,8
120,272,25450,1,0
64,192,25813,1,8
64,192,25995,2,0,B|64:80|112:80|160:80|160:192,1,240
256,296,27268,21,8
256,200,27631,2,0,B|256:152|272:144|280:128|328:120,1,120,0|8
256,200,28359,2,0,B|256:152|240:144|232:128|184:120,2,120,0|8|0
256,296,29450,1,8
384,160,30177,5,8
384,64,30540,2,0,B|456:68|480:144,2,120,0|8|0
288,64,31631,1,8
240,64,31813,2,0,B|176:64|136:104|136:184,1,180,0|8
312,256,33086,6,0,B|312:120,1,120,8|0
272,48,33813,1,8
232,136,34177,2,0,B|232:272,3,120,0|8|0|8
80,328,35995,5,8
160,272,36359,2,0,B|104:224|232:184|112:168|160:160,2,120,4|8|0
256,272,37450,1,8
352,272,37813,2,0,B|408:224|280:184|400:168|352:160,2,120,0|8|0
256,272,38904,1,8
256,176,39268,21,0
256,176,39631,1,8
256,80,39995,2,0,B|184:80|184:160,1,120,0|8
256,80,40722,2,0,B|328:80|328:160,1,120,0|8
224,320,41813,6,8,B|304:320,2,60,8|8|0
256,232,42540,1,8
160,232,42904,2,0,B|160:168|200:136|256:112|312:136|352:168|352:232,1,300
256,32,44722,5,8
256,32,45086,1,0
312,112,45449,2,0,B|280:136|256:128|232:136|200:112,1,120,8|0
256,200,46177,1,8
200,288,46540,2,0,B|232:264|256:272|280:264|312:288,2,120,0|8|0
256,200,47631,1,8
256,104,47995,5,4
352,104,48359,1,8
304,24,48722,1,0
208,24,49086,1,8
160,104,49449,1,0
256,104,49813,2,0,B|256:168|224:192|168:192,1,120,8|0
256,104,50540,2,0,B|256:168|288:192|344:192,1,120,8|0
416,192,51268,21,8
416,288,51631,2,0,B|416:344|400:360|344:360,1,120,0|8
296,360,52177,1,0
200,360,52540,1,0
184,216,53086,6,0,B|128:160,2,60,0|0|8
256,152,53813,1,0
328,88,54177,2,0,B|384:144,1,60,8|0
368,272,54904,2,0,B|304:200|208:328|144:272,1,240,8|8
144,176,55995,38,0,B|144:128|160:120|168:104|216:104,1,120,0|8
264,104,56540,53,8
424,192,57450,6,0,B|424:240|408:248|400:264|352:264,1,120,0|8
256,264,58177,53,0
256,264,58540,1,8
160,264,58904,6,0,B|192:232|192:184|160:152,1,120,0|8
112,208,59449,53,12
256,48,71631,53,8
256,144,71995,2,0,B|256:264,2,120,0|8|0
160,144,73086,1,8
208,56,73449,1,0
304,56,73813,1,8
352,144,74177,1,0
312,232,74540,2,0,B|288:304|256:304|224:304|200:232,2,180,8|0|0
256,152,75995,5,8
208,64,76359,1,0
304,64,76722,1,8
256,224,77450,21,8
184,288,77813,1,0
256,352,78177,1,8
328,288,78540,2,0,B|369:257|405:317|440:288,3,120,0|8|0|8
440,192,79995,2,0,B|404:221|368:161|327:192,3,120,0|8|0|8
232,208,81449,53,4
16,192,83268,21,8
112,192,83631,1,0
256,192,84177,1,0
328,256,84540,2,0,B|312:296|256:320|200:296|184:256,1,180
256,192,85449,1,8
328,128,85813,2,0,B|312:88|256:64|200:88|184:128,2,180,0|0|8
256,192,87268,1,4
112,256,88722,6,0,B|240:256,2,120,0|8|0
304,256,90177,2,0,B|376:256,1,60
312,176,90722,2,0,B|192:176,1,120
256,192,91631,12,4,93086
256,192,94177,5,8
344,152,94540,2,0,B|376:200|312:208|344:264,1,120,4|8
440,264,95268,2,0,B|472:216|408:208|440:152,1,120,0|8
440,56,95995,2,0,B|392:-8|344:56,1,120,0|8
248,56,96722,2,0,B|200:-8|152:56,1,120,0|8
184,144,97449,21,0
184,240,97813,1,8
128,320,98177,2,0,B|160:352|200:288|240:320,1,120,0|8
336,296,98904,1,0
416,240,99268,2,0,B|448:216|464:192|448:168|416:144,1,120,8|0
336,88,99995,1,8
240,88,100359,5,0
168,24,100722,1,8
104,96,101086,1,0
176,160,101449,1,8
176,208,101631,2,0,B|112:240|240:280|168:296,1,120
256,40,102904,5,8
256,136,103268,1,0
336,192,103631,2,0,B|384:240,2,60,8|0|0
256,136,104359,1,8
256,136,104540,1,0
176,192,104904,1,4
192,352,105813,6,8,B|336:352,2,120,8|4|8
256,280,106904,1,0
256,184,107268,1,8
256,136,107449,1,0
256,40,109086,22,0,B|304:40|336:72|336:112,1,120,0|8
256,40,109813,2,0,B|208:40|176:72|176:112,1,120,0|8
175,112,110359,1,0
256,192,110722,1,0
416,192,111268,6,0,B|480:192,2,60,0|0|8
320,136,111995,2,0,B|336:168|346:192|337:214|320:248,1,120,0|8
320,248,112540,1,0
176,248,113086,2,0,B|193:212|202:190|192:166|176:134,1,120,8|0
104,200,113813,1,8
24,248,114177,38,0,B|7:212|-2:190|8:166|24:134,1,120,0|8
48,96,114722,53,8
136,320,115631,6,0,B|256:320,1,120,0|8
352,320,116359,53,0
448,152,117086,6,0,B|425:119|410:100|384:97|349:95,1,120,0|8
303,106,117631,53,12
