osu file format v9

[General]
AudioFilename: Ellie_Goulding-BlackGold.mp3
AudioLeadIn: 500
PreviewTime: 35819
Countdown: 0
SampleSet: Soft
StackLeniency: 0.7
Mode: 0
LetterboxInBreaks: 1

[Editor]
DistanceSpacing: 1.2
BeatDivisor: 4
GridSize: 8

[Metadata]
Title:Black and Gold
Artist:Ellie Goulding
Creator:Charles445
Version:Hard
Source:
Tags:sam sparro

[Difficulty]
HPDrainRate:7
CircleSize:4
OverallDifficulty:7
ApproachRate:6
SliderMultiplier:1.4
SliderTickRate:1

[Events]
//Background and Video events
0,0,"ellie-goulding.jpg"
//Break Periods
2,59830,70581
//Storyboard Layer 0 (Background)
//Storyboard Layer 1 (Fail)
//Storyboard Layer 2 (Pass)
//Storyboard Layer 3 (Foreground)
//Storyboard Sound Samples
//Background Colour Transformations
3,100,163,162,255

[TimingPoints]
1450,363.636363636364,4,2,1,100,1,0
1904,-100,4,1,1,100,0,0
2268,-100,4,2,1,100,0,0
4813,-100,4,1,1,100,0,0
5359,-100,4,2,1,100,0,0
7722,-100,4,1,1,100,0,0
8086,-100,4,2,1,100,0,0
12268,-100,4,2,1,50,0,0
12450,-100,4,2,1,100,0,0
13540,-100,4,1,1,100,0,0
13722,-100,4,2,1,100,0,0
16450,-100,4,1,1,100,0,0
16631,-100,4,2,1,100,0,0
19359,-100,4,1,1,100,0,0
19540,-100,4,2,1,100,0,0
22268,-100,4,1,1,100,0,0
22450,-100,4,2,1,100,0,0
25177,-100,4,1,1,100,0,0
25359,-100,4,2,1,100,0,0
28086,-100,4,1,1,100,0,0
28268,-100,4,2,1,100,0,0
30995,-100,4,1,1,100,0,0
31177,-100,4,2,1,100,0,0
33904,-100,4,1,1,100,0,0
34086,-100,4,2,1,100,0,0
36813,-100,4,1,1,100,0,0
36995,-100,4,2,1,100,0,0
38450,-100,4,1,1,100,0,0
38631,-100,4,2,1,100,0,0
39722,-100,4,1,1,100,0,0
39904,-100,4,2,1,100,0,0
42631,-100,4,1,1,100,0,0
42813,-100,4,2,1,100,0,0
45540,-100,4,1,1,100,0,0
45722,-100,4,2,1,100,0,0
48450,-100,4,1,1,100,0,0
48631,-100,4,2,1,100,0,0
51359,-100,4,1,1,100,0,0
51540,-100,4,2,1,100,0,0
54268,-100,4,1,1,100,0,0
54450,-100,4,2,1,100,0,0
57177,-100,4,1,1,100,0,0
57359,-100,4,2,1,100,0,0
71722,-100,4,1,1,100,0,0
71904,-100,4,2,1,100,0,0
74631,-100,4,1,1,100,0,0
74813,-100,4,2,1,100,0,0
76268,-100,4,2,1,50,0,0
77086,-100,4,2,1,100,0,0
77540,-100,4,1,1,100,0,0
77722,-100,4,2,1,100,0,0
80450,-100,4,1,1,100,0,0
80631,-100,4,2,1,100,0,0
81359,-100,4,2,1,50,0,0
81631,-100,4,2,1,100,0,0
83359,-100,4,1,1,100,0,0
83540,-100,4,2,1,100,0,0
86268,-100,4,1,1,100,0,0
86450,-100,4,2,1,100,0,0
87359,-100,4,2,0,100,0,0
87450,-100,4,2,0,71,0,0
88359,-100,4,2,0,100,0,0
89177,-100,4,1,1,100,0,0
89359,-100,4,2,1,100,0,0
91995,-100,4,1,1,100,0,0
92268,-100,4,2,1,100,0,0
101904,-100,4,2,1,75,0,0
102813,-100,4,2,1,100,0,0
103722,-100,4,1,1,100,0,0
103904,-100,4,2,1,100,0,0
112450,-100,4,1,1,100,0,0
112722,-100,4,2,1,100,0,0
115359,-100,4,1,1,100,0,0
115540,-100,4,2,1,100,0,0
117540,-100,4,2,1,100,0,0
117631,-100,4,2,1,100,0,1
117813,-100,4,2,1,100,0,0

[Colours]
Combo1 : 20,20,20
Combo2 : 255,114,66
Combo3 : 239,138,1
Combo4 : 150,211,5
Combo5 : 255,179,0

[HitObjects]
256,104,1450,2,0,B|256:160|224:192|168:192,1,140,0|8
169,191,1995,1,0
256,280,2359,1,0
256,280,2540,1,8
256,280,2722,1,0
256,280,2904,2,0,B|256:224|288:192|344:192,1,140,0|8
384,312,3631,2,0,B|256:200,1,140,0|8
278,219,4177,1,8
226,171,4359,6,8,B|202:123|138:123|114:171,1,140,0|8
170,211,4904,1,0
368,200,5450,1,8
368,200,5631,1,0
424,240,5813,2,0,B|400:288|336:288|312:240,1,140,0|8
368,112,6540,2,0,B|360:72|272:16|256:48|240:16|152:72|144:112,1,280
256,176,7631,5,8
256,246,7813,1,0
256,368,8177,1,0
256,368,8359,2,0,B|304:368|328:344|352:320|352:280,1,140,8|0
256,368,9086,2,0,B|208:368|184:344|160:320|160:280,1,140,8|0
128,224,9631,1,0
168,168,9813,1,8
128,112,9995,1,8
168,56,10177,1,0
256,192,10359,12,4,12359
344,288,12722,6,8,B|248:288,1,70
184,288,13086,2,0,B|128:376|80:288,1,140,0|8
80,200,13631,1,0
168,200,13813,2,0,B|272:200,2,70,0|0|8
168,112,14359,2,0,B|168:64|195:54|203:24|256:24,1,140,0|0
256,120,14904,1,8
256,280,15268,2,0,B|257:334|297:369|345:369,1,140,0|8
344,368,15813,1,8
432,368,15995,22,0,B|488:312,1,70
480,232,16359,2,0,B|424:184,1,70,8|0
424,96,16722,1,0
424,96,16904,1,0
424,96,17086,1,8
424,96,17268,2,0,B|400:48|336:48|312:96,1,140,0|0
312,184,17813,2,0,B|288:231|224:231|200:183,1,140,8|0
80,288,18540,1,8
168,288,18722,1,8
256,288,18904,6,0,B|256:144,1,140,0|8
256,148,19450,1,0
256,64,19631,2,0,B|232:16|168:16|144:64,1,140,0|8
144,148,20177,2,0,B|168:196|232:196|256:148,1,140,0|0
256,148,20722,1,8
256,288,21086,1,0
256,288,21268,1,0
256,288,21450,1,8
256,288,21631,1,8
256,376,21813,6,0,B|304:376|344:320|344:280,1,140,0|8
344,192,22359,1,0
256,192,22540,2,0,B|256:104,2,70,0|0|8
168,192,23086,2,0,B|120:192|80:157|80:104,1,140,0|0
79,103,23631,1,8
80,272,23995,1,0
80,272,24177,1,0
80,272,24359,2,8,B|152:272,1,70
200,336,24722,6,0,B|224:383|288:383|312:335,1,140,4|8
256,272,25268,1,0
256,184,25450,2,0,B|256:96,1,70
256,24,25813,1,8
176,184,26177,21,0
128,256,26359,1,0
80,184,26540,1,8
336,184,26904,5,0
384,104,27086,1,0
432,184,27268,1,8
432,184,27450,1,8
432,272,27631,6,0,B|384:365|336:272,1,140,0|8
256,304,28177,1,0
176,272,28359,2,0,B|128:365|80:272,2,140,0|8|0
256,304,29268,1,0
336,272,29450,2,0,B|385:366|433:273,1,140,8|0
256,72,30177,1,8
256,72,30359,1,8
200,128,30540,5,0
256,184,30722,1,0
312,240,30904,1,8
256,296,31086,1,0
256,384,31268,2,0,B|168:384,1,70
256,384,31631,2,0,B|328:384,1,70,8|0
256,232,32177,21,0
256,144,32359,1,8
392,32,32722,2,0,B|472:32,1,70
464,120,33086,2,8,B|392:120,1,70
304,120,33450,6,0,B|255:26|207:119,1,140,0|8
256,184,33995,1,0
305,257,34177,2,0,B|257:350|208:256,1,140,0|8
128,256,34722,1,0
48,256,34904,2,0,B|48:312|88:360|128:384|176:360|208:312|208:256,1,280
128,112,35995,1,8
128,112,36177,1,8
216,112,36359,6,0,B|216:208,1,70,4|0
216,264,36722,1,8
216,264,36904,1,0
144,312,37086,2,0,B|174:400|214:376|254:400|286:312,1,210
144,216,37995,1,0
144,128,38177,2,0,B|174:40|214:64|254:40|286:128,1,210,8|0
320,208,38904,1,8
352,288,39086,1,8
440,288,39268,6,0,B|487:264|487:200|439:176,1,140,0|8
439,175,39813,1,0
440,88,39995,2,0,B|416:41|352:41|328:89,1,140,0|8
328,176,40540,2,0,B|304:223|240:223|216:175,1,140,0|0
272,112,41086,2,0,B|272:272,1,140,8|0
392,368,41813,1,8
392,368,41995,1,8
392,280,42177,22,0,B|344:280|304:245|304:192,1,140,0|8
304,104,42722,1,0
304,16,42904,2,0,B|200:16,1,70
144,16,43268,1,8
144,104,43449,2,0,B|144:152|179:192|232:192,1,140,0|0
232,192,43995,2,0,B|184:192|144:227|144:280,1,140,8|0
304,192,44722,1,8
392,192,44904,1,8
480,192,45086,5,0
326,95,45449,2,0,L|256:95,1,70,8|0
185,95,45813,2,0,B|257:95,1,70
256,184,46177,1,8
256,184,46359,1,0
184,240,46540,2,0,B|184:304|224:376|289:376|328:304|328:240,1,280
336,56,47631,6,0,B|408:56,2,70,8|8|4
168,56,48359,2,0,B|168:136,1,70,8|0
256,128,48722,2,0,B|256:32,2,70,0|0|8
256,216,49268,1,0
88,216,49631,5,0
88,128,49813,1,8
400,216,50177,21,0
400,128,50359,2,0,B|400:40,2,70,0|8|8
400,216,50904,1,0
264,312,51268,5,8
232,232,51449,1,0
152,264,51631,1,0
120,184,51813,1,0
40,216,51995,1,8
8,136,52177,1,0
8,304,52540,2,0,B|40:352|64:336|88:352|120:304,1,140,8|0
208,304,53086,2,0,B|240:352|264:336|288:352|320:304,1,140,0|8
264,240,53631,1,8
264,152,53813,5,0
96,152,54177,1,8
96,152,54359,1,0
96,152,54540,2,0,B|31:152|-40:191|-40:256|31:296|95:296,1,280
256,296,55631,1,8
224,128,55995,22,0,B|152:128,1,70
256,48,56359,1,8
288,128,56540,54,0,B|368:128,1,70,8|0
256,264,57086,1,8
256,352,57268,5,0
256,352,57449,2,0,B|208:352|168:317|168:264,1,140,0|8
256,352,58177,54,0,B|304:352|344:317|344:264,1,140,0|8
256,120,58904,5,0
256,120,59268,1,8
256,208,59449,54,0,B|256:288,1,70,8|4
200,192,71631,21,8
256,256,71813,1,0
312,192,71995,1,0
256,128,72177,1,0
256,40,72359,1,8
256,40,72540,2,0,B|312:40|344:80|344:128,1,140
256,40,73268,2,0,B|201:40|169:80|169:128,1,140
256,128,73813,1,8
256,128,73995,1,8
256,216,74177,6,0,B|344:216,1,70
256,216,74540,2,0,B|176:216,1,70,8|0
256,288,74904,1,0
416,360,75268,2,0,B|344:360,1,70,8|0
168,360,75813,2,0,B|96:360,1,70,0|8
256,120,76359,5,0
256,32,76540,1,0
184,76,76722,2,0,B|112:76,1,70,8|8
232,192,77268,5,0
232,280,77449,1,8
320,280,77631,1,0
323,192,77813,2,0,B|435:80,2,140,0|8|0
200,312,78904,1,8
134,364,79086,2,0,B|70:364|46:324|46:276,1,140,0|0
130,278,79631,1,8
130,278,79813,1,8
336,264,80237,21,0
432,160,80540,1,0
352,128,80722,2,0,B|304:128|344:56|296:56,2,93.3333333333333
256,192,81449,53,4
256,192,83086,21,0
256,104,83268,2,0,B|256:24,3,70
320,196,84177,2,0,B|288:228|224:228|192:196,1,140
320,296,84904,1,0
320,384,85086,2,0,B|288:352|224:352|192:384,1,140,0|8
192,296,85631,1,8
104,296,85813,6,0,B|16:296,2,70,0|0|8
104,208,86359,1,0
104,120,86540,2,0,B|24:120,1,70
184,48,87086,2,0,B|304:48|216:184|352:184,1,210,0|0
256,352,88540,5,8
256,264,88722,1,0
256,176,88904,1,0
185,220,89086,2,0,B|101:220,2,70,8|0|0
256,176,89631,2,0,B|256:112|296:88|344:88,1,140,0|0
344,176,90177,1,0
344,264,90359,2,0,B|407:263|431:223|431:178,2,140,0|0|0
80,240,91631,22,0,B|88:288|151:308,2,105
80,152,92359,2,0,B|88:104|151:84,2,105
151,196,93086,1,4
256,192,94177,5,8
256,192,94359,1,8
256,192,94540,2,0,B|256:96|176:96,1,140,0|8
256,192,95268,2,0,B|256:288|336:288,1,140,0|8
332,287,95813,1,0
336,120,96177,1,0
424,120,96359,1,8
176,120,96722,1,0
88,120,96904,1,0
88,208,97086,6,8,B|176:208,1,70
120,288,97449,2,0,B|272:288,1,140,0|8
408,208,98177,2,0,B|268:208,1,140,0|8
296,128,98722,2,0,B|152:128,1,140
156,128,99268,1,8
152,296,99631,1,0
240,296,99813,1,0
168,248,99995,1,8
256,248,100177,1,8
256,160,100359,6,0,B|304:160|344:125|344:72,1,140,0|8
256,160,101086,2,0,B|256:112|221:72|168:72,1,140,0|8
168,160,101631,1,0
40,264,101995,1,2
256,24,102904,21,8
256,192,103268,2,0,B|256:240|291:280|344:280,1,140,0|8
344,280,103813,1,0
344,280,103995,2,0,B|296:280|256:315|256:368,1,140,0|8
256,368,104540,2,0,B|256:320|221:280|168:280,1,140,0|0
167,280,105086,2,0,B|215:280|255:245|256:192,1,140,8|0
256,24,105813,1,8
256,24,105995,1,8
344,24,106177,5,4
168,24,106540,1,8
168,192,106904,2,0,B|167:250|256:250|256:192,1,140,0|8
256,192,107449,2,0,B|255:250|344:250|344:192,1,140
301,118,107995,1,8
301,286,108359,1,0
440,192,108722,1,8
440,192,108904,1,8
440,280,109086,6,0,B|440:376|360:376,1,140,0|8
320,216,109813,1,0
256,160,109995,1,0
192,216,110177,1,8
256,272,110359,1,0
120,376,110722,2,0,B|43:376|43:280,1,140,0|0
80,200,111268,1,0
40,128,111449,1,0
80,56,111631,1,8
248,56,111995,6,0,B|200:149|152:56,1,140,0|8
152,56,112540,1,0
200,216,112904,1,0
200,304,113086,1,8
368,304,113449,2,0,B|320:211|272:304,1,140,0|8
320,144,114177,5,0
376,80,114359,1,0
312,24,114540,1,8
256,88,114722,53,8
88,88,115086,2,0,B|160:88,1,70,0|8
112,160,115449,6,0,B|192:160,1,70
96,304,115995,1,8
264,304,116359,53,0
96,304,116722,1,8
176,136,117086,5,0
176,136,117450,1,8
256,176,117631,53,12
