osu file format v12

[General]
AudioFilename: Supernova.mp3
AudioLeadIn: 0
PreviewTime: -1
Countdown: 0
SampleSet: Normal
StackLeniency: 0.7
Mode: 1
LetterboxInBreaks: 1
WidescreenStoryboard: 1

[Editor]
DistanceSpacing: 0.8
BeatDivisor: 4
GridSize: 8
TimelineZoom: 1

[Metadata]
Title:Supernova
TitleUnicode:Supernova
Artist:Ellegarden
ArtistUnicode:Ellegarden
Creator:Charlotte
Version:Oni
Source:
Tags:Pepperoni Quattro
BeatmapID:386324
BeatmapSetID:152860

[Difficulty]
HPDrainRate:5
CircleSize:4
OverallDifficulty:5
ApproachRate:9
SliderMultiplier:1.4
SliderTickRate:2

[Events]
//Background and Video events
0,0,"maxresdefault.jpg",0,0
//Break Periods
//Storyboard Layer 0 (Background)
//Storyboard Layer 1 (Fail)
//Storyboard Layer 2 (Pass)
//Storyboard Layer 3 (Foreground)
//Storyboard Sound Samples
//Background Colour Transformations
3,100,163,162,255

[TimingPoints]
9645,333.333333333333,4,1,0,80,1,0
57475,-100,4,1,0,100,0,1
76135,-83.3333333333333,4,1,0,100,0,0

[HitObjects]
256,192,9645,5,0,0:0:0:0:
256,192,9978,5,2,0:0:0:0:
256,192,10311,5,0,0:0:0:0:
256,192,10395,5,0,0:0:0:0:
256,192,10478,1,0,0:0:0:0:
256,192,10561,1,0,0:0:0:0:
256,192,10645,1,2,0:0:0:0:
256,192,10978,5,2,0:0:0:0:
256,192,11311,5,0,0:0:0:0:
256,192,11644,5,0,0:0:0:0:
256,192,11728,5,2,0:0:0:0:
256,192,11811,1,0,0:0:0:0:
256,192,11894,5,0,0:0:0:0:
256,192,11978,1,2,0:0:0:0:
256,192,12145,5,0,0:0:0:0:
256,192,12311,5,4,0:0:0:0:
256,192,12478,5,2,0:0:0:0:
256,192,12645,5,0,0:0:0:0:
256,192,12811,5,0,0:0:0:0:
256,192,12978,5,2,0:0:0:0:
256,192,13145,5,0,0:0:0:0:
256,192,13311,5,2,0:0:0:0:
256,192,13478,5,2,0:0:0:0:
256,192,13644,1,2,0:0:0:0:
256,192,13811,5,0,0:0:0:0:
256,192,13894,5,2,0:0:0:0:
256,192,13978,1,2,0:0:0:0:
256,192,14061,5,2,0:0:0:0:
256,192,14144,1,2,0:0:0:0:
256,192,14311,1,0,0:0:0:0:
256,192,14478,5,0,0:0:0:0:
256,192,14644,1,2,0:0:0:0:
256,192,14978,5,0,0:0:0:0:
256,192,15311,5,2,0:0:0:0:
256,192,15644,5,0,0:0:0:0:
256,192,15728,5,2,0:0:0:0:
256,192,15811,1,0,0:0:0:0:
256,192,15894,1,0,0:0:0:0:
256,192,15978,1,2,0:0:0:0:
256,192,16311,5,0,0:0:0:0:
256,192,16644,5,2,0:0:0:0:
256,192,16977,5,0,0:0:0:0:
256,192,17061,5,2,0:0:0:0:
256,192,17144,1,0,0:0:0:0:
256,192,17227,5,2,0:0:0:0:
256,192,17311,1,2,0:0:0:0:
256,192,17478,5,0,0:0:0:0:
256,192,17644,5,8,0:0:0:0:
256,192,17811,5,0,0:0:0:0:
256,192,17978,5,2,0:0:0:0:
256,192,18144,5,2,0:0:0:0:
256,192,18311,5,10,0:0:0:0:
256,192,18478,5,0,0:0:0:0:
256,192,18644,5,2,0:0:0:0:
256,192,18811,5,0,0:0:0:0:
256,192,18978,1,0,0:0:0:0:
256,192,19144,5,2,0:0:0:0:
256,192,19228,5,0,0:0:0:0:
256,192,19311,1,0,0:0:0:0:
256,192,19394,5,0,0:0:0:0:
256,192,19478,1,2,0:0:0:0:
256,192,19644,1,4,0:0:0:0:
256,192,19811,5,4,0:0:0:0:
256,192,19978,1,8,0:0:0:0:
256,192,20311,5,0,0:0:0:0:
256,192,20644,5,4,0:0:0:0:
256,192,20978,5,2,0:0:0:0:
256,192,21061,5,2,0:0:0:0:
256,192,21144,1,0,0:0:0:0:
256,192,21227,1,2,0:0:0:0:
256,192,21311,1,2,0:0:0:0:
256,192,21644,5,0,0:0:0:0:
256,192,21977,5,8,0:0:0:0:
256,192,22311,5,0,0:0:0:0:
256,192,22394,5,2,0:0:0:0:
256,192,22477,1,0,0:0:0:0:
256,192,22560,5,2,0:0:0:0:
256,192,22644,1,0,0:0:0:0:
256,192,22811,5,0,0:0:0:0:
256,192,22978,5,0,0:0:0:0:
256,192,23144,5,0,0:0:0:0:
256,192,23311,5,2,0:0:0:0:
256,192,23478,5,2,0:0:0:0:
256,192,23644,5,0,0:0:0:0:
256,192,23811,5,0,0:0:0:0:
256,192,23978,5,2,0:0:0:0:
256,192,24144,5,0,0:0:0:0:
256,192,24311,5,0,0:0:0:0:
256,192,24478,5,2,0:0:0:0:
256,192,24644,1,0,0:0:0:0:
256,192,24811,5,0,0:0:0:0:
256,192,24978,1,0,0:0:0:0:
256,192,25311,5,2,0:0:0:0:
256,192,25644,5,4,0:0:0:0:
256,192,25978,5,0,0:0:0:0:
256,192,26061,5,2,0:0:0:0:
256,192,26144,1,0,0:0:0:0:
256,192,26227,1,2,0:0:0:0:
256,192,26311,1,2,0:0:0:0:
256,192,26644,5,0,0:0:0:0:
256,192,26977,5,4,0:0:0:0:
256,192,27311,5,2,0:0:0:0:
256,192,27394,5,2,0:0:0:0:
256,192,27477,5,2,0:0:0:0:
256,192,27560,1,2,0:0:0:0:
256,192,27644,1,2,0:0:0:0:
256,192,27978,5,0,0:0:0:0:
256,192,28061,1,0,0:0:0:0:
256,192,28144,1,2,0:0:0:0:
256,192,28311,5,8,0:0:0:0:
256,192,28478,5,0,0:0:0:0:
256,192,28561,1,2,0:0:0:0:
256,192,28644,1,0,0:0:0:0:
256,192,28811,5,0,0:0:0:0:
256,192,28978,5,0,0:0:0:0:
256,192,29061,1,0,0:0:0:0:
256,192,29144,1,2,0:0:0:0:
256,192,29311,5,8,0:0:0:0:
256,192,29478,5,0,0:0:0:0:
256,192,29561,5,2,0:0:0:0:
256,192,29644,1,0,0:0:0:0:
256,192,29811,5,0,0:0:0:0:
256,192,29978,5,0,0:0:0:0:
256,192,30061,5,0,0:0:0:0:
256,192,30144,1,2,0:0:0:0:
256,192,30228,1,2,0:0:0:0:
256,192,30311,1,0,0:0:0:0:
256,192,30394,5,0,0:0:0:0:
256,192,30478,1,2,0:0:0:0:
256,192,30561,1,0,0:0:0:0:
256,192,30644,1,2,0:0:0:0:
256,192,30978,5,0,0:0:0:0:
256,192,31311,5,2,0:0:0:0:
256,192,31644,5,0,0:0:0:0:
256,192,31811,5,0,0:0:0:0:
256,192,31978,1,8,0:0:0:0:
256,192,32311,5,2,0:0:0:0:
256,192,32644,5,0,0:0:0:0:
256,192,32977,5,2,0:0:0:0:
256,192,33144,5,2,0:0:0:0:
256,192,33311,5,4,0:0:0:0:
256,192,33644,5,2,0:0:0:0:
256,192,33811,5,2,0:0:0:0:
256,192,33978,5,2,0:0:0:0:
256,192,34144,5,0,0:0:0:0:
256,192,34311,1,0,0:0:0:0:
256,192,34478,5,2,0:0:0:0:
256,192,34644,5,0,0:0:0:0:
256,192,34978,5,0,0:0:0:0:
256,192,35144,1,0,0:0:0:0:
256,192,35311,5,2,0:0:0:0:
256,192,35478,5,0,0:0:0:0:
256,192,35811,5,0,0:0:0:0:
256,192,35978,5,2,0:0:0:0:
256,192,36144,5,2,0:0:0:0:
256,192,36311,5,0,0:0:0:0:
256,192,36478,1,0,0:0:0:0:
256,192,36644,5,0,0:0:0:0:
256,192,36811,5,2,0:0:0:0:
256,192,37144,5,2,0:0:0:0:
256,192,37311,1,0,0:0:0:0:
256,192,37478,5,0,0:0:0:0:
256,192,37644,5,4,0:0:0:0:
256,192,37978,5,0,0:0:0:0:
256,192,38144,5,2,0:0:0:0:
256,192,38311,5,0,0:0:0:0:
256,192,38478,5,0,0:0:0:0:
256,192,38644,5,2,0:0:0:0:
256,192,38811,5,0,0:0:0:0:
256,192,38978,1,0,0:0:0:0:
256,192,39061,5,0,0:0:0:0:
256,192,39144,1,0,0:0:0:0:
256,192,39228,5,0,0:0:0:0:
256,192,39311,1,2,0:0:0:0:
256,184,39644,5,0,0:0:0:0:
256,184,39811,1,0,0:0:0:0:
256,184,39978,5,8,0:0:0:0:
256,184,40144,5,0,0:0:0:0:
256,184,40478,5,2,0:0:0:0:
256,184,40644,5,0,0:0:0:0:
256,184,40811,5,0,0:0:0:0:
256,184,40978,5,2,0:0:0:0:
256,184,41144,5,0,0:0:0:0:
256,184,41311,1,0,0:0:0:0:
256,184,41478,5,0,0:0:0:0:
256,184,41561,5,2,0:0:0:0:
256,184,41644,1,0,0:0:0:0:
256,184,41978,5,0,0:0:0:0:
256,184,42144,5,0,0:0:0:0:
256,184,42478,5,0,0:0:0:0:
256,184,42644,1,2,0:0:0:0:
256,184,42811,5,0,0:0:0:0:
256,184,42978,1,0,0:0:0:0:
256,184,43311,5,2,0:0:0:0:
256,184,43644,5,0,0:0:0:0:
256,184,43811,5,0,0:0:0:0:
256,184,43978,5,0,0:0:0:0:
256,184,44144,5,2,0:0:0:0:
256,184,44311,5,0,0:0:0:0:
256,184,44478,1,0,0:0:0:0:
256,184,44561,5,0,0:0:0:0:
256,184,44644,1,2,0:0:0:0:
256,184,44728,5,0,0:0:0:0:
256,184,44811,1,0,0:0:0:0:
256,184,45144,5,0,0:0:0:0:
256,184,45311,1,0,0:0:0:0:
256,184,45478,5,2,0:0:0:0:
256,184,45644,5,0,0:0:0:0:
256,184,45978,5,4,0:0:0:0:
256,184,46144,5,2,0:0:0:0:
256,184,46311,5,2,0:0:0:0:
256,184,46478,5,0,0:0:0:0:
256,184,46644,1,0,0:0:0:0:
256,184,46811,5,0,0:0:0:0:
256,184,46894,1,0,0:0:0:0:
256,184,46978,1,2,0:0:0:0:
256,184,47061,1,2,0:0:0:0:
256,184,47144,1,0,0:0:0:0:
256,184,47311,2,0,L|344:184,3,70
256,184,47978,5,0,0:0:0:0:
256,184,48144,5,0,0:0:0:0:
256,184,48311,5,0,0:0:0:0:
256,184,48644,5,2,0:0:0:0:
256,184,48811,5,0,0:0:0:0:
256,184,48978,5,0,0:0:0:0:
256,184,49144,5,0,0:0:0:0:
256,184,49311,1,2,0:0:0:0:
256,184,49478,5,0,0:0:0:0:
256,184,49561,5,0,0:0:0:0:
256,184,49644,1,0,0:0:0:0:
256,184,49728,5,0,0:0:0:0:
256,184,49811,1,0,0:0:0:0:
256,184,49978,5,0,0:0:0:0:
256,184,50144,1,0,0:0:0:0:
256,184,50311,5,2,0:0:0:0:
256,184,50478,5,0,0:0:0:0:
256,184,50561,1,0,0:0:0:0:
256,184,50644,1,0,0:0:0:0:
256,184,50811,5,2,0:0:0:0:
256,184,50978,5,2,0:0:0:0:
256,184,51061,5,0,0:0:0:0:
256,184,51144,1,0,0:0:0:0:
256,184,51311,5,0,0:0:0:0:
256,184,51478,5,0,0:0:0:0:
256,184,51644,1,2,0:0:0:0:
256,184,51811,1,0,0:0:0:0:
256,184,51978,6,0,L|352:184,2,70
256,184,52478,5,0,0:0:0:0:
256,184,52644,1,2,0:0:0:0:
256,184,52811,1,0,0:0:0:0:
256,184,52978,1,0,0:0:0:0:
256,184,53144,1,2,0:0:0:0:
256,184,53311,5,0,0:0:0:0:
256,184,53478,1,0,0:0:0:0:
256,184,53644,1,2,0:0:0:0:
256,184,53811,1,2,0:0:0:0:
256,184,53894,1,2,0:0:0:0:
256,184,53978,1,0,0:0:0:0:
256,184,54144,1,8,0:0:0:0:
256,184,54311,1,0,0:0:0:0:
256,184,54394,1,2,0:0:0:0:
256,184,54478,1,0,0:0:0:0:
256,184,54644,1,8,0:0:0:0:
256,184,54811,1,2,0:0:0:0:
256,184,54894,1,0,0:0:0:0:
256,184,54978,1,0,0:0:0:0:
256,184,55144,1,4,0:0:0:0:
256,184,55311,1,2,0:0:0:0:
256,184,55394,1,2,0:0:0:0:
256,184,55478,1,2,0:0:0:0:
256,184,55644,1,8,0:0:0:0:
256,184,55811,1,0,0:0:0:0:
256,184,55894,1,0,0:0:0:0:
256,184,55978,1,2,0:0:0:0:
256,184,56061,1,2,0:0:0:0:
256,184,56144,1,0,0:0:0:0:
256,184,56228,1,0,0:0:0:0:
256,184,56311,1,0,0:0:0:0:
256,184,56394,1,0,0:0:0:0:
256,184,56478,1,2,0:0:0:0:
256,184,56561,1,0,0:0:0:0:
256,184,56644,1,0,0:0:0:0:
256,184,56728,1,0,0:0:0:0:
256,184,56811,1,0,0:0:0:0:
256,184,57478,5,4,0:0:0:0:
256,184,57644,1,2,0:0:0:0:
256,184,57811,1,0,0:0:0:0:
256,184,57894,1,0,0:0:0:0:
256,184,57978,1,2,0:0:0:0:
256,184,58144,1,2,0:0:0:0:
256,184,58311,5,4,0:0:0:0:
256,184,58477,1,0,0:0:0:0:
256,184,58560,1,0,0:0:0:0:
256,184,58644,1,2,0:0:0:0:
256,184,58811,1,0,0:0:0:0:
256,184,58978,1,0,0:0:0:0:
256,184,59061,1,2,0:0:0:0:
256,184,59144,1,2,0:0:0:0:
256,184,59228,1,2,0:0:0:0:
256,184,59311,1,2,0:0:0:0:
256,184,59478,1,0,0:0:0:0:
256,184,59811,5,6,0:0:0:0:
256,184,59977,1,2,0:0:0:0:
256,184,60144,1,2,0:0:0:0:
256,184,60227,1,0,0:0:0:0:
256,184,60311,1,2,0:0:0:0:
256,184,60477,1,2,0:0:0:0:
256,184,60644,5,4,0:0:0:0:
256,184,60811,1,0,0:0:0:0:
256,184,60893,1,2,0:0:0:0:
256,184,60977,1,2,0:0:0:0:
256,184,61144,1,0,0:0:0:0:
256,184,61311,1,0,0:0:0:0:
256,184,61394,1,2,0:0:0:0:
256,184,61477,1,2,0:0:0:0:
256,184,61561,1,0,0:0:0:0:
256,184,61644,1,2,0:0:0:0:
256,184,61728,1,0,0:0:0:0:
256,184,61811,1,0,0:0:0:0:
256,184,62144,1,0,0:0:0:0:
256,184,62478,5,4,0:0:0:0:
256,184,62644,1,2,0:0:0:0:
256,184,62811,1,0,0:0:0:0:
256,184,62894,1,0,0:0:0:0:
256,184,62978,1,0,0:0:0:0:
256,184,63144,1,2,0:0:0:0:
256,184,63311,5,6,0:0:0:0:
256,184,63477,1,2,0:0:0:0:
256,184,63560,1,2,0:0:0:0:
256,184,63644,1,2,0:0:0:0:
256,184,63811,1,0,0:0:0:0:
256,184,63978,1,0,0:0:0:0:
256,184,64061,1,2,0:0:0:0:
256,184,64144,1,0,0:0:0:0:
256,184,64228,1,2,0:0:0:0:
256,184,64311,1,0,0:0:0:0:
256,184,64478,1,0,0:0:0:0:
256,184,64644,1,0,0:0:0:0:
256,184,64728,1,0,0:0:0:0:
256,184,64811,1,0,0:0:0:0:
256,184,64894,1,0,0:0:0:0:
256,184,64978,1,2,0:0:0:0:
256,184,65144,1,0,0:0:0:0:
256,184,65311,1,0,0:0:0:0:
256,184,65478,1,0,0:0:0:0:
256,192,65644,12,0,66644,0:0:0:0:
256,184,66811,5,2,0:0:0:0:
256,184,66894,1,0,0:0:0:0:
256,184,66978,1,0,0:0:0:0:
256,184,67311,1,2,0:0:0:0:
256,184,67644,1,0,0:0:0:0:
256,184,67728,1,0,0:0:0:0:
256,184,67811,1,0,0:0:0:0:
256,184,67894,1,2,0:0:0:0:
256,184,67978,1,0,0:0:0:0:
256,184,68311,1,0,0:0:0:0:
256,184,68478,1,0,0:0:0:0:
256,184,68811,1,0,0:0:0:0:
256,184,68978,1,2,0:0:0:0:
256,184,69061,1,2,0:0:0:0:
256,184,69144,1,2,0:0:0:0:
256,184,69311,1,0,0:0:0:0:
256,184,69478,1,0,0:0:0:0:
256,184,69644,1,0,0:0:0:0:
256,184,69811,1,0,0:0:0:0:
256,184,69978,1,2,0:0:0:0:
256,184,70311,1,0,0:0:0:0:
256,184,70644,1,4,0:0:0:0:
256,184,70978,1,8,0:0:0:0:
256,184,71311,1,4,0:0:0:0:
256,184,71644,1,8,0:0:0:0:
256,184,71978,1,2,0:0:0:0:
256,184,72061,1,0,0:0:0:0:
256,184,72144,1,0,0:0:0:0:
256,184,72228,1,0,0:0:0:0:
256,184,72311,1,0,0:0:0:0:
256,184,72644,1,0,0:0:0:0:
256,184,72811,1,0,0:0:0:0:
256,184,72978,1,0,0:0:0:0:
256,184,73311,2,0,L|368:184,2,90
256,184,73978,1,2,0:0:0:0:
256,184,74144,1,2,0:0:0:0:
256,184,74311,1,2,0:0:0:0:
256,184,74644,1,0,0:0:0:0:
256,184,74978,1,8,0:0:0:0:
256,184,75311,1,0,0:0:0:0:
256,184,75644,1,0,0:0:0:0:
256,184,75728,1,0,0:0:0:0:
256,184,75811,1,0,0:0:0:0:
256,184,75894,1,0,0:0:0:0:
256,184,75978,1,2,0:0:0:0:
256,184,76144,2,0,L|344:184,4,83.9999974365235
