osu file format v5

[General]
AudioFilename: Ellegarden - bored of everything.mp3
AudioLeadIn: 0
PreviewTime: -1
Countdown: 1
SampleSet: Normal
StackLeniency: 0.7
Mode: 0
LetterboxInBreaks: 1
EditorBookmarks: 67068,182959

[Metadata]
Title:Bored of Everything
Artist:Ellegarden
Creator:Utena
Version:Normal
Source:
Tags:

[Difficulty]
HPDrainRate:5
CircleSize:4
OverallDifficulty:5
SliderMultiplier:1.3
SliderTickRate:1

[Events]
//Background and Video events
//Break Periods
2,62748,65868
2,69733,75731
2,137131,139019
2,150281,152992
//Storyboard Layer 0 (Background)
//Storyboard Layer 1 (Failing)
//Storyboard Layer 2 (Passing)
//Storyboard Layer 3 (Foreground)
//Storyboard Sound Samples
//Background Colour Transformations
3,100,192,192,192

[TimingPoints]
14466,410.958904109589,4,1,0,100,1

[Colours]
Combo1 : 254,191,1
Combo2 : 188,0,0
Combo3 : 0,0,0
Combo4 : 189,216,1
Combo5 : 94,0,94

[HitObjects]
200,40,14465,1,0
304,40,14876,1,0
312,352,16109,5,0
208,352,16520,1,0
200,40,17753,5,0
304,40,18164,1,0
304,352,19397,5,0
200,352,19808,1,0
480,264,21041,5,0
480,264,21452,1,0
256,40,22685,5,0
256,40,23096,1,0
40,264,24329,5,0
40,264,24739,1,0
192,120,25561,5,4
256,40,25972,1,4
320,120,26383,1,4
256,320,27616,5,0
256,320,28027,1,0
360,320,28438,2,0,B|456:320|456:208,1,130
352,208,29260,5,0
352,208,29671,1,0
256,168,30082,2,0,B|256:88|352:88,2,130
256,272,31315,5,0
256,168,31726,2,0,B|256:16,1,130
176,104,32548,5,0
256,168,32959,1,0
256,168,33370,2,0,B|256:88|160:88,2,130
256,272,34602,1,0
256,168,35013,2,0,B|336:168|336:80,2,130
256,192,36246,12,4,39945
56,64,40767,5,0
160,64,41178,2,0,B|160:144|64:144,2,130
264,64,42411,1,0
264,168,42822,1,0
264,272,43233,1,0
160,272,43644,5,0
56,272,44055,1,0
56,272,44260,1,0
56,272,44465,1,0
56,168,44876,2,0,B|56:88|152:88,2,130
160,192,46109,1,4
160,192,46520,1,4
264,192,46931,2,0,B|264:272|360:272,1,130
416,192,47753,1,0
416,192,47959,1,0
416,344,48575,5,0
320,312,48986,2,0,B|176:312,1,130
96,352,49808,1,0
192,312,50219,1,4
192,312,50424,1,4
256,232,50835,1,4
256,232,51041,1,4
152,232,51452,6,0,B|16:232,1,130
88,152,52274,2,0,B|-8:152,2,65
192,152,53096,1,0
192,48,53507,1,0
192,152,53918,1,0
88,152,54329,1,0
88,256,54739,2,0,B|88:336|184:336,1,130
272,336,55561,1,0
272,336,55767,1,0
392,232,56383,6,0,B|392:88,1,130
288,104,57205,2,2,B|288:264,2,130
184,88,58438,2,0,B|40:88,1,130
56,192,59260,2,0,B|200:192,1,130
288,192,60082,5,0
288,296,60493,2,0,B|128:296,2,130
256,192,61726,1,4
256,192,61931,1,4
256,88,62342,1,4
256,88,62548,1,4
160,168,67068,6,0,B|160:88|256:88,1,130
256,192,67890,5,4
256,192,68096,1,4
256,192,68301,1,0
256,192,68507,1,4
256,192,68712,1,4
352,216,69123,6,0,B|352:296|256:296,1,130
256,256,76931,5,0
256,152,77342,1,0
360,144,77753,2,0,B|408:144|408:104,2,65
256,152,78575,1,0
256,256,78986,1,0
152,256,79397,2,0,B|104:256|104:216,2,65
256,256,80219,5,0
360,256,80630,1,0
360,152,81041,2,2,B|504:152,2,130
280,216,82274,6,0,B|184:336,2,130,0|4|0
184,176,83507,2,0,B|280:56,2,130
120,256,84739,1,0
120,256,85150,1,0
120,152,85561,5,0
224,152,85972,6,0,B|224:232|320:232,1,130
304,336,86794,1,0
408,336,87205,1,0
344,248,87616,6,0,B|344:168|440:168,4,130,0|0|4|4|0
288,48,90082,6,2,B|248:88|304:136|224:160,1,130
232,256,90904,1,0
232,360,91315,1,0
128,360,91726,6,2,B|112:304|192:304|176:224,1,130
184,144,92548,1,0
184,40,92959,1,0
80,40,93370,6,0,B|112:96|24:88|40:184,3,130,2|2|0|0
144,160,95013,1,4
248,160,95424,1,4
352,160,95835,2,0,B|352:232|448:232,1,130
440,128,96657,6,0,B|440:56,2,65
440,232,97479,6,0,B|440:312|344:312,1,130
256,192,98301,12,4,102411
440,88,103233,5,0
336,88,103644,1,0
336,88,103849,1,0
176,88,104465,2,0,B|176:224,1,130
72,216,105287,2,0,B|72:136,1,65
216,208,106109,5,0
320,208,106520,1,0
336,312,106931,2,4,B|408:312,1,65
328,240,107548,2,4,B|248:240,1,65
328,160,108164,2,2,B|328:16,2,130
120,168,109808,6,0,B|104:128|168:104,2,65
224,144,110630,1,0
224,248,111041,1,0
328,248,111452,1,0
224,248,111863,1,4
224,248,112274,1,4
328,248,112685,1,0
432,248,113096,2,4,B|432:136|336:136|336:288|168:288|160:136,1,390
56,32,114739,2,0,B|192:32,1,130
192,136,115561,1,0
192,240,115972,1,0
104,184,116383,5,0
32,256,116794,2,0,B|32:336|128:336,1,130
216,336,117616,1,0
216,232,118027,1,4
216,232,118233,1,4
216,128,118644,5,4
216,128,118849,1,4
224,24,119260,2,0,B|312:24|312:104,1,130
312,200,120082,2,2,B|312:280|216:280,2,130
320,96,121315,1,0
216,96,121726,5,0
112,96,122137,1,4
112,96,122342,1,4
112,200,122753,1,4
112,200,122959,1,4
208,240,123370,2,2,B|264:240|264:296,2,65
272,160,124192,1,4
208,80,124602,2,2,B|160:80|160:32,2,65
464,264,127068,5,0
464,264,127479,1,0
360,264,127890,2,0,B|72:264,1,260
56,168,129123,5,0
56,168,129534,1,0
160,168,129945,2,0,B|424:168,1,260
472,72,131178,5,0
472,72,131589,1,0
368,72,132000,2,0,B|104:72,1,260
16,120,133233,1,0
120,112,133644,2,0,B|120:160|192:160|192:80|416:80|440:80|440:208|440:288|352:288|280:288|280:216,2,520,0|0|4
40,48,140219,5,0
40,48,140630,1,0
144,48,141041,2,0,B|184:48|184:96|128:96|104:96|104:264|192:264,1,260
256,328,142274,5,0
256,328,142685,1,0
360,328,143096,2,0,B|400:328|400:280|344:280|320:280|320:112|408:112,1,260
472,48,144329,5,0
472,48,144739,1,0
368,40,145150,2,0,B|328:40|328:88|384:88|408:88|408:256|320:256,1,260
440,256,146383,1,0
336,256,146794,2,0,B|280:184|56:344|56:256|56:128|56:72|168:72|168:168|224:168|224:64,2,520,0|0|4
328,72,154192,6,0,B|464:72,1,130
384,144,155013,2,0,B|248:144,1,130
152,144,155835,1,0
96,232,156246,1,0
40,144,156657,1,0
96,56,157068,6,0,B|96:200,3,130,0|4|4|0
200,184,158712,1,0
304,184,159123,6,2,B|304:96|192:96,2,130
200,200,160356,6,0,B|200:288|312:288,1,130,0|4
336,200,161178,6,0,B|424:200|424:312,1,130,0|4
480,192,162000,6,0,B|480:104|368:104,1,130,0|4
296,104,162822,6,0,B|208:104|208:216,1,130,0|4
200,288,163644,5,4
200,288,163849,1,4
304,288,164260,1,4
304,288,164466,1,4
248,200,164876,2,0,B|248:64,1,130
144,72,165698,1,0
88,72,165904,1,0
40,72,166109,5,0
40,176,166520,1,0
40,176,166931,1,0
144,176,167342,1,0
144,176,167753,1,0
88,264,168164,1,0
192,264,168575,6,0,B|336:264,1,130
376,264,169192,1,0
424,264,169397,1,0
472,168,169808,1,0
368,168,170219,1,0
344,64,170630,6,2,B|256:64|256:176,2,130
448,64,171863,1,4
424,168,172274,2,0,B|384:168|384:120,2,65
448,264,173096,1,0
344,264,173507,5,0
296,168,173918,2,0,B|336:168|336:120,2,65
248,72,174739,1,4
248,72,174945,1,0
248,72,175150,1,0
248,176,175561,1,0
248,176,175972,5,0
248,280,176383,6,2,B|248:240|200:240|200:304|128:304,2,130
184,200,177616,6,2,B|184:160|136:160|136:224|64:224,1,130
112,120,178438,6,2,B|112:80|64:80|64:144|-8:144,1,130
112,120,179260,1,0
216,120,179671,1,0
256,216,180082,6,2,B|256:360,1,130
360,344,180904,1,0
360,240,181315,1,0
464,240,181726,1,4
464,240,181931,1,4
464,344,182342,5,4
464,344,182548,1,4
368,304,182959,6,2,B|368:344|320:344|320:280|248:280,3,130
328,192,184602,6,2,B|328:232|280:232|280:168|208:168,1,130
280,80,185424,6,2,B|280:120|232:120|232:56|160:56,1,130
160,160,186246,6,2,B|160:120|112:120|112:184|40:184,3,130
112,272,187890,6,2,B|112:312|160:312|160:248|232:248,1,130
256,152,188712,1,0
256,256,189123,1,0
256,152,189534,1,6
