osu file format v14

[General]
AudioFilename: Good Times-Ella Eyre.mp3
AudioLeadIn: 0
PreviewTime: 54679
Countdown: 0
SampleSet: Normal
StackLeniency: 0.3
Mode: 0
LetterboxInBreaks: 1
WidescreenStoryboard: 0

[Editor]
DistanceSpacing: 1.1
BeatDivisor: 4
GridSize: 4
TimelineZoom: 1

[Metadata]
Title:Good Times
TitleUnicode:Good Times
Artist:Ella Eyre
ArtistUnicode:Ella Eyre
Creator:Frey
Version:Insane
Source:
Tags:Marianna PeterEU dnb drum and bass drum'n'bass Sigma Sigala Feline
BeatmapID:1467254
BeatmapSetID:693432

[Difficulty]
HPDrainRate:7
CircleSize:4
OverallDifficulty:8
ApproachRate:9
SliderMultiplier:1.8
SliderTickRate:1

[Events]
//Background and Video events
0,0,"g.jpg",0,0
//Break Periods
2,87966,96766
2,175737,183166
//Storyboard Layer 0 (Background)
//Storyboard Layer 1 (Fail)
//Storyboard Layer 2 (Pass)
//Storyboard Layer 3 (Foreground)
//Storyboard Sound Samples

[TimingPoints]
10966,342.857142857143,4,2,1,75,1,0
10966,-125,4,2,1,75,0,0
32908,-111.111111111111,4,2,1,75,0,0
52794,-111.111111111111,4,2,1,70,0,0
54851,-100,4,1,1,70,0,1
74051,-100,4,1,1,70,0,0
76794,-100,4,1,1,70,0,1
87766,-100,4,1,1,60,0,0
97366,-100,4,2,1,55,0,0
98051,-100,4,2,1,60,0,0
98737,-100,4,2,1,65,0,0
119651,-100,4,2,1,60,0,0
119994,-100,4,2,1,55,0,0
120680,-111.111111111111,4,2,1,75,0,0
140566,-100,4,2,1,70,0,0
141251,-100,4,2,1,60,0,0
142623,-100,4,1,1,70,0,1
161823,-100,4,1,1,70,0,0
164566,-100,4,1,1,70,0,1
175537,-100,4,1,1,60,0,0
183766,-100,4,2,1,55,0,0
186508,-111.111111111111,4,2,1,75,0,0
195423,-111.111111111111,4,2,1,70,0,0
197137,-76.9230769230769,4,2,1,70,0,0
197480,-100,4,1,1,70,0,1
205708,-100,4,1,1,70,0,0
208451,-100,4,1,1,70,0,1
230394,-100,4,1,1,70,0,0

[Colours]
Combo1 : 17,254,176
Combo2 : 173,255,95
Combo3 : 255,88,100
Combo4 : 255,94,55

[HitObjects]
64,108,10965,6,0,P|144:116|248:68,1,180,4|0,3:0|0:0,0:0:0:0:
376,192,11480,1,4,3:0:0:0:
376,192,12337,6,0,L|384:288,1,72
296,276,12680,1,0,0:0:0:0:
328,119,12851,1,2,0:0:0:0:
296,276,13708,6,0,P|188:264|124:260,1,144,4|0,3:0|0:0,0:0:0:0:
144,364,14223,2,0,P|215:369|287:378,1,144,4|0,3:0|0:0,0:0:0:0:
412,254,14737,1,4,3:0:0:0:
412,254,15080,6,0,P|449:312|433:380,1,144,4|0,3:0|0:0,0:0:0:0:
344,182,15594,1,2,0:0:0:0:
168,182,16280,5,0,3:0:0:0:
168,182,16451,2,0,P|179:247|192:344,1,144,4|0,3:0|0:0,0:0:0:0:
365,342,16966,1,4,3:0:0:0:
365,342,18166,5,0,0:0:0:0:
264,328,18337,1,0,3:0:0:0:
162,313,18508,1,0,3:0:0:0:
162,313,18680,2,0,P|152:220|156:136,1,144,4|0,3:0|0:0,0:0:0:0:
350,71,19194,6,0,P|360:164|356:248,1,144,4|0,3:0|0:0,0:0:0:0:
252,128,19708,2,0,P|248:64|304:0,1,144,4|0,3:0|0:0,0:0:0:0:
436,60,20223,1,4,3:0:0:0:
256,192,20394,12,0,21594,0:0:0:0:
163,275,21937,6,0,P|92:267|20:264,1,144,4|0,3:0|0:0,0:0:0:0:
156,188,22451,2,0,P|220:196|312:200,1,144,4|0,3:0|0:0,0:0:0:0:
171,363,22966,5,0,0:0:0:0:
163,275,23137,1,0,0:0:0:0:
156,188,23308,2,0,P|161:152|165:116,1,72
84,240,23651,1,0,0:0:0:0:
236,223,23823,2,0,P|316:216|388:216,1,144,2|0,0:0|0:0,0:0:0:0:
496,116,24337,1,2,0:0:0:0:
496,116,24680,6,0,P|416:112|348:56,1,144,4|0,3:0|0:0,0:0:0:0:
276,161,25194,2,0,P|196:168|124:168,1,144,4|0,3:0|0:0,0:0:0:0:
60,220,25708,1,0,3:0:0:0:
108,292,25880,1,0,3:0:0:0:
132,168,26051,6,0,L|148:80,1,72,4|0,3:0|0:0,0:0:0:0:
256,48,26394,1,0,0:0:0:0:
380,168,26566,1,2,0:0:0:0:
131,309,27251,5,0,0:0:0:0:
131,309,27423,2,0,P|120:238|132:168,1,144,4|0,3:0|0:0,0:0:0:0:
256,48,27937,1,4,3:0:0:0:
256,48,29137,5,0,0:0:0:0:
356,64,29308,1,0,3:0:0:0:
456,80,29479,1,0,3:0:0:0:
456,80,29651,2,0,L|472:240,1,144,4|0,3:0|0:0,0:0:0:0:
256,192,30166,6,0,P|311:147|388:152,1,144,4|0,3:0|0:0,0:0:0:0:
287,304,30680,2,0,P|217:305|162:261,1,144,4|0,3:0|0:0,0:0:0:0:
225,80,31194,1,4,3:0:0:0:
256,192,31366,12,0,32566,0:0:0:0:
144,56,32908,6,0,P|124:140|168:220,1,161.999995056153,4|2,1:2|0:0,0:0:0:0:
368,327,33594,2,0,P|388:251|358:177,1,161.999995056153,0|2,0:0|0:0,0:0:0:0:
256,132,34108,1,0,0:0:0:0:
95,237,34280,6,0,P|175:242|256:251,1,161.999995056153,0|2,1:0|0:0,0:0:0:0:
417,147,34794,2,0,P|336:141|255:131,1,161.999995056153
208,56,35308,1,2,0:0:0:0:
344,28,35480,1,0,1:0:0:0:
417,147,35651,6,0,B|408:216|408:216|392:240|392:240|380:336,1,161.999995056153,0|2,1:0|0:0,0:0:0:0:
95,237,36337,2,0,B|104:168|104:168|120:144|120:144|132:48,1,161.999995056153,0|2,0:0|0:0,0:0:0:0:
256,192,36851,1,0,0:0:0:0:
156,304,37023,6,0,P|80:325|16:280,1,161.999995056153,0|2,1:0|0:0,0:0:0:0:
34,170,37537,2,0,P|109:148|173:193,2,161.999995056153,0|2|0,0:0|0:0|0:0,0:0:0:0:
95,237,38394,5,0,1:0:0:0:
156,304,38566,1,0,0:0:0:0:
232,260,38737,2,0,L|332:252,1,80.9999975280763,2|0,0:0|0:0,0:0:0:0:
468,172,39080,2,0,L|456:352,1,161.999995056153,0|2,0:0|0:0,0:0:0:0:
348,360,39594,1,0,0:0:0:0:
312,253,39766,6,0,L|322:91,1,161.999995056153,0|2,1:0|0:0,0:0:0:0:
256,32,40280,1,0,0:0:0:0:
189,91,40451,2,0,L|200:253,1,161.999995056153,0|2,0:0|0:0,0:0:0:0:
136,384,40966,1,0,1:0:0:0:
40,276,41137,6,0,P|68:252|109:240,1,80.9999975280763,0|0,1:0|0:0,0:0:0:0:
200,252,41480,2,0,P|284:264|376:228,1,161.999995056153,2|0,0:0|0:0,0:0:0:0:
461,168,41994,1,0,0:0:0:0:
408,96,42166,2,0,L|308:116,1,80.9999975280763,2|0,0:0|0:0,0:0:0:0:
183,111,42508,6,0,L|12:76,2,161.999995056153,0|2|0,1:0|0:0|0:0,0:0:0:0:
256,56,43366,1,0,0:0:0:0:
128,24,43537,1,2,0:0:0:0:
44,160,43708,1,0,0:0:0:0:
159,269,43880,6,0,P|159:189|183:112,1,161.999995056153,0|2,1:0|0:0,0:0:0:0:
352,269,44566,2,0,P|351:189|328:111,1,161.999995056153,0|2,1:0|0:0,0:0:0:0:
256,252,45080,1,0,0:0:0:0:
288,344,45251,6,0,B|356:352|356:352|396:336|396:336|456:344,1,161.999995056153,0|2,1:0|0:0,0:0:0:0:
508,192,45766,1,0,0:0:0:0:
423,164,45937,2,0,P|419:204|432:242,1,80.9999975280763,0|0,1:0|0:0,0:0:0:0:
488,103,46280,2,0,P|491:63|478:25,1,80.9999975280763,2|0,0:0|0:0,0:0:0:0:
333,100,46623,6,0,P|254:115|176:100,1,161.999995056153,0|2,1:0|0:0,0:0:0:0:
176,283,47308,2,0,P|254:268|333:283,1,161.999995056153,0|2,1:0|0:0,0:0:0:0:
412,328,47823,1,0,0:0:0:0:
476,172,47994,6,0,L|314:188,1,161.999995056153,0|2,1:0|0:0,0:0:0:0:
176,283,48508,1,0,0:0:0:0:
156,116,48680,2,0,L|317:99,1,161.999995056153,0|2,1:0|0:0,0:0:0:0:
404,88,49194,1,0,0:0:0:0:
455,249,49366,6,0,P|460:209|475:172,1,80.9999975280763,0|0,1:0|0:0,0:0:0:0:
317,99,49708,2,0,P|312:139|296:176,1,80.9999975280763,2|0,1:2|0:0,0:0:0:0:
195,285,50051,2,0,P|199:244|215:207,1,80.9999975280763,0|0,1:0|0:0,0:0:0:0:
56,134,50394,2,0,P|51:174|36:211,1,80.9999975280763,2|0,1:2|0:0,0:0:0:0:
120,336,50737,5,0,1:0:0:0:
195,285,50908,1,0,1:0:0:0:
184,196,51080,1,2,1:2:0:0:
109,247,51251,1,0,1:0:0:0:
195,285,51423,2,0,P|239:278|308:276,1,80.9999975280763,0|0,1:0|1:0,1:0:0:0:
409,204,51766,2,0,P|366:200|328:195,1,80.9999975280763,2|0,1:2|1:0,1:0:0:0:
144,72,52108,5,0,3:0:0:0:
158,81,52193,1,0,3:0:0:0:
174,88,52279,1,0,3:0:0:0:
191,91,52365,1,0,3:0:0:0:
208,91,52450,1,0,3:0:0:0:
225,88,52536,1,0,3:0:0:0:
241,81,52622,1,0,3:0:0:0:
256,72,52709,1,0,3:0:0:0:
271,62,52794,1,0,3:0:0:0:
287,55,52880,1,0,3:0:0:0:
304,52,52966,1,0,3:0:0:0:
321,52,53051,1,0,3:0:0:0:
338,55,53137,1,0,3:0:0:0:
354,62,53223,1,0,3:0:0:0:
368,72,53308,2,0,P|383:98|392:120,1,40.4999987640381,0|0,3:0|3:0,3:0:0:0:
144,312,54508,5,2,1:2:0:0:
144,312,54851,6,0,P|144:200|136:116,1,180,12|8,0:3|0:0,0:0:0:0:
44,96,55366,1,0,0:1:0:0:
44,96,55451,1,0,0:0:0:0:
44,96,55537,1,2,0:2:0:0:
60,192,55708,1,4,0:3:0:0:
227,141,55880,2,8,P|182:132|137:131,1,90,8|0,0:0|0:0,0:0:0:0:
144,312,56223,6,8,P|188:320|233:321,1,90,4|0,0:3|0:0,0:0:0:0:
367,72,56566,2,8,P|323:63|278:62,1,90,8|0,0:0|0:0,0:0:0:0:
248,68,56823,1,0,0:0:0:0:
248,68,56908,1,2,0:2:0:0:
138,130,57080,1,4,0:3:0:0:
285,243,57251,2,8,P|329:251|374:252,1,90,8|0,0:0|0:0,0:0:0:0:
456,152,57594,6,0,P|480:84|420:0,1,180,4|8,0:3|0:0,0:0:0:0:
367,162,58108,1,0,0:0:0:0:
367,162,58194,1,0,0:0:0:0:
367,162,58280,2,0,L|375:262,1,90,2|4,0:2|0:3,0:0:0:0:
137,251,58623,2,0,L|145:162,1,90,8|0,0:0|0:0,0:0:0:0:
256,40,58966,5,4,0:3:0:0:
156,60,59137,1,0,0:0:0:0:
256,192,59308,1,8,0:0:0:0:
356,60,59480,1,0,0:0:0:0:
356,60,59566,1,0,0:0:0:0:
356,60,59651,1,2,0:2:0:0:
408,192,59823,5,8,0:0:0:0:
256,344,59994,1,4,0:3:0:0:
104,192,60166,1,8,0:0:0:0:
256,40,60337,6,0,P|248:124|280:220,1,180,12|8,0:3|0:0,0:0:0:0:
167,375,60851,1,0,0:0:0:0:
167,375,60937,1,0,0:0:0:0:
167,375,61023,2,0,P|171:311|183:267,1,90,2|4,0:2|0:3,0:0:0:0:
276,214,61366,2,0,P|340:218|384:230,1,90,8|0,0:0|0:0,0:0:0:0:
176,285,61708,6,0,P|112:281|68:269,1,90,4|0,0:3|0:0,0:0:0:0:
0,192,62051,1,8,0:0:0:0:
72,96,62223,1,0,0:0:0:0:
92,88,62308,1,0,0:0:0:0:
116,84,62394,2,0,P|136:156|140:196,1,90,2|4,0:2|0:3,0:0:0:0:
256,352,62737,2,0,P|263:307|277:265,1,90,8|0,0:0|0:0,0:0:0:0:
256,42,63080,6,0,P|235:124|307:168,1,180,4|8,0:3|0:0,0:0:0:0:
396,148,63594,1,0,0:0:0:0:
432,140,63680,1,0,0:0:0:0:
468,132,63766,1,2,0:2:0:0:
368,60,63937,1,4,0:3:0:0:
307,169,64108,2,0,L|328:284,1,90,8|0,0:0|0:0,0:0:0:0:
72,304,64451,6,0,L|51:189,1,90,4|0,0:3|0:0,0:0:0:0:
36,116,64794,1,8,0:0:0:0:
224,72,64966,1,0,0:0:0:0:
224,72,65051,1,0,0:0:0:0:
224,72,65137,1,2,0:2:0:0:
205,169,65308,2,0,L|184:284,1,90,8|0,0:0|0:0,0:0:0:0:
344,356,65651,1,0,0:0:0:0:
344,356,65737,1,0,0:0:0:0:
344,356,65823,6,0,P|400:300|372:204,1,180,12|8,0:3|0:0,0:0:0:0:
280,188,66337,1,0,0:0:0:0:
280,188,66423,1,0,0:0:0:0:
280,188,66508,1,2,0:2:0:0:
220,268,66680,1,4,0:3:0:0:
344,356,66851,2,0,P|416:340|452:340,1,90,8|0,0:0|0:0,0:0:0:0:
500,155,67194,6,0,P|455:150|412:138,1,90,4|0,0:3|0:0,0:0:0:0:
320,100,67537,1,8,0:0:0:0:
400,40,67708,1,0,0:2:0:0:
400,40,67794,1,0,0:2:0:0:
400,40,67880,1,2,0:2:0:0:
500,155,68051,1,4,0:3:0:0:
385,255,68223,2,0,L|252:244,1,90,8|0,0:0|0:0,0:0:0:0:
144,232,68566,6,0,P|116:148|164:72,1,180,4|8,0:3|0:0,0:0:0:0:
352,74,69080,1,0,0:0:0:0:
352,74,69166,1,0,0:0:0:0:
352,74,69251,1,2,0:2:0:0:
256,44,69423,1,4,0:3:0:0:
332,172,69594,2,0,P|374:157|418:151,1,90,8|0,0:0|0:0,0:0:0:0:
180,212,69937,6,0,P|137:197|93:191,1,90,4|0,0:3|0:0,0:0:0:0:
256,276,70280,1,8,0:0:0:0:
160,116,70451,1,0,0:0:0:0:
160,116,70537,1,0,0:0:0:0:
160,116,70623,5,2,0:2:0:0:
116,288,70794,1,8,0:0:0:0:
396,288,70966,1,4,0:3:0:0:
352,116,71137,1,8,0:0:0:0:
180,212,71308,6,0,P|96:188|65:96,1,180,12|8,0:3|0:0,0:0:0:0:
148,12,71823,1,0,0:0:0:0:
184,20,71908,1,0,0:0:0:0:
220,28,71994,1,2,0:2:0:0:
316,48,72166,1,4,0:3:0:0:
340,172,72337,2,0,L|364:296,1,90,8|0,0:0|0:0,0:0:0:0:
154,260,72680,6,0,L|172:172,1,90,4|0,0:3|0:0,0:0:0:0:
24,108,73023,1,8,0:0:0:0:
4,208,73194,1,0,0:0:0:0:
28,216,73280,1,0,0:0:0:0:
52,224,73366,1,2,0:2:0:0:
154,260,73537,1,4,0:3:0:0:
220,72,73708,1,8,0:0:0:0:
24,108,73880,1,0,0:0:0:0:
154,260,74051,6,0,P|200:248|248:244,1,90
358,124,74394,2,0,P|312:136|264:140,1,90,2|0,0:2|0:0,0:0:0:0:
380,316,74737,2,0,P|384:271|395:227,1,90
132,68,75080,2,0,P|127:112|116:156,1,90,2|0,0:2|0:0,0:0:0:0:
256,356,75423,5,0,0:0:0:0:
264,336,75508,1,0,0:0:0:0:
268,312,75594,1,0,0:0:0:0:
264,288,75680,1,0,0:0:0:0:
256,268,75766,1,2,0:2:0:0:
248,248,75851,1,0,0:0:0:0:
244,224,75937,1,0,0:0:0:0:
248,200,76023,1,0,0:0:0:0:
256,180,76108,1,0,0:0:0:0:
396,156,76280,5,0,0:0:0:0:
116,156,76451,1,6,0:2:0:0:
376,260,76794,6,0,L|476:240,1,90,12|0,0:3|0:0,0:0:0:0:
464,141,77137,2,0,L|376:124,1,90,8|0,0:0|0:0,0:0:0:0:
344,116,77394,1,0,0:0:0:0:
344,116,77480,1,2,0:2:0:0:
364,20,77651,1,4,0:3:0:0:
196,96,77823,2,0,P|192:144|216:192,1,90,8|0,0:0|0:0,0:0:0:0:
316,287,78166,6,0,P|320:243|304:202,1,90,4|0,0:3|0:0,0:0:0:0:
196,96,78508,2,0,L|76:112,1,90,8|0,0:0|0:0,0:0:0:0:
76,112,78766,1,0,0:0:0:0:
76,112,78851,1,2,0:2:0:0:
44,280,79023,1,4,0:3:0:0:
108,204,79194,1,8,0:0:0:0:
12,188,79366,1,0,0:0:0:0:
176,304,79537,6,0,P|240:312|288:332,1,90,4|0,0:3|0:0,0:0:0:0:
435,140,79880,2,0,P|391:136|348:124,1,90,8|0,0:0|0:0,0:0:0:0:
348,259,80137,1,0,0:0:0:0:
348,259,80223,2,0,P|391:246|435:244,1,90,2|4,0:2|0:3,0:0:0:0:
263,62,80566,2,0,P|220:75|175:79,1,90,8|0,0:0|0:0,0:0:0:0:
28,232,80908,6,0,L|0:32,1,180,4|8,0:3|0:0,0:0:0:0:
96,12,81423,1,0,0:0:0:0:
96,12,81508,1,0,0:0:0:0:
96,12,81594,1,2,0:2:0:0:
168,80,81766,1,4,0:3:0:0:
344,80,81937,2,0,P|398:70|464:64,1,90,8|0,0:0|0:0,0:0:0:0:
432,317,82280,6,0,P|388:312|344:304,1,90,12|0,0:3|0:0,0:0:0:0:
256,256,82623,1,8,0:0:0:0:
256,128,82794,1,0,0:0:0:0:
256,128,82880,1,0,0:0:0:0:
256,128,82966,1,2,0:2:0:0:
368,192,83137,1,4,0:3:0:0:
144,192,83308,2,0,P|136:148|144:104,1,90,8|0,0:0|0:0,0:0:0:0:
256,12,83651,6,0,B|324:20|324:20|360:12|360:12|460:24,1,180,4|8,0:3|0:0,0:0:0:0:
456,224,84166,1,0,0:0:0:0:
476,192,84251,1,0,0:0:0:0:
496,160,84337,1,2,0:2:0:0:
408,116,84508,1,4,0:3:0:0:
374,282,84680,2,0,L|348:196,1,90,8|0,0:0|0:0,0:0:0:0:
137,101,85023,6,0,L|164:188,1,90,4|0,0:3|0:0,0:0:0:0:
244,248,85366,1,8,0:0:0:0:
256,148,85537,1,0,0:0:0:0:
256,148,85623,1,0,0:0:0:0:
256,148,85708,1,2,0:2:0:0:
188,20,85880,1,4,0:3:0:0:
48,60,86051,2,0,P|20:124|16:172,1,90,8|0,0:0|0:0,0:0:0:0:
180,347,86394,6,0,P|206:284|146:176,1,180,0|8,3:0|3:2,2:0:0:0:
64,200,86908,1,0,2:0:0:0:
80,360,87080,1,0,3:0:0:0:
180,347,87251,2,0,L|376:323,1,180,8|0,3:2|2:0,2:0:0:0:
448,184,87766,5,6,2:0:0:0:
104,112,97366,5,0,3:0:0:0:
176,180,97537,2,0,L|192:240,2,45,0|0|8,0:0|0:0|3:2,0:0:0:0:
200,84,97880,1,0,0:0:0:0:
432,208,98051,2,0,L|500:188,2,45,0|0|0,0:0|0:0|3:0,0:0:0:0:
360,276,98394,1,8,3:2:0:0:
336,180,98565,1,0,0:0:0:0:
152,276,98737,6,0,P|120:192|152:112,1,180,4|8,0:3|0:2,0:0:0:0:
256,136,99251,1,0,0:0:0:0:
256,248,99423,2,0,L|256:360,1,90,0|4,0:0|0:3,0:0:0:0:
360,276,99766,2,0,P|408:256|484:256,1,90,8|0,0:0|0:0,0:0:0:0:
512,104,100108,6,0,P|467:97|426:79,1,90,4|0,0:3|0:0,0:0:0:0:
348,20,100451,1,8,0:0:0:0:
336,120,100623,1,0,0:0:0:0:
426,79,100794,1,0,0:0:0:0:
256,60,100966,1,4,0:3:0:0:
148,188,101137,2,0,P|161:240|172:312,1,90,8|0,0:0|0:0,0:0:0:0:
344,375,101480,6,0,P|400:309|389:223,1,180,4|8,0:3|0:0,0:0:0:0:
256,192,101994,1,0,0:0:0:0:
227,324,102166,2,0,L|108:340,1,90,0|4,0:0|0:3,0:0:0:0:
4,144,102508,1,8,0:0:0:0:
88,92,102680,1,0,0:0:0:0:
92,192,102851,6,0,P|68:232|56:288,1,90,4|0,0:3|0:0,0:0:0:0:
137,335,103194,1,8,0:0:0:0:
256,192,103366,1,0,0:0:0:0:
238,174,103451,1,0,0:0:0:0:
221,156,103537,1,0,0:0:0:0:
204,138,103623,1,0,0:0:0:0:
187,120,103708,1,4,0:3:0:0:
325,264,103880,2,0,L|433:240,1,90,8|0,0:0|0:0,0:0:0:0:
488,80,104223,6,0,P|424:32|320:56,1,180,4|8,0:3|0:0,0:0:0:0:
256,116,104737,1,0,0:0:0:0:
256,216,104908,2,0,L|348:200,1,90,0|4,0:0|0:3,0:0:0:0:
182,47,105251,2,0,L|90:31,1,90,8|0,0:0|0:0,0:0:0:0:
12,88,105594,5,4,0:3:0:0:
44,256,105766,1,0,0:0:0:0:
184,160,105937,1,8,0:0:0:0:
12,88,106108,2,0,P|8:133|21:176,1,90,4|0,0:3|0:0,0:0:0:0:
153,319,106451,1,4,0:3:0:0:
280,196,106623,2,0,P|284:151|271:108,1,90,8|0,0:0|0:0,0:0:0:0:
184,160,106966,6,0,P|136:236|156:324,1,180,4|8,0:3|0:0,0:0:0:0:
359,319,107480,2,0,L|348:208,1,90
420,72,107823,1,4,0:3:0:0:
512,32,107994,1,8,0:0:0:0:
500,132,108166,1,4,0:3:0:0:
350,229,108337,5,6,0:3:0:0:
252,212,108508,1,0,0:0:0:0:
170,133,108680,1,8,0:0:0:0:
268,116,108851,1,0,0:0:0:0:
235,310,109023,5,2,0:0:0:0:
137,327,109194,1,4,0:3:0:0:
22,211,109366,1,8,0:0:0:0:
120,228,109537,1,0,0:0:0:0:
56,304,109708,6,0,L|88:124,1,180,4|8,0:3|0:0,0:0:0:0:
104,28,110223,1,0,0:0:0:0:
272,77,110394,2,0,P|228:89|184:92,1,90,0|4,0:0|0:3,0:0:0:0:
256,256,110737,2,0,P|300:258|344:270,1,90,8|0,0:0|0:0,0:0:0:0:
456,180,111080,5,4,0:3:0:0:
404,336,111251,1,0,0:0:0:0:
256,256,111423,1,8,0:0:0:0:
232,160,111594,2,0,L|204:40,1,90
312,96,111937,1,4,0:3:0:0:
256,256,112108,2,0,P|205:262|152:288,1,90,8|0,0:0|0:0,0:0:0:0:
0,124,112451,6,0,P|64:176|160:148,1,180,4|8,0:3|0:0,0:0:0:0:
211,72,112966,1,0,0:0:0:0:
308,96,113137,2,0,L|396:116,1,90,0|4,0:0|0:3,0:0:0:0:
204,288,113480,2,0,L|116:268,1,90,8|0,0:0|0:0,0:0:0:0:
95,263,113737,1,0,0:0:0:0:
75,256,113823,6,0,P|60:208|64:160,1,90,4|0,0:3|0:0,0:0:0:0:
280,108,114166,2,0,P|281:152|266:195,1,90,8|0,0:0|0:0,0:0:0:0:
184,135,114508,1,0,0:0:0:0:
184,135,114594,1,0,0:0:0:0:
184,135,114680,1,4,0:3:0:0:
256,8,114851,1,8,0:0:0:0:
396,52,115023,1,0,0:0:0:0:
396,52,115194,6,0,P|432:136|412:220,1,180,4|8,0:3|0:0,0:0:0:0:
352,300,115708,1,0,0:0:0:0:
256,264,115880,1,0,0:0:0:0:
64,192,116051,1,4,0:3:0:0:
150,138,116223,2,0,L|160:228,1,90,8|0,0:0|0:0,0:0:0:0:
352,228,116566,6,0,L|361:138,1,90,4|0,0:3|0:0,0:0:0:0:
256,28,116908,1,8,0:0:0:0:
160,48,117080,2,0,P|112:44|56:16,1,90,4|0,0:3|0:0,0:0:0:0:
148,188,117423,1,4,0:3:0:0:
312,126,117595,2,0,P|339:86|354:25,1,90,8|0,0:0|0:0,0:0:0:0:
456,124,117937,6,0,L|472:316,1,180,4|8,0:3|0:0,0:0:0:0:
328,316,118451,2,0,L|320:226,1,90
312,126,118794,1,4,0:3:0:0:
140,96,118966,1,8,0:0:0:0:
200,258,119137,1,4,0:3:0:0:
207,159,119308,6,0,P|163:168|125:190,1,90,4|4,0:3|0:3,0:0:0:0:
104,284,119651,1,8,3:2:0:0:
176,352,119823,1,0,3:0:0:0:
336,288,119994,1,0,3:0:0:0:
351,271,120079,1,0,3:0:0:0:
362,252,120165,1,0,3:0:0:0:
371,231,120251,1,0,3:0:0:0:
375,209,120336,1,8,3:2:0:0:
376,186,120422,1,0,3:0:0:0:
372,164,120508,1,0,3:0:0:0:
365,143,120594,1,0,3:0:0:0:
354,123,120680,6,0,L|168:100,1,161.999995056153,4|2,1:2|0:0,0:0:0:0:
158,261,121366,2,0,L|318:280,1,161.999995056153,0|2,1:0|0:0,0:0:0:0:
144,352,121880,1,0,0:0:0:0:
72,296,122051,6,0,P|40:216|56:144,1,161.999995056153,0|2,1:0|0:0,0:0:0:0:
108,68,122566,1,0,0:0:0:0:
196,88,122737,2,0,P|208:152|208:180,1,80.9999975280763,0|0,1:0|0:0,0:0:0:0:
55,144,123080,1,2,0:0:0:0:
256,12,123251,1,0,1:0:0:0:
404,68,123423,6,0,B|420:144|368:148|384:236,1,161.999995056153,0|2,1:0|0:0,0:0:0:0:
108,316,124108,2,0,B|92:240|144:236|128:148,1,161.999995056153,0|2,1:0|0:0,0:0:0:0:
44,184,124623,1,0,0:0:0:0:
192,288,124794,6,0,P|271:278|348:308,1,161.999995056153,0|2,1:0|0:0,0:0:0:0:
420,192,125308,1,0,0:0:0:0:
320,96,125480,2,0,P|240:105|164:76,1,161.999995056153,0|2,1:0|0:0,0:0:0:0:
84,0,125994,1,0,1:0:0:0:
56,112,126166,5,0,1:0:0:0:
165,76,126337,1,0,0:0:0:0:
200,186,126508,2,0,L|175:285,1,80.9999975280763,2|0,0:0|0:0,0:0:0:0:
351,343,126851,2,0,L|312:185,1,161.999995056153,0|2,1:0|0:0,0:0:0:0:
292,96,127366,1,0,0:0:0:0:
443,39,127537,6,0,P|459:118|423:189,1,161.999995056153,0|2,1:0|0:0,0:0:0:0:
312,185,128051,1,0,0:0:0:0:
200,180,128223,2,0,L|24:168,1,161.999995056153,0|2,1:0|0:0,0:0:0:0:
28,300,128737,1,0,1:0:0:0:
148,352,128908,6,0,P|196:336|244:340,1,80.9999975280763,0|0,1:0|0:0,0:0:0:0:
312,368,129251,2,0,P|392:340|420:264,1,161.999995056153,2|0,0:0|1:0,0:0:0:0:
392,184,129766,1,0,0:0:0:0:
312,144,129937,2,0,L|200:160,1,80.9999975280763,2|0,0:0|0:0,0:0:0:0:
216,28,130280,6,0,L|400:4,2,161.999995056153,0|2|0,1:0|0:0|1:0,0:0:0:0:
104,44,131137,1,0,0:0:0:0:
32,132,131308,2,0,P|20:164|24:212,1,80.9999975280763,2|0,0:0|0:0,0:0:0:0:
156,304,131651,6,0,P|168:265|164:225,1,80.9999975280763,0|0,1:0|0:0,0:0:0:0:
120,148,131994,2,0,L|131:67,1,80.9999975280763,2|0,1:2|0:0,0:0:0:0:
256,192,132337,2,0,L|256:112,1,80.9999975280763,0|0,1:0|0:0,0:0:0:0:
392,148,132680,2,0,L|380:67,1,80.9999975280763,2|0,1:2|0:0,0:0:0:0:
217,24,133023,6,0,P|256:31|295:24,1,80.9999975280763,0|0,1:0|0:0,0:0:0:0:
296,200,133366,2,0,P|256:192|217:200,1,80.9999975280763,2|0,1:2|0:0,0:0:0:0:
140,244,133708,2,0,L|149:324,1,80.9999975280763,0|0,1:0|0:0,0:0:0:0:
362,324,134051,2,0,L|372:244,1,80.9999975280763,2|0,1:2|0:0,0:0:0:0:
308,104,134394,6,0,P|348:100|388:92,1,80.9999975280763,0|0,1:0|0:0,0:0:0:0:
204,172,134737,2,0,P|163:168|123:160,1,80.9999975280763,2|0,1:2|0:0,0:0:0:0:
96,60,135080,2,0,P|135:67|176:71,1,80.9999975280763,0|0,1:0|0:0,0:0:0:0:
416,195,135423,2,0,P|376:203|335:207,1,80.9999975280763,2|0,1:2|0:0,0:0:0:0:
136,240,135766,6,0,L|120:136,1,80.9999975280763,0|0,1:0|0:0,0:0:0:0:
304,312,136108,2,0,L|223:324,1,80.9999975280763,2|0,1:2|0:0,0:0:0:0:
376,144,136451,2,0,L|392:248,1,80.9999975280763,0|0,1:0|0:0,0:0:0:0:
208,72,136794,2,0,L|288:59,1,80.9999975280763,2|0,1:2|0:0,0:0:0:0:
136,124,137137,5,0,1:0:0:0:
124,36,137308,1,0,1:0:0:0:
208,72,137480,1,2,1:2:0:0:
220,160,137651,1,0,1:0:0:0:
148,212,137823,2,0,P|112:200|68:192,1,80.9999975280763,0|0,1:0|1:0,0:0:0:0:
364,212,138166,2,0,P|400:200|444:192,1,80.9999975280763,2|0,1:2|1:0,0:0:0:0:
320,48,138508,5,0,1:0:0:0:
276,144,138680,1,0,1:0:0:0:
236,240,138851,1,2,1:2:0:0:
192,336,139023,1,0,1:0:0:0:
112,127,139194,2,0,P|152:125|191:116,1,80.9999975280763,0|0,1:0|1:0,0:0:0:0:
399,256,139537,2,2,P|359:258|320:268,1,80.9999975280763,2|0,1:2|1:2,0:2:0:0:
192,336,139880,5,0,3:0:0:0:
171,338,139965,1,0,3:0:0:0:
151,337,140051,1,0,3:0:0:0:
132,333,140137,1,0,3:0:0:0:
113,325,140222,1,0,3:0:0:0:
96,314,140308,1,0,3:0:0:0:
81,300,140394,1,0,3:0:0:0:
69,284,140480,1,0,3:0:0:0:
61,266,140565,1,0,3:0:0:0:
55,246,140651,1,0,3:0:0:0:
53,226,140737,1,0,3:0:0:0:
55,206,140822,1,0,3:0:0:0:
60,186,140908,1,0,3:0:0:0:
69,168,140994,1,0,3:0:0:0:
81,152,141080,1,0,3:0:0:0:
95,138,141165,1,0,3:0:0:0:
112,128,141251,5,0,3:0:0:0:
284,312,141594,1,0,3:0:0:0:
480,152,141851,5,2,3:2:0:0:
480,152,141937,1,0,3:2:0:0:
488,52,142108,1,0,3:0:0:0:
306,89,142280,1,2,0:0:0:0:
328,91,142365,1,0,0:0:0:0:
351,92,142451,1,0,0:0:0:0:
373,94,142537,1,0,0:0:0:0:
396,96,142623,6,0,L|380:296,1,180,12|8,0:3|0:0,0:0:0:0:
256,304,143137,1,0,0:0:0:0:
256,304,143223,1,0,0:0:0:0:
256,304,143308,2,0,P|212:292|164:296,1,90,2|4,0:2|0:3,0:0:0:0:
308,105,143651,2,0,P|352:107|395:95,1,90,8|0,0:0|0:0,0:0:0:0:
484,48,143994,5,4,0:3:0:0:
404,208,144166,1,0,0:0:0:0:
236,148,144337,2,0,L|213:60,1,90,8|0,0:0|0:0,0:0:0:0:
204,28,144594,1,0,0:0:0:0:
204,28,144680,1,2,0:2:0:0:
108,0,144851,1,4,0:3:0:0:
24,139,145023,2,0,P|68:141|108:160,1,90,8|0,0:0|0:0,0:0:0:0:
316,256,145366,6,0,P|255:319|168:314,1,180,4|8,0:3|0:0,0:0:0:0:
219,228,145880,1,0,0:0:0:0:
219,228,145966,1,0,0:0:0:0:
219,228,146051,1,2,0:2:0:0:
293,156,146223,1,4,0:3:0:0:
392,184,146394,2,0,L|416:288,1,90,8|0,0:0|0:0,0:0:0:0:
99,271,146737,6,0,L|120:184,1,90,4|0,0:3|0:0,0:0:0:0:
240,56,147080,1,8,0:0:0:0:
144,88,147251,1,0,0:0:0:0:
144,88,147337,1,0,0:0:0:0:
144,88,147423,5,2,0:2:0:0:
368,156,147594,1,8,0:0:0:0:
144,220,147766,1,4,0:3:0:0:
368,284,147937,1,8,0:0:0:0:
256,368,148108,6,0,B|288:280|224:280|256:192,1,180,12|8,0:3|0:0,0:0:0:0:
332,92,148623,1,0,0:0:0:0:
368,96,148708,1,0,0:0:0:0:
404,100,148794,1,2,0:2:0:0:
504,112,148966,1,4,0:3:0:0:
400,252,149137,2,0,P|368:192|340:156,1,90,8|0,0:0|0:0,0:0:0:0:
256,24,149480,6,0,P|230:61|211:101,1,90,4|0,0:3|0:0,0:0:0:0:
176,196,149823,1,8,0:0:0:0:
276,180,149994,1,0,0:0:0:0:
276,180,150080,1,0,0:0:0:0:
276,180,150166,1,2,0:2:0:0:
111,85,150337,1,4,0:3:0:0:
43,263,150508,2,0,P|22:225|19:180,1,90,8|0,0:0|0:0,0:0:0:0:
256,24,150851,6,0,P|269:110|211:174,1,180,4|8,0:3|0:0,0:0:0:0:
112,200,151366,1,0,0:0:0:0:
112,200,151451,1,0,0:0:0:0:
112,200,151537,2,0,P|106:154|92:92,1,90,2|4,0:2|0:3,0:0:0:0:
414,111,151880,2,0,P|405:155|400:200,1,90,8|0,0:0|0:0,0:0:0:0:
256,360,152223,6,0,L|256:248,1,90,4|0,0:3|0:0,0:0:0:0:
256,114,152566,1,8,0:0:0:0:
168,228,152737,1,0,0:0:0:0:
168,228,152823,1,0,0:0:0:0:
168,228,152908,1,2,0:2:0:0:
123,135,153080,2,0,P|121:91|138:50,1,90,8|0,0:0|0:0,0:0:0:0:
373,50,153423,1,0,0:0:0:0:
373,50,153508,1,0,0:0:0:0:
373,50,153594,6,0,P|390:91|356:232,1,180,12|8,0:3|0:0,0:0:0:0:
147,219,154108,1,0,0:0:0:0:
147,219,154194,1,0,0:0:0:0:
147,219,154280,2,0,P|67:203|23:199,1,90,2|4,0:2|0:3,0:0:0:0:
132,96,154623,1,8,0:0:0:0:
256,128,154794,1,0,0:0:0:0:
256,256,154966,6,0,L|256:360,1,90,4|0,0:3|0:0,0:0:0:0:
380,288,155308,2,0,P|460:272|504:268,1,90,8|0,0:0|0:0,0:0:0:0:
500,268,155566,1,0,0:0:0:0:
500,268,155651,1,2,0:2:0:0:
476,36,155823,1,4,0:3:0:0:
356,96,155994,1,8,0:0:0:0:
468,172,156166,1,0,0:0:0:0:
300,13,156337,6,0,P|256:88|289:169,1,180,4|8,0:3|0:0,0:0:0:0:
356,96,156851,1,0,0:0:0:0:
356,96,156937,1,0,0:0:0:0:
356,96,157023,1,2,0:2:0:0:
256,236,157194,1,4,0:3:0:0:
156,96,157366,2,0,L|145:6,1,90,8|0,0:0|0:0,0:0:0:0:
168,216,157708,6,0,L|178:305,1,90,4|0,0:3|0:0,0:0:0:0:
333,305,158051,1,8,0:0:0:0:
344,208,158223,1,0,0:0:0:0:
348,172,158308,1,0,0:0:0:0:
352,136,158394,1,2,0:2:0:0:
256,56,158566,5,8,0:0:0:0:
120,192,158737,1,4,0:3:0:0:
256,328,158908,1,8,0:0:0:0:
184,116,159080,6,0,P|99:96|30:149,1,180,12|8,0:3|0:0,0:0:0:0:
129,290,159594,1,0,0:0:0:0:
129,290,159680,1,0,0:0:0:0:
129,290,159766,1,2,0:2:0:0:
120,192,159937,1,4,0:3:0:0:
40,248,160108,2,0,L|28:344,1,90,8|0,0:0|0:0,0:0:0:0:
232,364,160451,6,0,L|243:274,1,90,4|0,0:3|0:0,0:0:0:0:
280,20,160794,2,0,L|268:109,1,90,8|0,0:0|0:0,0:0:0:0:
264,144,161051,1,0,0:0:0:0:
264,144,161137,1,2,0:2:0:0:
388,160,161308,1,4,0:3:0:0:
492,20,161480,2,0,P|447:25|404:36,1,90,8|0,0:0|0:0,0:0:0:0:
264,144,161823,6,0,P|216:136|176:112,1,90
128,32,162166,1,2,0:2:0:0:
44,84,162337,1,0,0:0:0:0:
144,294,162508,2,0,P|171:258|184:215,1,90
180,115,162850,1,2,0:2:0:0:
96,167,163022,1,0,0:0:0:0:
256,288,163194,5,0,0:0:0:0:
278,286,163279,1,0,0:0:0:0:
300,284,163365,1,0,0:0:0:0:
323,282,163451,1,0,0:0:0:0:
345,280,163536,1,2,0:2:0:0:
368,278,163622,1,0,0:0:0:0:
390,276,163708,1,0,0:0:0:0:
412,274,163794,1,0,0:0:0:0:
435,272,163879,1,0,0:0:0:0:
336,156,164051,5,0,0:0:0:0:
256,376,164223,1,6,0:2:0:0:
63,217,164566,6,0,P|61:262|76:303,1,90,12|0,0:3|0:0,0:0:0:0:
156,248,164908,1,8,0:0:0:0:
212,104,165080,1,0,0:0:0:0:
212,104,165166,1,0,0:0:0:0:
212,104,165251,1,2,0:2:0:0:
68,48,165423,1,4,0:3:0:0:
12,192,165594,2,0,L|28:304,1,90,8|0,0:0|0:0,0:0:0:0:
224,193,165937,6,0,L|211:103,1,90,4|0,0:3|0:0,0:0:0:0:
196,4,166280,1,8,0:0:0:0:
336,132,166451,1,0,0:0:0:0:
364,128,166537,1,0,0:0:0:0:
392,124,166623,2,0,L|481:111,1,90,2|4,0:2|0:3,0:0:0:0:
424,28,166966,1,8,0:0:0:0:
364,220,167137,1,0,0:0:0:0:
276,268,167308,6,0,P|232:264|184:236,1,90,4|0,0:3|0:0,0:0:0:0:
236,116,167651,2,0,P|280:120|328:148,1,90,8|0,0:0|0:0,0:0:0:0:
364,220,167908,1,0,0:0:0:0:
364,220,167994,2,0,L|380:336,1,90,2|4,0:2|0:3,0:0:0:0:
148,164,168337,2,0,L|132:48,1,90,8|0,0:0|0:0,0:0:0:0:
40,260,168680,6,0,L|228:288,1,180,4|8,0:3|0:0,0:0:0:0:
380,152,169194,1,0,0:0:0:0:
380,152,169280,1,0,0:0:0:0:
380,152,169366,1,2,0:2:0:0:
294,98,169537,1,4,0:3:0:0:
256,192,169708,1,8,0:0:0:0:
344,332,169880,1,0,0:0:0:0:
484,248,170051,6,0,P|492:196|508:148,1,90,12|0,0:3|0:0,0:0:0:0:
356,32,170394,2,0,P|312:44|268:51,1,90,8|0,0:0|0:0,0:0:0:0:
236,48,170651,1,0,0:0:0:0:
236,48,170737,1,2,0:2:0:0:
116,172,170908,1,4,0:3:0:0:
44,104,171080,1,8,0:0:0:0:
140,76,171251,1,0,0:0:0:0:
187,239,171423,6,0,P|273:232|318:158,1,180,4|8,0:3|0:0,0:0:0:0:
220,144,171937,1,0,0:0:0:0:
220,144,172023,1,0,0:0:0:0:
220,144,172108,1,2,0:2:0:0:
91,267,172280,1,4,0:3:0:0:
260,320,172451,2,0,P|313:319|364:332,1,90,8|0,0:0|0:0,0:0:0:0:
440,368,172794,6,0,P|465:329|476:272,1,90,4|0,0:3|0:0,0:0:0:0:
348,156,173137,1,8,0:0:0:0:
256,192,173308,1,0,0:0:0:0:
256,192,173394,1,0,0:0:0:0:
256,192,173480,1,2,0:2:0:0:
164,156,173651,1,4,0:3:0:0:
180,256,173823,1,8,0:0:0:0:
332,256,173994,1,0,0:0:0:0:
344,64,174166,6,0,P|256:84|168:64,1,180,0|8,3:0|3:2,3:0:0:0:
88,12,174680,1,0,3:0:0:0:
68,220,174851,1,0,3:0:0:0:
168,204,175023,2,0,L|346:180,1,180,8|0,3:2|3:0,3:0:0:0:
424,372,175537,5,6,3:2:0:0:
256,192,183766,12,0,186166,3:2:0:0:
200,116,186508,6,0,P|120:128|60:72,1,161.999995056153,0|2,1:0|0:0,0:0:0:0:
312,116,187194,2,0,P|392:128|452:72,1,161.999995056153,0|2,1:0|0:0,0:0:0:0:
148,32,187880,5,0,1:0:0:0:
364,32,188223,1,2,0:0:0:0:
256,216,188566,2,0,L|88:236,1,161.999995056153,0|2,1:0|0:0,0:0:0:0:
84,148,189080,1,0,0:0:0:0:
18,282,189251,6,0,P|6:243|11:203,1,80.9999975280763,0|0,1:0|0:0,0:0:0:0:
161,100,189594,2,0,P|172:139|167:179,1,80.9999975280763,2|0,1:2|0:0,0:0:0:0:
4,76,189937,2,0,L|82:58,1,80.9999975280763,0|0,1:0|0:0,0:0:0:0:
212,280,190280,2,0,L|133:262,1,80.9999975280763,2|0,1:2|0:0,0:0:0:0:
300,192,190623,6,0,L|378:174,1,80.9999975280763,0|0,1:0|0:0,0:0:0:0:
448,116,190966,2,0,P|465:152|466:192,1,80.9999975280763,2|0,1:2|0:0,0:0:0:0:
255,352,191308,2,0,B|255:272,1,80.9999975280763,0|0,1:0|0:0,0:0:0:0:
64,116,191651,2,0,P|47:152|47:193,1,80.9999975280763,2|0,1:2|0:0,0:0:0:0:
218,141,191994,5,0,1:0:0:0:
148,84,192166,1,0,1:0:0:0:
134,173,192337,1,2,1:2:0:0:
255,271,192508,1,0,1:0:0:0:
378,173,192680,2,0,L|360:60,1,80.9999975280763,0|0,1:0|1:0,1:0:0:0:
352,4,193023,1,2,1:2:0:0:
160,4,193194,1,0,1:0:0:0:
256,172,193366,5,0,1:0:0:0:
256,80,193537,1,0,1:0:0:0:
148,132,193708,1,2,1:2:0:0:
148,252,193880,1,0,1:0:0:0:
256,304,194051,2,0,P|300:293|356:288,1,80.9999975280763,0|0,1:0|1:0,1:0:0:0:
256,80,194394,2,0,P|215:74|176:65,1,80.9999975280763,2|0,1:2|1:0,1:0:0:0:
72,24,194737,5,0,3:0:0:0:
59,39,194822,1,0,3:0:0:0:
49,57,194908,1,0,3:0:0:0:
44,77,194994,1,0,3:0:0:0:
44,97,195079,1,0,3:0:0:0:
48,116,195165,1,0,3:0:0:0:
56,135,195251,1,0,3:0:0:0:
69,151,195337,1,0,3:0:0:0:
85,164,195423,1,0,3:0:0:0:
100,176,195508,1,0,3:0:0:0:
113,192,195594,1,0,3:0:0:0:
121,211,195680,1,0,3:0:0:0:
125,230,195765,1,0,3:0:0:0:
125,251,195851,1,0,3:0:0:0:
120,270,195937,1,0,3:0:0:0:
111,288,196023,1,0,3:0:0:0:
98,304,196108,5,0,3:0:0:0:
256,136,196451,1,0,3:0:0:0:
480,184,196708,5,0,3:0:0:0:
480,184,196794,1,0,3:0:0:0:
456,296,196966,1,0,3:0:0:0:
348,336,197137,6,0,P|324:252|368:176,1,175.499991966248,2|0,0:2|0:0,0:0:0:0:
504,88,197480,6,0,P|404:84|340:32,1,180,12|8,0:3|0:0,0:0:0:0:
168,112,197994,1,0,0:0:0:0:
168,112,198080,1,0,0:0:0:0:
168,112,198166,1,2,0:2:0:0:
256,68,198337,1,4,0:3:0:0:
124,24,198508,2,0,L|4:40,1,90,8|0,0:0|0:0,0:0:0:0:
68,280,198851,6,0,L|157:268,1,90,4|0,0:3|0:0,0:0:0:0:
352,240,199194,1,8,0:0:0:0:
192,172,199366,1,0,0:0:0:0:
192,172,199451,1,0,0:0:0:0:
192,172,199537,2,0,P|140:164|100:144,1,90,2|4,0:2|0:3,0:0:0:0:
320,68,199880,2,0,P|364:61|406:44,1,90,8|0,0:0|0:0,0:0:0:0:
443,263,200223,6,0,P|511:210|502:124,1,180,4|8,0:3|0:0,0:0:0:0:
360,112,200737,1,0,0:2:0:0:
360,112,200822,1,0,0:0:0:0:
360,112,200908,1,2,0:2:0:0:
368,212,201080,1,4,0:3:0:0:
256,328,201251,1,8,0:0:0:0:
144,212,201423,1,0,0:0:0:0:
152,112,201594,6,0,L|241:118,1,90,4|0,0:3|0:0,0:0:0:0:
52,104,201937,1,8,0:0:0:0:
44,204,202108,1,0,0:0:0:0:
44,204,202194,1,0,0:0:0:0:
44,204,202280,1,2,0:2:0:0:
316,240,202451,5,8,0:0:0:0:
196,144,202623,1,4,0:3:0:0:
172,296,202794,1,8,0:0:0:0:
340,87,202966,6,0,P|427:82|491:142,1,180,12|8,0:3|0:0,0:0:0:0:
376,268,203480,1,0,0:0:0:0:
376,268,203566,1,0,0:0:0:0:
376,268,203651,1,2,0:2:0:0:
396,172,203823,1,4,0:3:0:0:
472,240,203994,1,8,0:0:0:0:
404,368,204166,1,0,0:0:0:0:
280,296,204337,6,0,P|240:284|180:284,1,90,4|0,0:3|0:0,0:0:0:0:
20,340,204680,1,8,0:0:0:0:
56,164,204851,1,0,0:0:0:0:
56,164,204937,1,0,0:0:0:0:
56,164,205023,1,2,0:2:0:0:
148,124,205194,1,4,0:3:0:0:
136,224,205366,2,0,P|101:252|56:264,1,90,8|0,0:0|0:0,0:0:0:0:
216,360,205708,6,0,L|316:348,1,90
476,280,206051,1,2,0:2:0:0:
476,280,206223,1,0,0:0:0:0:
344,80,206394,2,0,L|330:168,1,90
305,349,206737,1,2,0:2:0:0:
305,349,206908,1,0,0:0:0:0:
399,244,207080,5,0,0:0:0:0:
381,256,207165,1,0,0:0:0:0:
360,265,207251,1,0,0:0:0:0:
338,269,207337,1,0,0:0:0:0:
316,268,207422,1,2,0:2:0:0:
294,262,207508,1,0,0:0:0:0:
274,252,207594,1,0,0:0:0:0:
257,237,207680,1,0,0:0:0:0:
244,220,207765,1,0,0:0:0:0:
344,80,207937,5,0,0:0:0:0:
168,304,208108,1,6,0:2:0:0:
8,176,208451,6,0,P|56:176|100:156,1,90,12|0,0:3|0:0,0:0:0:0:
344,80,208794,1,8,0:0:0:0:
256,32,208966,1,0,0:0:0:0:
256,32,209051,1,0,0:0:0:0:
256,32,209137,1,2,0:2:0:0:
168,80,209308,1,4,0:3:0:0:
256,232,209480,2,0,P|312:236|368:252,1,90,8|0,0:0|0:0,0:0:0:0:
512,116,209823,6,0,P|456:112|400:96,1,90,4|0,0:3|0:0,0:0:0:0:
456,244,210166,2,0,P|467:287|475:331,1,90,8|0,0:0|0:0,0:0:0:0:
480,368,210423,1,0,0:0:0:0:
480,368,210508,1,2,0:2:0:0:
332,220,210680,1,4,0:3:0:0:
456,244,210851,1,8,0:0:0:0:
256,324,211023,1,0,0:0:0:0:
177,252,211194,6,0,P|171:208|180:164,1,90,4|0,0:3|0:0,0:0:0:0:
334,131,211537,2,0,P|340:175|332:220,1,90,8|0,0:0|0:0,0:0:0:0:
256,324,211794,1,0,0:0:0:0:
256,324,211880,2,0,P|180:336|144:348,1,90,2|4,0:2|0:3,0:0:0:0:
0,140,212223,2,0,P|43:150|88:155,1,90,8|0,0:0|0:0,0:0:0:0:
256,192,212566,6,0,P|284:136|240:32,1,180,4|8,0:3|0:0,0:0:0:0:
144,48,213080,1,0,0:0:0:0:
144,48,213165,1,0,0:0:0:0:
144,48,213251,1,2,0:2:0:0:
256,192,213423,1,4,0:3:0:0:
368,48,213594,2,0,L|496:32,1,90,8|0,0:0|0:0,0:0:0:0:
396,288,213937,6,0,L|306:276,1,90,12|0,0:3|0:0,0:0:0:0:
205,107,214280,1,8,0:0:0:0:
256,192,214451,1,0,0:0:0:0:
256,192,214537,1,0,0:0:0:0:
256,192,214623,1,2,0:2:0:0:
108,296,214794,1,4,0:3:0:0:
20,136,214966,2,0,P|40:60|44:20,1,90,8|0,0:0|0:0,0:0:0:0:
200,256,215308,6,0,P|130:202|44:217,1,180,4|8,0:3|0:0,0:0:0:0:
8,312,215823,1,0,0:0:0:0:
8,312,215908,1,0,0:0:0:0:
8,312,215994,1,2,0:2:0:0:
108,296,216166,1,4,0:3:0:0:
256,128,216337,1,8,0:0:0:0:
156,112,216509,1,0,0:0:0:0:
192,204,216680,6,0,L|320:224,1,90,4|0,0:3|0:0,0:0:0:0:
448,128,217023,2,0,P|452:64|424:24,1,90,8|0,0:0|0:0,0:0:0:0:
420,16,217280,1,0,0:0:0:0:
420,16,217366,1,2,0:2:0:0:
352,92,217537,1,4,0:3:0:0:
376,216,217708,2,0,L|400:332,1,90,8|0,0:0|0:0,0:0:0:0:
160,292,218051,6,0,L|120:88,1,180,4|8,0:3|0:0,0:0:0:0:
104,16,218566,1,0,0:0:0:0:
68,8,218651,1,0,0:0:0:0:
32,0,218737,1,2,0:2:0:0:
36,152,218908,1,4,0:3:0:0:
284,28,219080,2,0,P|243:47|199:50,1,90,8|0,0:0|0:0,0:0:0:0:
288,208,219423,6,0,P|344:220|392:240,1,90,12|0,0:3|0:0,0:0:0:0:
488,292,219766,1,8,0:0:0:0:
432,148,219937,1,0,0:0:0:0:
432,148,220023,1,0,0:0:0:0:
432,148,220108,1,2,0:2:0:0:
288,208,220280,1,4,0:3:0:0:
348,348,220451,1,8,0:0:0:0:
388,248,220623,1,0,0:0:0:0:
124,248,220794,6,0,P|110:204|93:163,1,90,4|0,0:3|0:0,0:0:0:0:
256,24,221137,2,0,L|256:128,1,90,8|0,0:0|0:0,0:0:0:0:
256,148,221394,1,0,0:0:0:0:
256,148,221480,1,2,0:2:0:0:
148,88,221651,1,4,0:3:0:0:
364,88,221823,1,8,0:0:0:0:
256,272,221994,1,0,0:0:0:0:
164,236,222166,6,0,P|108:216|60:204,1,90,4|0,0:3|0:0,0:0:0:0:
348,236,222508,2,0,P|404:216|452:204,1,90,8|0,0:0|0:0,0:0:0:0:
397,112,222766,1,0,0:0:0:0:
397,112,222851,2,0,P|354:124|312:140,1,90,2|4,0:2|0:3,0:0:0:0:
114,112,223194,2,0,P|157:124|199:140,1,90,8|0,0:0|0:0,0:0:0:0:
220,316,223537,6,0,P|134:331|72:272,1,180,4|8,0:3|0:0,0:0:0:0:
60,144,224051,1,0,0:0:0:0:
72,112,224137,1,0,0:0:0:0:
84,76,224223,1,2,0:2:0:0:
236,32,224394,1,4,0:3:0:0:
194,151,224566,2,0,L|164:236,1,90,8|0,0:0|0:0,0:0:0:0:
348,236,224908,6,0,L|317:151,1,90,12|0,0:3|0:0,0:0:0:0:
256,340,225251,1,8,0:0:0:0:
395,362,225423,1,0,0:0:0:0:
395,362,225508,1,0,0:0:0:0:
395,362,225594,1,2,0:2:0:0:
487,258,225766,1,4,0:3:0:0:
348,236,225937,2,0,L|228:216,1,90,8|0,0:0|0:0,0:0:0:0:
93,110,226280,6,0,P|48:186|67:271,1,180,4|8,0:3|0:0,0:0:0:0:
192,128,226794,1,0,0:0:0:0:
192,128,226880,1,0,0:0:0:0:
192,128,226966,1,2,0:2:0:0:
93,110,227137,1,4,0:3:0:0:
166,253,227308,2,0,P|212:240|280:232,1,90,8|0,0:0|0:0,0:0:0:0:
344,60,227651,6,0,P|299:52|256:40,1,90,4|0,0:3|0:0,0:0:0:0:
443,43,227994,2,0,P|443:88|421:126,1,90,8|0,0:0|0:0,0:0:0:0:
396,148,228251,1,0,0:0:0:0:
396,148,228337,1,2,0:2:0:0:
256,248,228508,1,0,0:3:0:0:
116,148,228680,1,8,0:0:0:0:
108,48,228851,1,0,0:0:0:0:
200,92,229023,6,0,L|176:284,1,180,0|8,3:0|3:2,3:0:0:0:
88,228,229537,1,0,3:0:0:0:
168,368,229708,1,0,3:0:0:0:
312,292,229880,2,0,L|336:100,1,180,8|0,3:2|3:0,3:0:0:0:
108,48,230394,5,2,2:2:0:0:
