osu file format v14

[General]
AudioFilename: Good Times-Ella Eyre.mp3
AudioLeadIn: 0
PreviewTime: 54679
Countdown: 0
SampleSet: Normal
StackLeniency: 0.3
Mode: 0
LetterboxInBreaks: 1
WidescreenStoryboard: 0

[Editor]
DistanceSpacing: 1.1
BeatDivisor: 4
GridSize: 4
TimelineZoom: 1

[Metadata]
Title:Good Times
TitleUnicode:Good Times
Artist:Ella Eyre
ArtistUnicode:Ella Eyre
Creator:Frey
Version:Hard
Source:
Tags:Marianna PeterEU dnb drum and bass drum'n'bass Sigma Sigala Feline
BeatmapID:1467628
BeatmapSetID:693432

[Difficulty]
HPDrainRate:5.5
CircleSize:4
OverallDifficulty:6.5
ApproachRate:8
SliderMultiplier:1.5
SliderTickRate:1

[Events]
//Background and Video events
0,0,"g.jpg",0,0
//Break Periods
2,87966,96616
2,175737,183016
//Storyboard Layer 0 (Background)
//Storyboard Layer 1 (Fail)
//Storyboard Layer 2 (Pass)
//Storyboard Layer 3 (Foreground)
//Storyboard Sound Samples

[TimingPoints]
10966,342.857142857143,4,2,1,75,1,0
52794,-100,4,2,1,70,0,0
54851,-100,4,1,1,70,0,1
74051,-100,4,1,1,70,0,0
76794,-100,4,1,1,70,0,1
87766,-100,4,1,1,60,0,0
97366,-100,4,2,1,55,0,0
98051,-100,4,2,1,60,0,0
98737,-100,4,2,1,65,0,0
119651,-100,4,2,1,60,0,0
119994,-100,4,2,1,55,0,0
120680,-100,4,2,1,75,0,0
140566,-100,4,2,1,70,0,0
141251,-100,4,2,1,60,0,0
142623,-100,4,1,1,70,0,1
161823,-100,4,1,1,70,0,0
164566,-100,4,1,1,70,0,1
175537,-100,4,1,1,60,0,0
183766,-100,4,2,1,55,0,0
186508,-100,4,2,1,75,0,0
195423,-100,4,2,1,70,0,0
197480,-100,4,1,1,70,0,1
205708,-100,4,1,1,70,0,0
208451,-100,4,1,1,70,0,1
230394,-100,4,1,1,70,0,0

[Colours]
Combo1 : 17,254,176
Combo2 : 173,255,95
Combo3 : 255,88,100
Combo4 : 255,94,55

[HitObjects]
272,212,10965,6,0,P|345:196|412:236,1,150,4|0,3:0|0:0,0:0:0:0:
460,324,11480,1,4,3:0:0:0:
52,324,12337,6,0,L|40:240,1,75,0|0,0:0|0:0,0:0:0:0:
28,168,12680,1,0,0:0:0:0:
104,196,12851,1,2,0:0:0:0:
484,36,13708,6,0,P|356:28|328:-4,1,150,4|0,3:0|0:0,0:0:0:0:
256,72,14223,2,0,L|240:236,1,150,4|0,3:0|0:0,0:0:0:0:
324,288,14737,1,4,3:0:0:0:
508,188,15080,6,0,L|324:200,1,150,4|0,3:0|0:0,0:0:0:0:
332,120,15594,1,2,0:0:0:0:
100,348,16280,5,0,3:0:0:0:
40,264,16451,2,0,P|27:191|65:129,1,150,4|0,3:0|0:0,0:0:0:0:
131,211,16966,1,4,3:0:0:0:
381,211,18166,5,0,0:0:0:0:
392,128,18337,1,0,3:0:0:0:
403,45,18508,1,0,3:0:0:0:
403,45,18680,2,0,B|336:52|336:52|312:68|312:68|228:80,1,150,4|0,3:0|0:0,0:0:0:0:
196,160,19194,6,0,P|132:176|60:120,1,150,4|0,3:0|0:0,0:0:0:0:
20,36,19708,2,0,P|91:21|150:64,1,150,4|0,3:0|0:0,0:0:0:0:
196,160,20223,1,4,3:0:0:0:
256,192,20394,12,0,21594,0:0:0:0:
256,316,21937,6,0,L|420:300,1,150,4|0,3:0|0:0,0:0:0:0:
500,351,22451,2,0,P|511:279|472:216,1,150,4|0,3:0|0:0,0:0:0:0:
408,164,22966,2,0,P|396:124|404:80,1,75
436,16,23308,6,0,P|469:31|520:40,1,75,0|0,0:0|0:0,0:0:0:0:
480,120,23651,1,0,0:0:0:0:
408,164,23823,2,0,L|228:184,1,150,2|0,0:0|0:0,0:0:0:0:
200,120,24337,1,2,0:0:0:0:
64,280,24680,6,0,P|32:228|44:136,1,150,4|0,3:0|0:0,0:0:0:0:
92,52,25194,2,0,L|241:68,1,150,4|0,3:0|0:0,0:0:0:0:
324,80,25708,1,0,3:0:0:0:
372,172,25880,1,0,3:0:0:0:
296,244,26051,6,0,P|236:255|209:266,1,75,4|0,3:0|0:0,0:0:0:0:
148,291,26394,1,0,0:0:0:0:
155,211,26566,1,2,0:0:0:0:
448,360,27251,5,0,0:0:0:0:
448,360,27423,2,0,P|480:288|464:216,1,150,4|0,3:0|0:0,0:0:0:0:
436,120,27937,1,4,3:0:0:0:
76,120,29137,5,0,0:0:0:0:
84,204,29308,1,0,3:0:0:0:
92,288,29480,1,0,3:0:0:0:
92,288,29651,2,0,P|152:324|232:308,1,150,4|0,3:0|0:0,0:0:0:0:
284,220,30166,6,0,P|356:206|419:242,1,150,4|0,3:0|0:0,0:0:0:0:
500,312,30680,2,0,L|488:144,1,150,4|0,3:0|0:0,0:0:0:0:
480,56,31194,1,4,3:0:0:0:
256,192,31366,12,0,32566,0:0:0:0:
256,108,32908,6,0,B|324:116|320:64|400:72,1,150,4|2,1:2|0:0,0:0:0:0:
328,224,33594,2,0,P|256:208|180:224,1,150,0|2,0:0|0:0,0:0:0:0:
92,280,34108,1,0,0:0:0:0:
16,204,34280,6,0,L|0:44,1,150,0|2,1:0|0:0,0:0:0:0:
68,4,34794,2,0,P|132:36|212:24,1,150
264,84,35308,2,0,L|338:76,1,75,2|0,0:0|1:0,0:0:0:0:
428,20,35651,6,0,P|454:89|440:168,1,150,0|2,1:0|0:0,0:0:0:0:
352,300,36337,2,0,L|180:276,1,150,0|2,0:0|0:0,0:0:0:0:
128,204,36851,1,0,0:0:0:0:
212,140,37023,6,0,P|149:101|77:112,1,150,0|2,1:0|0:0,0:0:0:0:
16,168,37537,2,0,L|36:344,2,150,0|2|0,0:0|0:0|0:0,0:0:0:0:
4,64,38394,6,0,B|68:40|88:84|152:64,1,150,0|2,1:0|0:0,0:0:0:0:
212,8,38908,1,0,0:0:0:0:
295,19,39080,2,0,P|310:91|272:154,1,150,0|2,0:0|0:0,0:0:0:0:
172,192,39594,1,0,0:0:0:0:
256,260,39766,6,0,P|336:252|396:284,1,150,0|2,1:0|0:0,0:0:0:0:
472,248,40280,1,0,0:0:0:0:
500,171,40451,2,0,P|427:165|380:109,1,150,0|2,0:0|0:0,0:0:0:0:
476,68,40966,1,0,1:0:0:0:
392,4,41137,6,0,L|304:12,1,75,0|0,1:0|0:0,0:0:0:0:
256,64,41480,2,0,L|181:57,1,75,2|0,0:0|0:0,0:0:0:0:
100,48,41823,2,0,B|108:112|108:112|96:140|96:140|104:212,1,150,0|2,0:0|0:0,0:0:0:0:
112,276,42337,1,0,0:0:0:0:
199,331,42508,6,0,P|219:261|183:198,2,150,0|2|0,1:0|0:0|0:0,0:0:0:0:
120,360,43366,1,0,0:0:0:0:
44,328,43537,2,0,P|28:288|36:232,1,75,2|0,0:0|0:0,0:0:0:0:
68,160,43880,6,0,P|132:136|172:40,1,150,0|2,1:0|0:0,0:0:0:0:
340,68,44566,2,0,P|375:133|444:161,1,150,0|2,1:0|0:0,0:0:0:0:
340,316,45251,6,0,L|165:291,1,150,0|2,1:0|0:0,0:0:0:0:
192,89,45937,2,0,L|340:67,1,150,0|2,1:0|0:0,0:0:0:0:
384,140,46451,1,0,0:0:0:0:
384,244,46623,6,0,L|209:219,1,150,0|2,1:0|0:0,0:0:0:0:
96,132,47308,2,0,P|61:196|76:268,1,150,0|2,1:0|0:0,0:0:0:0:
156,292,47823,1,0,0:0:0:0:
235,222,47994,6,0,P|269:157|254:85,1,150,0|2,1:0|0:0,0:0:0:0:
208,16,48508,1,0,0:0:0:0:
108,44,48680,2,0,P|120:176|128:212,1,150,0|2,1:0|0:0,0:0:0:0:
156,292,49194,1,0,0:0:0:0:
235,222,49366,6,0,P|268:208|308:204,1,75,0|0,1:0|0:0,0:0:0:0:
380,244,49708,2,0,P|389:207|383:171,1,75,2|0,1:2|0:0,0:0:0:0:
340,100,50051,2,0,P|334:63|343:27,1,75,0|0,1:0|0:0,0:0:0:0:
416,68,50394,2,0,P|453:64|487:49,1,75,2|0,1:2|0:0,0:0:0:0:
488,156,50737,5,0,1:0:0:0:
488,156,50908,1,0,1:0:0:0:
383,171,51080,2,0,L|288:184,1,75,2|0,1:2|1:0,0:0:0:0:
360,272,51423,1,0,1:0:0:0:
360,272,51594,1,0,1:0:0:0:
255,257,51766,2,0,L|160:244,1,75,2|0,1:2|1:0,0:0:0:0:
76,232,52108,6,0,L|44:180,3,37.5,0|0|0|0,3:0|3:0|3:0|3:0,0:0:0:0:
84,168,52451,2,0,L|52:116,3,37.5,0|0|0|0,3:0|3:0|3:0|3:0,0:0:0:0:
92,104,52794,2,0,L|60:52,3,37.5,0|0|0|0,3:0|3:0|3:0|3:0,0:0:0:0:
100,40,53137,2,0,L|68:-12,3,37.5,0|0|0|0,3:0|3:0|3:0|3:0,0:0:0:0:
412,344,54508,5,2,1:2:0:0:
412,344,54851,6,0,P|348:320|268:332,1,150,12|8,0:3|0:0,0:0:0:0:
232,256,55366,2,0,P|223:239|218:221,2,37.5,0|0|2,0:1|0:0|0:2,0:0:0:0:
184,324,55708,1,4,0:3:0:0:
100,316,55880,2,0,L|8:309,1,75,8|0,0:0|0:0,0:0:0:0:
0,192,56223,6,0,L|52:16,1,150,4|8,0:3|0:0,0:0:0:0:
124,68,56737,2,0,L|184:60,2,37.5,0|0|2,0:0|0:0|0:2,0:0:0:0:
136,152,57080,1,4,0:3:0:0:
200,208,57251,2,0,P|252:220|284:216,1,75,8|0,0:0|0:0,0:0:0:0:
367,296,57594,6,0,P|397:228|380:157,1,150,4|8,0:3|0:0,0:0:0:0:
332,88,58108,2,0,P|328:80|320:32,2,37.5,0|0|2,0:0|0:0|0:2,0:0:0:0:
256,124,58451,1,4,0:3:0:0:
180,87,58623,2,0,P|193:52|202:16,1,75,8|0,0:0|0:0,0:0:0:0:
84,39,58966,6,0,P|72:112|112:173,1,150,4|8,0:3|0:0,0:0:0:0:
188,208,59480,2,0,L|244:200,2,37.5,0|0|2,0:0|0:0|0:2,0:0:0:0:
224,108,59823,1,8,0:0:0:0:
312,164,59994,1,4,0:3:0:0:
300,268,60166,1,8,0:0:0:0:
200,300,60337,6,0,L|24:268,1,150,12|8,0:3|0:0,0:0:0:0:
68,192,60851,2,0,L|139:206,2,37.5,0|0|2,0:0|0:0|0:2,0:0:0:0:
24,120,61194,1,4,0:3:0:0:
92,72,61366,2,0,L|200:91,1,75,8|0,0:0|0:0,0:0:0:0:
256,164,61708,6,0,P|328:167|380:108,1,150,4|8,0:3|0:0,0:0:0:0:
296,88,62223,2,0,L|276:36,2,37.5,0|0|2,0:0|0:0|0:2,0:0:0:0:
356,28,62566,1,4,0:3:0:0:
438,49,62737,2,0,L|524:72,1,75,8|0,0:0|0:0,0:0:0:0:
472,184,63080,6,0,B|388:192|412:232|332:240,1,150,4|8,0:3|0:0,0:0:0:0:
256,212,63594,2,0,L|256:156,2,37.5,0|0|2,0:0|0:0|0:2,0:0:0:0:
177,239,63937,1,4,0:3:0:0:
125,304,64108,2,0,P|158:320|195:320,1,75,8|0,0:0|0:0,0:0:0:0:
316,320,64451,6,0,P|343:244|332:176,1,150,4|8,0:3|0:0,0:0:0:0:
280,84,64966,2,0,L|288:24,2,37.5,0|0|2,0:0|0:0|0:2,0:0:0:0:
176,68,65308,2,0,L|92:56,1,75,8|0,0:0|0:0,0:0:0:0:
24,132,65651,1,0,0:2:0:0:
24,132,65737,1,0,0:0:0:0:
24,132,65823,6,0,L|52:308,1,150,12|8,0:3|0:0,0:0:0:0:
116,332,66337,2,0,L|121:369,2,37.5,0|0|2,0:0|0:0|0:2,0:0:0:0:
124,248,66680,1,4,0:3:0:0:
204,272,66851,2,0,P|240:280|292:284,1,75,8|0,0:0|0:0,0:0:0:0:
372,360,67194,6,0,P|432:312|424:220,1,150,4|8,0:3|0:0,0:0:0:0:
400,168,67708,2,0,P|352:176|344:176,2,37.5,0|0|2,0:2|0:2|0:2,0:0:0:0:
480,148,68051,1,4,0:3:0:0:
459,68,68223,2,0,P|422:64|387:52,1,75,8|0,0:0|0:0,0:0:0:0:
280,108,68566,6,0,L|300:280,1,150,4|8,0:3|0:0,0:0:0:0:
308,340,69080,2,0,L|364:352,2,37.5,0|0|2,0:0|0:0|0:2,0:0:0:0:
224,324,69423,1,4,0:3:0:0:
143,343,69594,2,0,P|143:306|159:273,1,75,8|0,0:0|0:0,0:0:0:0:
255,195,69937,6,0,P|200:148|127:152,1,150,4|8,0:3|0:0,0:0:0:0:
56,196,70451,2,0,L|60:252,2,37.5,0|0|2,0:0|0:0|0:2,0:0:0:0:
48,88,70794,1,8,0:0:0:0:
144,40,70966,1,4,0:3:0:0:
240,88,71137,1,8,0:0:0:0:
255,195,71308,6,0,P|327:200|383:153,1,150,12|8,0:3|0:0,0:0:0:0:
368,68,71823,2,0,L|360:31,2,37.5,0|0|2,0:0|0:0|0:2,0:0:0:0:
448,96,72166,1,4,0:3:0:0:
463,180,72337,2,0,P|444:232|440:264,1,75,8|0,0:0|0:0,0:0:0:0:
336,314,72680,6,0,P|309:244|254:194,1,150,4|8,0:3|0:0,0:0:0:0:
177,166,73194,2,0,L|121:148,2,37.5,0|0|2,0:0|0:0|0:2,0:0:0:0:
243,112,73537,1,4,0:3:0:0:
254,194,73708,2,0,L|216:286,1,75,8|0,0:0|0:0,0:0:0:0:
336,314,74051,6,0,P|369:297|406:290,1,75,0|0,0:0|0:0,0:0:0:0:
508,264,74394,2,0,P|491:230|484:193,1,75,2|0,0:2|0:0,0:0:0:0:
464,92,74737,2,0,P|430:108|393:115,1,75,0|0,0:0|0:0,0:0:0:0:
292,144,75080,2,0,P|258:127|221:120,1,75,2|0,0:2|0:0,0:0:0:0:
136,56,75423,6,0,P|108:68|72:76,3,37.5,0|0|0|0,0:0|0:0|0:0|0:0,0:0:0:0:
62,83,75766,2,0,P|74:111|82:147,3,37.5,2|0|0|0,0:2|0:0|0:0|0:0,0:0:0:0:
88,157,76108,1,0,0:0:0:0:
120,272,76280,1,0,0:0:0:0:
204,188,76451,1,6,0:2:0:0:
320,372,76794,6,0,L|327:289,1,75,12|0,0:3|0:0,0:0:0:0:
376,232,77137,1,8,0:0:0:0:
292,224,77308,2,0,L|298:159,2,37.5,0|0|2,0:0|0:0|0:2,0:0:0:0:
244,292,77651,1,4,0:3:0:0:
180,344,77823,2,0,P|164:310|163:272,1,75,8|0,0:0|0:0,0:0:0:0:
224,168,78166,6,0,P|228:92|168:40,1,150,4|8,0:3|0:0,0:0:0:0:
96,60,78680,2,0,L|36:72,2,37.5,0|0|2,0:0|0:0|0:2,0:0:0:0:
152,124,79023,1,4,0:3:0:0:
112,196,79194,2,0,L|13:216,1,75,8|0,0:0|0:0,0:0:0:0:
104,316,79537,6,0,L|177:300,1,75,4|0,0:3|0:0,0:0:0:0:
284,279,79880,2,0,P|280:242|269:206,1,75,8|0,0:0|0:0,0:0:0:0:
256,192,80137,1,0,0:0:0:0:
242,177,80223,2,0,P|231:141|227:104,1,75,2|4,0:2|0:3,0:0:0:0:
332,84,80566,2,0,L|406:69,1,75,8|0,0:0|0:0,0:0:0:0:
496,148,80908,6,0,P|500:224|468:288,1,150,4|8,0:3|0:0,0:0:0:0:
388,264,81423,2,0,L|328:248,2,37.5,0|0|2,0:0|0:0|0:2,0:0:0:0:
408,344,81766,1,4,0:3:0:0:
328,364,81937,2,0,L|232:336,1,75,8|0,0:0|0:0,0:0:0:0:
139,371,82280,6,0,P|112:304|139:236,1,150,12|8,0:3|0:0,0:0:0:0:
208,192,82794,2,0,L|200:144,2,37.5,0|0|2,0:0|0:0|0:2,0:0:0:0:
256,260,83137,1,4,0:3:0:0:
304,192,83308,2,0,L|320:96,1,75,8|0,0:0|0:0,0:0:0:0:
256,12,83651,6,0,B|187:21|187:21|167:36|167:36|110:46,1,150,4|8,0:3|0:0,0:0:0:0:
28,60,84166,2,0,L|8:20,2,37.5,0|0|2,0:0|0:0|0:2,0:0:0:0:
68,132,84508,1,4,0:3:0:0:
148,152,84680,2,0,P|144:192|128:228,1,75,8|0,0:0|0:0,0:0:0:0:
31,295,85023,6,0,P|87:343|160:341,1,150,4|8,0:3|0:0,0:0:0:0:
232,300,85537,2,0,P|272:292|300:292,2,37.5,0|0|2,0:0|0:0|0:2,0:0:0:0:
216,216,85880,1,4,0:3:0:0:
280,160,86051,2,0,P|315:171|353:173,1,75,8|0,0:0|0:0,0:0:0:0:
396,100,86394,6,0,P|334:60|263:77,1,150,0|8,3:0|3:2,0:0:0:0:
200,132,86908,2,0,L|96:120,1,75,0|0,2:0|3:0,0:0:0:0:
44,116,87251,2,0,L|72:272,1,150,8|0,3:2|2:0,0:0:0:0:
180,212,87766,5,6,2:0:0:0:
256,64,97366,5,0,3:0:0:0:
200,128,97537,2,0,L|148:116,2,37.5,0|0|8,0:0|0:0|3:2,0:0:0:0:
256,192,97880,1,0,0:0:0:0:
312,256,98051,2,0,L|364:268,2,37.5,0|0|0,0:0|0:0|3:0,0:0:0:0:
256,320,98394,1,8,3:2:0:0:
256,320,98566,1,0,0:0:0:0:
152,344,98737,6,0,P|107:286|121:214,2,150,4|8|0,0:3|0:2|0:0,0:0:0:0:
188,268,99594,1,4,0:3:0:0:
256,220,99766,2,0,L|352:200,1,75,8|0,0:0|0:0,0:0:0:0:
408,131,100108,6,0,P|372:121|346:94,1,75,4|0,0:3|0:0,0:0:0:0:
416,48,100451,1,8,0:0:0:0:
500,32,100623,2,0,P|512:104|464:192,1,150,0|4,0:0|0:3,0:0:0:0:
412,220,101137,2,0,P|356:228|320:244,1,75,8|0,0:0|0:0,0:0:0:0:
256,168,101480,6,0,P|180:176|120:128,2,150,4|8|0,0:3|0:0|0:0,0:0:0:0:
308,104,102337,1,4,0:3:0:0:
256,40,102508,2,0,L|168:24,1,75,8|0,0:0|0:0,0:0:0:0:
76,8,102851,6,0,L|48:156,1,150,4|8,0:3|0:0,0:0:0:0:
92,224,103366,1,0,0:0:0:0:
132,152,103537,2,0,L|144:92,2,37.5,0|0|4,0:0|0:0|0:3,0:0:0:0:
176,220,103880,2,0,P|228:232|268:256,1,75,8|0,0:0|0:0,0:0:0:0:
307,327,104223,6,0,P|379:341|432:292,2,150,4|8|0,0:3|0:0|0:0,0:0:0:0:
356,260,105080,1,4,0:3:0:0:
404,192,105251,2,0,L|496:180,1,75,8|0,0:0|0:0,0:0:0:0:
428,88,105594,6,0,L|253:109,1,150,4|8,0:3|0:0,0:0:0:0:
203,179,106108,2,0,P|139:143|55:147,1,150,4|4,0:3|0:3,0:0:0:0:
0,59,106623,2,0,P|36:53|70:37,1,75,8|0,0:0|0:0,0:0:0:0:
64,144,106966,6,0,L|52:300,2,150,4|8|0,0:3|0:0|0:0,0:0:0:0:
140,104,107823,1,4,0:3:0:0:
212,148,107994,2,0,P|249:144|285:134,1,75,8|4,0:0|0:3,0:0:0:0:
368,68,108337,5,6,0:3:0:0:
388,148,108508,1,0,0:0:0:0:
447,87,108680,2,0,P|467:119|471:156,1,75,8|0,0:0|0:0,0:0:0:0:
444,236,109023,1,2,0:0:0:0:
361,228,109194,1,4,0:3:0:0:
396,304,109366,2,0,L|304:328,1,75,8|0,0:0|0:0,0:0:0:0:
220,300,109708,6,0,P|180:244|192:168,1,150,4|8,0:3|0:0,0:0:0:0:
256,112,110223,1,0,0:0:0:0:
320,167,110394,2,0,P|308:227|308:267,1,75,0|4,0:0|0:3,0:0:0:0:
388,256,110737,2,0,P|400:196|400:156,1,75,8|0,0:0|0:0,0:0:0:0:
380,80,111080,6,0,P|343:89|306:92,1,75,4|0,0:3|0:0,0:0:0:0:
224,76,111423,1,8,0:0:0:0:
148,40,111594,2,0,P|144:108|172:184,1,150,0|4,0:0|0:3,0:0:0:0:
220,252,112108,2,0,P|219:291|207:325,1,75,8|0,0:0|0:0,0:0:0:0:
104,356,112451,6,0,P|72:296|108:208,1,150,4|8,0:3|0:0,0:0:0:0:
171,183,112966,1,0,0:0:0:0:
220,252,113137,2,0,P|260:264|300:264,1,75,0|4,0:0|0:3,0:0:0:0:
392,232,113480,1,8,0:0:0:0:
412,128,113651,1,0,0:0:0:0:
412,128,113737,1,0,0:0:0:0:
412,128,113823,6,0,P|374:129|338:140,1,75,4|0,0:3|0:0,0:0:0:0:
268,184,114166,1,8,0:0:0:0:
188,160,114337,2,0,P|152:100|176:24,1,150,0|4,0:0|0:3,0:0:0:0:
256,44,114851,1,8,0:0:0:0:
339,27,115023,1,0,0:0:0:0:
408,108,115194,6,0,L|384:280,1,150,4|8,0:3|0:0,0:0:0:0:
316,300,115708,1,0,0:0:0:0:
256,240,115880,2,0,P|218:239|182:247,1,75,0|4,0:0|0:3,0:0:0:0:
103,219,116223,2,0,P|100:256|112:292,1,75,8|0,0:0|0:0,0:0:0:0:
16,244,116566,6,0,P|22:167|0:96,1,150,4|8,0:3|0:0,0:0:0:0:
76,20,117080,2,0,L|225:34,1,150,4|4,0:3|0:3,0:0:0:0:
288,120,117594,2,0,P|244:148|228:176,1,75,8|0,0:0|0:0,0:0:0:0:
288,256,117937,6,0,L|437:241,1,150,4|8,0:3|0:0,0:0:0:0:
504,292,118451,1,0,0:0:0:0:
512,208,118623,2,0,P|512:164|500:132,1,75,0|4,0:0|0:3,0:0:0:0:
432,92,118966,2,0,P|420:56|421:19,1,75,8|4,0:0|0:3,0:0:0:0:
340,4,119308,5,4,0:3:0:0:
280,64,119480,1,4,0:3:0:0:
199,48,119651,2,0,L|112:32,1,75,8|0,3:2|3:0,0:0:0:0:
64,92,119994,2,0,L|16:96,3,37.5,0|0|0|0,3:0|3:0|3:0|3:0,0:0:0:0:
48,132,120337,2,0,L|0:136,3,37.5,8|0|0|0,3:2|3:0|3:0|3:0,0:0:0:0:
32,172,120680,6,0,L|52:352,1,150,4|2,1:2|0:0,0:0:0:0:
204,372,121366,2,0,P|236:324|224:232,1,150,0|2,1:0|0:0,0:0:0:0:
156,156,121880,1,0,0:0:0:0:
200,60,122051,6,0,L|372:68,1,150,0|2,1:0|0:0,0:0:0:0:
428,36,122566,1,0,0:0:0:0:
444,116,122737,2,0,L|460:216,1,75,0|0,1:0|0:0,0:0:0:0:
472,272,123080,1,2,0:0:0:0:
376,316,123251,1,0,1:0:0:0:
300,244,123423,6,0,P|288:196|336:100,1,150,0|2,1:0|0:0,0:0:0:0:
140,8,124108,2,0,P|152:56|104:152,1,150,0|2,1:0|0:0,0:0:0:0:
20,200,124623,1,0,0:0:0:0:
4,304,124794,6,0,L|184:332,1,150,0|2,1:0|0:0,0:0:0:0:
208,264,125308,1,0,0:0:0:0:
292,256,125480,2,0,L|300:348,1,75,0|0,1:0|0:0,0:0:0:0:
380,320,125823,1,2,0:0:0:0:
440,232,125994,1,0,1:0:0:0:
364,160,126166,6,0,P|284:172|220:128,1,150,0|2,1:0|0:0,0:0:0:0:
192,40,126680,1,0,0:0:0:0:
296,32,126851,2,0,L|468:20,1,150,0|2,1:0|0:0,0:0:0:0:
512,104,127366,1,0,0:0:0:0:
456,192,127537,6,0,L|306:202,1,150,0|2,1:0|0:0,0:0:0:0:
220,140,128051,1,0,0:0:0:0:
116,124,128223,2,0,P|84:192|96:264,1,150,0|2,1:0|0:0,0:0:0:0:
164,344,128737,1,0,1:0:0:0:
268,356,128908,6,0,P|276:316|272:268,1,75,0|0,1:0|0:0,0:0:0:0:
226,214,129251,2,0,P|218:177|219:139,1,75,2|0,0:0|0:0,0:0:0:0:
256,64,129594,2,0,P|320:48|388:96,1,150,0|2,1:0|0:0,0:0:0:0:
416,192,130108,1,0,0:0:0:0:
340,264,130280,6,0,B|280:268|280:268|257:260|257:260|168:268,2,150,0|2|0,1:0|0:0|1:0,0:0:0:0:
416,300,131137,1,0,0:0:0:0:
348,348,131308,2,0,L|244:356,1,75,2|0,0:0|0:0,0:0:0:0:
191,265,131651,6,0,P|188:228|200:188,1,75,0|0,1:0|0:0,0:0:0:0:
256,132,131994,2,0,P|258:94|248:58,1,75,2|0,1:2|0:0,0:0:0:0:
180,12,132337,2,0,L|88:4,1,75,0|0,1:0|0:0,0:0:0:0:
28,40,132680,2,0,L|21:114,1,75,2|0,1:2|0:0,0:0:0:0:
12,220,133023,6,0,P|44:204|88:208,1,75,0|0,1:0|0:0,0:0:0:0:
156,248,133366,2,0,P|193:250|226:233,1,75,2|0,1:2|0:0,0:0:0:0:
284,176,133708,2,0,P|321:173|354:190,1,75,0|0,1:0|0:0,0:0:0:0:
404,256,134051,2,0,P|437:272|474:270,1,75,2|0,1:2|0:0,0:0:0:0:
512,172,134394,6,0,L|500:80,1,75,0|0,1:0|0:0,0:0:0:0:
420,108,134737,2,0,L|410:33,1,75,2|0,1:2|0:0,0:0:0:0:
346,192,135080,2,0,L|334:100,1,75,0|0,1:0|0:0,0:0:0:0:
254,128,135423,2,0,L|244:53,1,75,2|0,1:2|0:0,0:0:0:0:
140,28,135766,6,0,P|84:24|52:12,1,75,0|0,1:0|0:0,0:0:0:0:
16,112,136108,2,0,P|72:116|104:128,1,75,2|0,1:2|0:0,0:0:0:0:
160,200,136451,2,0,P|216:196|248:184,1,75,0|0,1:0|0:0,0:0:0:0:
284,284,136794,2,0,P|228:288|196:300,1,75,2|0,1:2|0:0,0:0:0:0:
108,328,137137,5,0,1:0:0:0:
108,328,137308,1,0,1:0:0:0:
12,288,137480,2,0,P|12:248|28:208,1,75,2|0,1:2|1:0,0:0:0:0:
88,132,137823,1,0,1:0:0:0:
88,132,137994,1,0,1:0:0:0:
188,100,138166,2,0,P|232:112|272:116,1,75,2|0,1:2|1:0,0:0:0:0:
360,80,138508,5,0,1:0:0:0:
360,80,138680,1,0,1:0:0:0:
348,184,138851,2,0,L|336:288,1,75,2|0,1:2|1:0,0:0:0:0:
256,324,139194,1,0,1:0:0:0:
256,324,139366,1,0,1:0:0:0:
172,258,139537,2,0,L|164:184,1,75,2|0,1:2|1:2,0:0:0:0:
152,80,139880,6,0,L|100:68,3,37.5,0|0|0|0,3:0|3:0|3:0|3:0,0:0:0:0:
120,112,140223,2,0,L|68:100,3,37.5,0|0|0|0,3:0|3:0|3:0|3:0,0:0:0:0:
88,144,140566,2,0,L|36:132,3,37.5,0|0|0|0,3:0|3:0|3:0|0:0,0:0:0:0:
56,176,140908,2,0,L|4:164,3,37.5,0|0|0|0,3:0|3:0|3:0|3:0,0:0:0:0:
24,208,141251,5,0,3:0:0:0:
128,336,141594,2,0,P|180:316|236:324,1,112.5,0|2,3:0|3:2,0:0:0:0:
252,336,141937,2,0,L|272:248,1,75,0|0,3:2|3:0,0:0:0:0:
288,180,142280,2,0,L|336:172,3,37.5,2|0|0|0,0:0|0:0|0:0|0:0,0:0:0:0:
360,196,142623,6,0,L|516:172,1,150,12|8,0:3|0:0,0:0:0:0:
496,88,143137,1,0,0:0:0:0:
496,88,143223,1,0,0:0:0:0:
496,88,143308,2,0,P|440:68|404:36,1,75,2|4,0:2|0:3,0:0:0:0:
356,12,143651,2,0,P|312:52|296:92,1,75,8|0,0:0|0:0,0:0:0:0:
256,184,143994,6,0,P|168:164|136:104,1,150,4|8,0:3|0:0,0:0:0:0:
128,32,144508,1,0,0:0:0:0:
128,32,144594,1,0,0:0:0:0:
128,32,144680,1,2,0:2:0:0:
204,64,144851,1,4,0:3:0:0:
138,117,145023,2,0,L|40:132,1,75,8|0,0:0|0:0,0:0:0:0:
16,248,145366,6,0,P|92:236|164:276,1,150,4|8,0:3|0:0,0:0:0:0:
196,340,145880,1,0,0:0:0:0:
196,340,145966,1,0,0:0:0:0:
196,340,146051,2,0,P|256:332|292:332,1,75,2|4,0:2|0:3,0:0:0:0:
352,356,146394,2,0,P|358:319|360:281,1,75,8|0,0:0|0:0,0:0:0:0:
256,204,146737,6,0,P|260:136|280:40,1,150,4|8,0:3|0:0,0:0:0:0:
356,32,147251,1,0,0:0:0:0:
356,32,147337,1,0,0:0:0:0:
356,32,147423,1,2,0:2:0:0:
440,96,147594,1,8,0:0:0:0:
340,136,147766,1,4,0:3:0:0:
356,32,147937,1,8,0:0:0:0:
440,96,148108,6,0,P|448:169|403:226,1,150,12|8,0:3|0:0,0:0:0:0:
324,256,148623,1,0,0:0:0:0:
324,256,148708,1,0,0:0:0:0:
324,256,148794,2,0,P|288:248|220:240,1,75,2|4,0:2|0:3,0:0:0:0:
168,232,149137,1,8,0:0:0:0:
108,288,149308,1,0,0:0:0:0:
9,206,149480,6,0,P|8:280|47:343,1,150,4|8,0:3|0:0,0:0:0:0:
124,372,149994,1,0,0:0:0:0:
124,372,150080,1,0,0:0:0:0:
124,372,150166,2,0,L|224:352,1,75,2|4,0:2|0:3,0:0:0:0:
228,280,150508,2,0,P|268:300|312:300,1,75,8|0,0:0|0:0,0:0:0:0:
407,364,150851,6,0,P|428:293|398:226,1,150,4|8,0:3|0:0,0:0:0:0:
332,172,151366,1,0,0:0:0:0:
332,172,151451,1,0,0:0:0:0:
332,172,151537,2,0,L|344:80,1,75,2|4,0:2|0:3,0:0:0:0:
296,28,151880,1,8,0:0:0:0:
216,28,152051,1,0,0:0:0:0:
128,120,152223,6,0,P|108:192|128:264,1,150,4|8,0:3|0:0,0:0:0:0:
212,328,152737,1,0,0:0:0:0:
212,328,152823,1,0,0:0:0:0:
212,328,152908,1,2,0:2:0:0:
256,232,153080,2,0,L|256:156,1,75,8|0,0:0|0:0,0:0:0:0:
328,48,153423,1,0,0:0:0:0:
328,48,153508,1,0,0:0:0:0:
328,48,153594,6,0,P|348:120|328:192,1,150,12|8,0:3|0:0,0:0:0:0:
256,232,154108,1,0,0:0:0:0:
256,232,154194,1,0,0:0:0:0:
256,232,154280,2,0,P|192:220|160:204,1,75,2|4,0:2|0:3,0:0:0:0:
136,148,154623,2,0,P|98:152|62:163,1,75,8|0,0:0|0:0,0:0:0:0:
16,280,154966,6,0,P|80:316|152:292,1,150,4|8,0:3|0:0,0:0:0:0:
183,216,155480,1,0,0:0:0:0:
183,216,155566,1,0,0:0:0:0:
183,216,155651,2,0,L|220:136,1,75,2|4,0:2|0:3,0:0:0:0:
297,147,155994,2,0,L|329:216,1,75,8|0,0:0|0:0,0:0:0:0:
388,332,156337,6,0,P|424:272|404:188,1,150,4|8,0:3|0:0,0:0:0:0:
328,215,156851,1,0,0:0:0:0:
328,215,156937,1,0,0:0:0:0:
328,215,157023,1,2,0:2:0:0:
256,176,157194,1,4,0:3:0:0:
183,216,157366,2,0,P|132:208|88:196,1,75,8|0,0:0|0:0,0:0:0:0:
56,88,157708,6,0,P|18:151|29:224,1,150,4|8,0:3|0:0,0:0:0:0:
88,284,158223,1,0,0:0:0:0:
88,284,158308,1,0,0:0:0:0:
88,284,158394,1,2,0:2:0:0:
192,304,158566,1,8,0:0:0:0:
256,220,158737,1,4,0:3:0:0:
360,200,158909,1,8,0:0:0:0:
427,119,159080,6,0,P|465:181|449:253,1,150,12|8,0:3|0:0,0:0:0:0:
400,320,159594,1,0,0:0:0:0:
400,320,159680,1,0,0:0:0:0:
400,320,159766,2,0,L|300:308,1,75,2|4,0:2|0:3,0:0:0:0:
276,244,160108,2,0,L|284:169,1,75,8|0,0:0|0:0,0:0:0:0:
300,44,160451,6,0,L|151:64,1,150,4|8,0:3|0:0,0:0:0:0:
80,20,160965,1,0,0:0:0:0:
80,20,161051,1,0,0:0:0:0:
79,20,161137,2,0,P|68:55|71:92,1,75,2|4,0:2|0:3,0:0:0:0:
120,164,161480,2,0,P|156:173|196:188,1,75,8|0,0:0|0:0,0:0:0:0:
321,186,161823,6,0,P|356:173|392:163,1,75
380,268,162166,2,0,P|343:277|308:290,1,75,2|0,0:2|0:0,0:0:0:0:
204,290,162508,2,0,P|168:277|132:267,1,75,0|0,0:0|0:0,0:0:0:0:
120,164,162851,2,0,P|156:174|192:187,1,75,2|0,0:2|0:0,0:0:0:0:
256,104,163194,6,0,P|276:96|320:84,3,37.5
256,104,163537,2,0,P|236:96|192:84,3,37.5,2|0|0|0,0:2|0:0|0:0|0:0,0:0:0:0:
256,104,163880,2,0,L|256:196,1,75,0|0,0:0|0:0,0:0:0:0:
256,308,164222,1,6,0:2:0:0:
415,360,164566,6,0,P|428:300|440:272,1,75,12|0,0:3|0:0,0:0:0:0:
456,208,164908,1,8,0:0:0:0:
392,152,165080,1,0,0:0:0:0:
392,152,165166,1,0,0:0:0:0:
392,152,165251,2,0,P|331:139|303:127,1,75,2|4,0:2|0:3,0:0:0:0:
268,68,165594,1,8,0:0:0:0:
328,8,165766,1,0,0:0:0:0:
319,135,165937,6,0,L|304:320,1,150,4|8,0:3|0:0,0:0:0:0:
256,352,166451,1,0,0:0:0:0:
256,352,166537,1,0,0:0:0:0:
256,352,166623,1,2,0:2:0:0:
206,284,166794,1,4,0:3:0:0:
132,244,166966,2,0,P|104:236|44:232,1,75,8|0,0:0|0:0,0:0:0:0:
24,108,167308,6,0,P|61:104|97:95,1,75,4|0,0:3|0:0,0:0:0:0:
200,60,167651,2,0,P|232:120|256:140,1,75,8|0,0:0|0:0,0:0:0:0:
256,132,167908,1,0,0:0:0:0:
276,140,167994,2,0,P|298:169|312:204,1,75,2|4,0:2|0:3,0:0:0:0:
412,240,168337,2,0,P|448:249|485:252,1,75,8|0,0:0|0:0,0:0:0:0:
512,128,168680,6,0,P|444:112|380:168,1,150,4|8,0:3|0:0,0:0:0:0:
312,204,169194,1,0,0:0:0:0:
312,204,169280,1,0,0:0:0:0:
312,204,169366,2,0,P|275:194|238:191,1,75,2|4,0:2|0:3,0:0:0:0:
172,140,169708,2,0,P|156:174|157:211,1,75,8|0,0:0|0:0,0:0:0:0:
60,296,170051,6,0,P|35:225|41:151,1,150,12|8,0:3|0:0,0:0:0:0:
76,76,170566,1,0,0:0:0:0:
76,76,170651,1,0,0:0:0:0:
76,76,170737,1,2,0:2:0:0:
156,52,170908,1,4,0:3:0:0:
216,108,171080,2,0,L|204:196,1,75,8|0,0:0|0:0,0:0:0:0:
296,276,171423,6,0,L|320:104,1,150,4|8,0:3|0:0,0:0:0:0:
400,144,171937,1,0,0:0:0:0:
400,144,172023,1,0,0:0:0:0:
400,144,172108,2,0,L|496:164,1,75,2|4,0:2|0:3,0:0:0:0:
512,236,172451,2,0,P|512:273|501:308,1,75,8|0,0:0|0:0,0:0:0:0:
384,252,172794,6,0,P|311:244|256:292,1,150,4|8,0:3|0:0,0:0:0:0:
256,376,173308,1,0,0:0:0:0:
256,376,173394,1,0,0:0:0:0:
256,376,173480,2,0,L|156:356,1,75,2|4,0:2|0:3,0:0:0:0:
100,344,173823,2,0,P|98:303|84:248,1,75,8|0,0:0|0:0,0:0:0:0:
19,224,174166,6,0,P|83:188|152:211,1,150,0|8,3:0|3:2,0:0:0:0:
220,260,174680,2,0,P|256:268|292:260,1,75,0|0,3:0|3:0,0:0:0:0:
359,210,175023,2,0,P|428:188|491:223,1,150,8|0,3:2|3:0,0:0:0:0:
416,328,175537,5,6,3:2:0:0:
256,192,183766,12,0,186166,3:2:0:0:
216,184,186508,6,0,P|152:164|116:92,1,150,0|2,1:0|0:0,0:0:0:0:
296,200,187194,2,0,P|360:220|396:292,1,150,0|2,1:0|0:0,0:0:0:0:
256,376,187880,6,0,L|108:349,1,150,0|2,1:0|0:0,0:0:0:0:
68,157,188566,2,0,L|216:184,1,150,0|2,1:0|0:0,0:0:0:0:
296,200,189080,1,0,0:0:0:0:
364,116,189251,6,0,P|361:78|348:43,1,75,0|0,1:0|0:0,0:0:0:0:
268,23,189594,2,0,P|270:60|283:95,1,75,2|0,1:2|0:0,0:0:0:0:
296,200,189937,2,0,P|293:237|280:272,1,75,0|0,1:0|0:0,0:0:0:0:
199,292,190280,2,0,P|202:254|215:219,1,75,2|0,1:2|0:0,0:0:0:0:
172,124,190623,6,0,L|84:132,1,75,0|0,1:0|0:0,0:0:0:0:
16,140,190966,2,0,L|22:214,1,75,2|0,1:2|0:0,0:0:0:0:
84,304,191308,2,0,L|158:310,1,75,0|0,1:0|0:0,0:0:0:0:
244,320,191651,2,0,L|250:245,1,75,2|0,1:2|0:0,0:0:0:0:
262,139,191994,6,0,L|268:64,1,75,0|0,1:0|1:0,0:0:0:0:
368,28,192337,1,2,1:2:0:0:
368,28,192508,1,0,1:0:0:0:
404,128,192680,2,0,L|398:203,1,75,0|0,1:0|1:0,0:0:0:0:
300,248,193023,1,2,1:2:0:0:
300,248,193194,1,0,1:0:0:0:
204,200,193366,6,0,P|164:180|120:144,1,75,0|0,1:0|1:0,0:0:0:0:
60,88,193708,1,2,1:2:0:0:
60,88,193880,1,0,1:0:0:0:
36,192,194051,2,0,L|12:296,1,75,0|0,1:0|1:0,0:0:0:0:
100,336,194394,1,2,1:2:0:0:
100,336,194566,1,0,1:0:0:0:
204,312,194737,6,0,L|260:300,3,37.5,0|0|0|0,3:0|3:0|3:0|3:0,0:0:0:0:
216,272,195080,2,0,L|272:260,3,37.5,0|0|0|0,3:0|3:0|3:0|3:0,0:0:0:0:
228,232,195423,2,0,L|284:220,3,37.5,0|0|0|0,3:0|3:0|3:0|3:0,0:0:0:0:
240,192,195766,2,0,L|296:180,3,37.5,0|0|0|0,3:0|3:0|3:0|3:0,0:0:0:0:
252,152,196108,5,0,3:0:0:0:
144,28,196451,2,0,P|89:18|39:41,1,112.5,0|0,3:0|3:0,0:0:0:0:
32,60,196794,2,0,L|48:144,1,75,0|0,3:0|3:0,0:0:0:0:
72,268,197137,2,0,L|181:292,1,112.5,2|0,0:2|0:0,0:0:0:0:
200,284,197480,6,0,P|248:228|212:160,1,150,12|8,0:3|0:0,0:0:0:0:
140,148,197994,1,0,0:0:0:0:
140,148,198080,1,0,0:0:0:0:
140,148,198166,1,2,0:2:0:0:
64,184,198337,1,4,0:3:0:0:
72,268,198508,2,0,L|80:360,1,75,8|0,0:0|0:0,0:0:0:0:
208,384,198851,6,0,L|368:372,1,150,4|8,0:3|0:0,0:0:0:0:
408,304,199366,1,0,0:0:0:0:
408,304,199451,1,0,0:0:0:0:
408,304,199537,1,2,0:2:0:0:
404,220,199708,1,4,0:3:0:0:
340,168,199880,2,0,P|340:128|356:88,1,75,8|0,0:0|0:0,0:0:0:0:
480,48,200223,6,0,P|500:112|476:200,1,150,4|8,0:3|0:0,0:0:0:0:
404,220,200737,1,0,0:0:0:0:
404,220,200823,1,0,0:0:0:0:
404,220,200908,1,2,0:2:0:0:
340,168,201080,1,4,0:3:0:0:
260,196,201251,2,0,P|224:192|172:168,1,75,8|0,0:0|0:0,0:0:0:0:
72,108,201594,6,0,L|92:288,1,150,4|8,0:3|0:0,0:0:0:0:
164,296,202108,1,0,0:0:0:0:
164,296,202194,1,0,0:0:0:0:
164,296,202280,1,2,0:2:0:0:
256,244,202451,1,8,0:0:0:0:
256,140,202623,1,4,0:3:0:0:
348,88,202794,1,8,0:0:0:0:
440,140,202966,6,0,P|456:216|436:288,1,150,12|8,0:3|0:0,0:0:0:0:
388,352,203480,1,0,0:0:0:0:
388,352,203566,1,0,0:0:0:0:
388,352,203651,2,0,P|324:324|304:304,1,75,2|4,0:2|0:3,0:0:0:0:
255,268,203994,2,0,P|284:243|320:238,1,75,8|0,0:0|0:0,0:0:0:0:
256,120,204337,6,0,L|84:104,1,150,4|8,0:3|0:0,0:0:0:0:
40,56,204851,1,0,0:0:0:0:
40,56,204937,1,0,0:0:0:0:
40,56,205023,1,2,0:2:0:0:
28,140,205194,1,4,0:3:0:0:
96,192,205366,2,0,L|84:276,1,75,8|0,0:0|0:0,0:0:0:0:
185,355,205708,6,0,P|219:340|256:332,1,75
328,255,206051,2,0,P|293:240|257:232,1,75,2|0,0:2|0:0,0:0:0:0:
185,155,206394,2,0,P|221:147|256:132,1,75,0|0,0:0|0:0,0:0:0:0:
326,55,206737,2,0,P|290:47|256:32,1,75,2|0,0:2|0:0,0:0:0:0:
136,36,207080,6,0,L|128:84,3,37.5,0|0|0|0,0:0|0:0|0:0|0:0,0:0:0:0:
100,104,207423,2,0,L|92:152,3,37.5,2|0|0|0,0:2|0:0|0:0|0:0,0:0:0:0:
64,172,207766,1,0,0:0:0:0:
88,304,207937,1,0,0:0:0:0:
192,216,208108,1,6,0:2:0:0:
424,304,208451,6,0,P|432:264|428:212,1,75,12|0,0:3|0:0,0:0:0:0:
376,164,208794,2,0,P|336:156|284:160,1,75,8|0,0:0|0:0,0:0:0:0:
280,164,209051,1,0,0:0:0:0:
280,164,209137,1,2,0:2:0:0:
208,208,209308,1,4,0:3:0:0:
196,124,209480,2,0,L|184:28,1,75,8|0,0:0|0:0,0:0:0:0:
52,32,209823,6,0,L|71:180,1,150,4|8,0:3|0:0,0:0:0:0:
84,264,210337,1,0,0:0:0:0:
84,264,210423,1,0,0:0:0:0:
84,264,210508,2,0,L|168:284,1,75,2|4,0:2|0:3,0:0:0:0:
212,340,210851,1,8,0:0:0:0:
236,260,211023,1,0,0:0:0:0:
348,332,211194,6,0,P|384:320|420:316,1,75,4|0,0:3|0:0,0:0:0:0:
444,236,211537,2,0,P|400:212|372:200,1,75,8|0,0:0|0:0,0:0:0:0:
360,192,211794,1,0,0:0:0:0:
377,181,211880,2,0,P|411:166|444:148,1,75,2|4,0:2|0:3,0:0:0:0:
420,68,212223,2,0,P|383:63|348:52,1,75,8|0,0:0|0:0,0:0:0:0:
220,8,212566,6,0,P|196:68|240:160,1,150,4|8,0:3|0:0,0:0:0:0:
304,124,213080,1,0,0:0:0:0:
304,124,213166,1,0,0:0:0:0:
304,124,213251,1,2,0:2:0:0:
356,188,213423,1,4,0:3:0:0:
320,264,213594,2,0,P|276:274|220:296,1,75,8|0,0:0|0:0,0:0:0:0:
152,380,213937,6,0,P|108:321|117:248,1,150,12|8,0:3|0:0,0:0:0:0:
180,192,214451,1,0,0:0:0:0:
180,192,214537,1,0,0:0:0:0:
180,192,214623,2,0,L|172:92,1,75,2|4,0:2|0:3,0:0:0:0:
92,112,214966,2,0,L|17:106,1,75,8|0,0:0|0:0,0:0:0:0:
116,12,215308,6,0,L|265:1,1,150,4|8,0:3|0:0,0:0:0:0:
336,44,215823,1,0,0:0:0:0:
336,44,215908,1,0,0:0:0:0:
336,44,215994,2,0,P|344:80|340:120,1,75,2|4,0:2|0:3,0:0:0:0:
304,192,216337,2,0,P|300:229|308:265,1,75,8|0,0:0|0:0,0:0:0:0:
412,351,216680,6,0,P|455:293|438:222,1,150,4|8,0:3|0:0,0:0:0:0:
380,164,217194,1,0,0:0:0:0:
380,164,217280,1,0,0:0:0:0:
380,164,217366,1,2,0:2:0:0:
304,192,217537,1,4,0:3:0:0:
280,272,217708,2,0,L|209:245,1,75,8|0,0:0|0:0,0:0:0:0:
133,130,218051,6,0,P|206:133|256:80,1,150,4|8,0:3|0:0,0:0:0:0:
174,55,218566,1,0,0:0:0:0:
174,55,218651,1,0,0:0:0:0:
174,55,218737,1,2,0:2:0:0:
92,36,218908,1,4,0:3:0:0:
52,112,219080,2,0,P|40:168|40:192,1,75,8|0,0:0|0:0,0:0:0:0:
120,296,219423,6,0,P|156:305|193:308,1,75,12|0,0:3|0:0,0:0:0:0:
276,296,219766,1,8,0:0:0:0:
352,332,219937,1,0,0:0:0:0:
352,332,220023,1,0,0:0:0:0:
352,332,220108,2,0,P|359:296|350:260,1,75,2|4,0:2|0:3,0:0:0:0:
304,192,220451,2,0,L|316:100,1,75,8|0,0:0|0:0,0:0:0:0:
444,72,220794,6,0,L|424:224,1,150,4|8,0:3|0:0,0:0:0:0:
349,259,221308,1,0,0:0:0:0:
349,259,221394,1,0,0:0:0:0:
349,259,221480,1,2,0:2:0:0:
276,296,221651,1,4,0:3:0:0:
224,232,221823,2,0,L|212:144,1,75,8|0,0:0|0:0,0:0:0:0:
192,24,222166,6,0,P|112:12|96:8,1,75,4|0,0:3|0:0,0:0:0:0:
56,100,222508,2,0,P|92:106|130:110,1,75,8|0,0:0|0:0,0:0:0:0:
132,132,222766,1,0,0:0:0:0:
136,152,222851,2,0,P|129:188|125:226,1,75,2|4,0:2|0:3,0:0:0:0:
20,220,223194,2,0,P|26:256|30:294,1,75,8|0,0:0|0:0,0:0:0:0:
140,372,223537,6,0,P|204:340|288:352,1,150,4|8,0:3|0:0,0:0:0:0:
344,296,224051,1,0,0:0:0:0:
344,296,224137,1,0,0:0:0:0:
344,296,224223,2,0,P|376:313|413:320,1,75,2|4,0:2|0:3,0:0:0:0:
404,236,224566,2,0,P|397:199|379:166,1,75,8|0,0:0|0:0,0:0:0:0:
272,248,224908,6,0,L|122:238,1,150,12|8,0:3|0:0,0:0:0:0:
52,188,225423,1,0,0:0:0:0:
52,188,225508,1,0,0:0:0:0:
52,188,225594,2,0,P|69:155|76:118,1,75,2|4,0:2|0:3,0:0:0:0:
24,52,225937,2,0,P|57:35|94:35,1,75,8|0,0:0|0:0,0:0:0:0:
188,132,226280,6,0,P|256:148|324:108,1,150,4|8,0:3|0:0,0:0:0:0:
360,36,226794,1,0,0:0:0:0:
360,36,226880,1,0,0:0:0:0:
360,36,226966,2,0,L|452:48,1,75,2|4,0:2|0:3,0:0:0:0:
492,108,227308,2,0,L|501:182,1,75,8|0,0:0|0:0,0:0:0:0:
416,288,227651,6,0,P|408:228|312:180,1,150,4|8,0:3|0:0,0:0:0:0:
256,168,228166,1,0,0:0:0:0:
256,168,228251,1,0,0:0:0:0:
256,168,228337,2,0,L|256:264,1,75,2|0,0:2|0:3,0:0:0:0:
292,320,228680,2,0,P|255:327|220:320,1,75,8|0,0:0|0:0,0:0:0:0:
152,272,229023,6,0,P|136:200|152:124,1,150,0|8,3:0|3:2,0:0:0:0:
220,80,229537,2,0,P|256:71|292:79,1,75,0|0,3:0|3:0,0:0:0:0:
361,126,229880,2,0,P|376:199|360:272,1,150,8|0,3:2|3:0,0:0:0:0:
256,360,230394,5,2,2:2:0:0:
