osu file format v9

[General]
AudioFilename: Skinny Genes.mp3
AudioLeadIn: 0
PreviewTime: 45218
Countdown: 1
SampleSet: Soft
StackLeniency: 0.7
Mode: 0
LetterboxInBreaks: 1

[Editor]
Bookmarks: 18114,46865,75616,88195,104367,133118,139408,145697,147045,172651,176245
DistanceSpacing: 0.8
BeatDivisor: 3
GridSize: 8

[Metadata]
Title:Skinny Genes
Artist:Eliza Doolittle
Creator:RandomJibberish
Version:Hard
Source:
Tags:

[Difficulty]
HPDrainRate:7
CircleSize:4
OverallDifficulty:7
ApproachRate:7
SliderMultiplier:2.24
SliderTickRate:1

[Events]
//Background and Video events
0,0,"narrowtrousers.png"
Video,-576,"Eliza Doolittle - Skinny Genes.flv.AVI"
//Break Periods
2,76077,86410
2,133563,138521
//Storyboard Layer 0 (Background)
//Storyboard Layer 1 (Fail)
//Storyboard Layer 2 (Pass)
//Storyboard Layer 3 (Foreground)
//Storyboard Sound Samples
//Background Colour Transformations
3,100,147,230,153

[TimingPoints]
157,449.236298292902,4,2,0,70,1,0
46877,-100,4,1,0,50,0,0
47988,-100,4,2,0,70,0,0
48138,-100,4,1,0,50,0,0
48363,-100,4,2,0,70,0,0
48587,-100,4,1,0,50,0,0
48737,-100,4,2,0,70,0,0
50384,-100,4,1,0,50,0,0
51582,-100,4,2,0,70,0,0
51732,-100,4,1,0,50,0,0
52031,-100,4,2,0,70,0,0
52181,-100,4,1,0,50,0,0
52406,-100,4,2,0,70,0,0
53978,-100,4,1,0,50,0,0
54128,-100,4,2,0,70,0,0
54876,-100,4,1,0,50,0,0
55026,-100,4,2,0,70,0,0
57572,-100,4,1,0,50,0,0
57722,-100,4,2,0,70,0,0
61166,-100,4,1,0,50,0,0
62663,-100,4,2,0,70,0,0
64760,-100,4,1,0,50,0,0
66257,-100,4,2,0,70,0,0
68354,-100,4,1,0,50,0,0
68503,-100,4,2,0,70,0,0
69252,-100,4,1,0,50,0,0
69402,-100,4,2,0,70,0,0
71947,-100,4,1,0,50,0,0
72097,-100,4,2,0,70,0,0
75616,-100,4,1,0,30,0,0
88195,-100,4,2,0,70,0,0
104292,-100,4,1,0,50,0,0
105416,-100,4,2,0,70,0,0
105640,-100,4,1,0,50,0,0
105790,-100,4,2,0,70,0,0
106089,-100,4,1,0,50,0,0
106239,-100,4,2,0,70,0,0
107886,-100,4,1,0,51,0,0
109009,-100,4,2,0,70,0,0
109234,-100,4,1,0,50,0,0
109384,-100,4,2,0,70,0,0
109683,-100,4,1,0,50,0,0
109833,-100,4,2,0,70,0,0
111480,-100,4,1,0,50,0,0
111630,-100,4,2,0,70,0,0
112397,-100,4,1,0,50,0,0
112510,-100,4,2,0,70,0,0
115074,-100,4,1,0,50,0,0
115224,-100,4,2,0,70,0,0
118668,-100,4,1,0,50,0,0
119791,-100,4,2,0,70,0,0
120016,-100,4,1,0,50,0,0
120165,-100,4,2,0,70,0,0
122262,-100,4,1,0,50,0,0
123460,-100,4,2,0,70,0,0
123610,-100,4,1,0,50,0,0
123759,-100,4,2,0,70,0,0
125856,-100,4,1,0,50,0,0
126006,-100,4,2,0,70,0,0
126754,-100,4,1,0,50,0,0
126904,-100,4,2,0,70,0,0
129450,-100,4,1,0,50,0,0
129599,-100,4,2,0,70,0,0
139408,-133.333333333333,4,2,0,50,0,0
147344,-100,4,1,0,50,0,0
148617,-100,4,2,0,70,0,0
148767,-100,4,1,0,50,0,0
148917,-100,4,2,0,70,0,0
149216,-100,4,1,0,50,0,0
149366,-100,4,2,0,70,0,0
150938,-100,4,1,0,50,0,0
152211,-100,4,2,0,70,0,0
152361,-100,4,1,0,50,0,0
152510,-100,4,2,0,70,0,0
152810,-100,4,1,0,50,0,0
152960,-100,4,2,0,70,0,0
154607,-100,4,1,0,50,0,0
154757,-100,4,2,0,70,0,0
155505,-100,4,1,0,50,0,0
155655,-100,4,2,0,70,0,0
158201,-100,4,1,0,50,0,0
158351,-100,4,2,0,70,0,0
161795,-100,4,1,0,50,0,0
163367,-100,4,2,0,71,0,0
163592,-100,4,1,0,49,0,0
163741,-100,4,2,0,70,0,0
165389,-100,4,1,0,50,0,0
166512,-100,4,2,0,70,0,0
167186,-100,4,1,0,50,0,0
167335,-100,4,2,0,70,0,0
168982,-100,4,1,0,50,0,0
169132,-100,4,2,0,70,0,0
169881,-100,4,1,0,50,0,0
170031,-100,4,2,0,70,0,0

[HitObjects]
104,272,17976,5,0
40,320,18126,2,0,B|72:363|137:363|168:320,1,149.333333333333,4|0
216,256,18575,2,0,B|244:216|312:222|316:251|319:280|388:286|416:246,2,224,2|8|2
136,168,19773,5,0
136,168,19923,2,2,B|51:203|-17:115|37:41,1,224,4|2
160,40,20672,1,0
256,192,21121,5,0
256,192,21271,1,8
376,216,21570,1,0
376,216,21720,2,0,B|460:180|529:268|474:342,1,224,0|2
360,320,22469,2,0,B|304:272|208:272|152:320,1,224,2|0
184,144,23367,5,0
184,144,23517,2,0,B|148:59|236:-9|310:45,1,224,4|2
312,168,24266,1,0
408,272,25164,5,0
472,320,25314,2,0,B|440:363|375:363|344:320,1,149.333333333333,4|0
296,256,25763,2,0,B|268:216|200:222|196:251|193:280|124:286|96:246,2,224,2|8|2
376,168,26961,5,0
376,168,27111,2,2,B|460:203|529:115|474:41,1,224,4|2
352,40,27859,1,0
256,192,28309,5,0
256,192,28458,1,8
136,216,28758,1,0
136,216,28908,2,0,B|51:180|-17:268|37:342,1,224,0|2
152,320,29656,2,0,B|208:272|304:272|360:320,1,224,2|0
328,144,30555,5,0
328,144,30705,2,0,B|363:59|275:-9|201:45,1,224,4|2
200,168,31453,1,0
408,112,32352,5,0
472,64,32502,2,0,B|440:21|375:21|344:64,1,149.333333333333,4|0
304,128,32951,2,0,B|273:165|297:229|326:225|355:220|380:285|349:323,2,224,2|8|2
178,97,34149,5,0
178,97,34298,2,2,B|170:6|59:-12|20:69,1,224,4|2
76,178,35047,1,0
256,192,35496,5,0
256,192,35646,1,8
333,286,35946,1,0
333,286,36095,2,0,B|341:377|452:396|491:314,1,224,2|0
488,192,36844,1,0
488,192,36994,1,2
328,112,37443,1,2
328,240,37743,5,0
328,240,37892,2,0,B|363:324|275:393|201:338,1,224,4|2
200,216,38641,1,0
104,112,39540,5,0
40,64,39689,2,0,B|72:21|137:21|168:64,1,149.333333333333,4|0
208,128,40139,2,0,B|238:165|214:229|185:225|156:220|131:285|162:323,2,224,2|8|2
333,97,41336,5,0
333,97,41486,2,2,B|341:6|452:-12|491:69,1,224,4|2
435,178,42235,1,0
256,192,42684,5,0
256,192,42834,1,8
168,272,43133,1,0
152,344,43283,2,0,B|208:392|304:392|360:344,1,224,0|2
360,176,44182,2,0,B|304:128|208:128|152:176,1,224,2|8
72,48,45380,5,0
8,96,45529,2,0,B|40:139|105:139|136:96,1,149.333333333333,2|0
192,40,45979,2,2,B|224:-3|289:-3|320:40,1,149.333333333333,2|0
376,96,46428,2,0,B|408:139|473:139|504:96,1,149.333333333333,8|0
440,48,46877,5,6
360,360,47326,2,2,B|296:400|304:320|256:313|256:407|208:400|216:320|152:360,1,224
240,280,48075,5,0
240,280,48225,1,8
219,165,48524,1,0
219,165,48674,1,4
199,50,48974,2,2,B|274:37|348:99|334:189,2,224,2|2|0
136,96,50022,2,0,B|104:139|39:139|8:96,1,149.333333333333,8|0
72,48,50471,5,6
152,360,50920,2,2,B|216:400|208:320|256:313|256:407|304:400|296:320|360:360,1,224
272,280,51669,5,0
272,280,51819,1,8
293,165,52118,1,0
293,165,52268,1,4
313,50,52567,2,2,B|238:37|164:99|178:189,2,224,2|2|0
376,16,53616,5,8
504,56,53915,1,0
504,128,54065,2,0,B|401:201|296:128,1,224,4|0
8,128,54814,1,0
8,200,54963,2,0,B|111:273|216:200,1,224,0|8
504,200,55712,1,0
504,272,55862,2,2,B|401:345|296:272,1,224,2|0
8,272,56611,1,0
8,344,56760,2,0,B|111:417|216:344,1,224,0|8
488,256,57509,5,0
488,256,57659,1,4
424,160,57958,1,0
424,160,58108,1,8
360,64,58407,2,0,B|320:32|280:40|256:64|232:88|192:96|152:64,1,224,2|0
200,8,59006,1,8
312,120,59306,1,4
504,288,59905,22,0,B|472:245|407:245|376:288,1,149.333333333333,2|0
320,344,60354,2,2,B|288:387|223:387|192:344,1,149.333333333333,2|0
136,288,60803,2,0,B|104:245|39:245|8:288,1,149.333333333333,8|0
72,336,61253,5,6
152,24,61702,2,2,B|216:-16|208:64|256:71|256:-23|304:-16|296:64|360:24,1,224
320,136,62451,5,0
320,208,62600,2,0,B|272:211|256:176|240:141|192:144,1,149.333333333333,8|0
192,216,63050,1,4
72,216,63349,2,2,B|22:283|80:379|162:366,1,224,2|0
376,288,64397,2,0,B|408:245|473:245|504:288,1,149.333333333333,8|0
440,336,64847,5,6
360,24,65296,2,2,B|296:-16|304:64|256:71|256:-23|208:-16|216:64|152:24,1,224
192,136,66044,5,0
192,208,66194,2,0,B|240:211|256:176|272:141|320:144,1,149.333333333333,8|0
320,216,66643,1,4
440,216,66943,2,2,B|489:283|431:379|349:366,1,224,2|0
136,16,67991,5,8
8,56,68291,1,0
8,128,68440,2,0,B|111:201|216:128,1,224,4|0
504,128,69189,1,0
504,200,69339,2,0,B|401:273|296:200,1,224,0|8
8,200,70088,1,0
8,272,70237,2,2,B|111:345|216:272,1,224,2|0
504,272,70986,1,0
504,344,71136,2,0,B|401:417|296:344,1,224,0|8
24,256,71885,5,0
24,256,72034,1,4
88,160,72334,1,0
88,160,72484,1,8
152,64,72783,2,0,B|192:32|232:40|256:64|280:88|320:96|360:64,1,224,2|0
312,8,73382,1,8
200,120,73682,1,4
256,192,74280,12,0,75628
224,40,88506,53,0
224,40,88656,1,2
288,144,88956,1,0
288,144,89105,1,2
224,248,89405,1,0
224,248,89555,1,8
288,352,89854,5,0
288,352,90004,2,0,B|360:320|360:384|432:352,1,149.333333333333,4|0
395,290,90453,1,8
344,120,90902,2,2,B|304:41|208:41|168:120,1,224
168,240,91651,1,0
168,240,91801,1,4
344,240,92250,2,0,B|424:278|409:365,1,149.333333333333,2|0
344,120,93598,6,2,B|304:41|208:41|168:120,1,224
280,160,94346,1,0
232,272,94646,1,0
184,384,94945,1,0
344,240,95395,1,4
168,240,95844,2,0,B|87:278|102:365,1,149.333333333333,2|0
184,24,97192,6,2,B|106:-2|42:49,1,149.333333333333,2|0
0,104,97641,2,0,B|-40:176|0:248,1,149.333333333333,2|0
43,304,98090,2,0,B|105:354|183:327,1,149.333333333333
216,264,98539,1,0
264,104,98839,6,0,B|299:49|408:36|467:90,1,224,4|0
508,148,99438,2,2,B|547:218|507:290,1,149.333333333333
464,346,99887,2,0,B|401:396|323:369,1,149.333333333333,2|0
256,384,100336,5,0
256,264,100636,1,0
256,264,100785,1,4
256,144,101085,1,0
256,144,101235,1,2
160,72,101534,2,0,B|200:8|312:8|352:72,1,224
440,48,102882,5,0
504,96,103032,2,0,B|472:139|407:139|376:96,1,149.333333333333,2|0
320,40,103481,2,2,B|288:-3|223:-3|192:40,1,149.333333333333,2|0
136,96,103930,2,0,B|104:139|39:139|8:96,1,149.333333333333,8|0
72,48,104379,5,6
152,360,104829,2,2,B|216:400|208:320|256:313|256:407|304:400|296:320|360:360,1,224
272,280,105577,5,0
272,280,105727,1,8
293,165,106027,1,0
293,165,106176,1,4
313,50,106476,2,2,B|238:37|164:99|178:189,2,224,2|2|0
376,96,107524,2,0,B|408:139|473:139|504:96,1,149.333333333333,8|0
440,48,107973,5,6
360,360,108422,2,2,B|296:400|304:320|256:313|256:407|208:400|216:320|152:360,1,224
240,280,109171,5,0
240,280,109321,1,8
219,165,109620,1,0
219,165,109770,1,4
199,50,110070,2,2,B|274:37|348:99|334:189,2,224,2|2|0
136,16,111118,5,8
8,56,111417,1,0
8,128,111567,2,0,B|111:201|216:128,1,224,4|0
504,128,112316,1,0
504,200,112466,2,0,B|401:273|296:200,1,224,0|8
8,200,113214,1,0
8,272,113364,2,2,B|111:345|216:272,1,224,2|0
504,272,114113,1,0
504,344,114263,2,0,B|401:417|296:344,1,224,0|8
24,256,115011,5,0
24,256,115161,1,4
88,160,115460,1,0
88,160,115610,1,8
152,64,115910,2,0,B|192:32|232:40|256:64|280:88|320:96|360:64,1,224,2|0
312,8,116509,1,8
200,120,116808,1,4
8,288,117407,22,0,B|40:245|105:245|136:288,1,149.333333333333,2|0
192,344,117856,2,2,B|224:387|289:387|320:344,1,149.333333333333,2|0
376,288,118306,2,0,B|408:245|473:245|504:288,1,149.333333333333,8|0
440,336,118755,5,6
360,24,119204,2,2,B|296:-16|304:64|256:71|256:-23|208:-16|216:64|152:24,1,224
192,136,119953,5,0
192,208,120103,2,0,B|240:211|256:176|272:141|320:144,1,149.333333333333,8|0
320,216,120552,1,4
440,216,120851,2,2,B|490:283|432:379|350:366,1,224,2|0
136,288,121900,2,0,B|104:245|39:245|8:288,1,149.333333333333,8|0
72,336,122349,5,6
152,24,122798,2,2,B|216:-16|208:64|256:71|256:-23|304:-16|296:64|360:24,1,224
320,136,123547,5,0
320,208,123696,2,0,B|272:211|256:176|240:141|192:144,1,149.333333333333,8|0
192,216,124146,1,4
72,216,124445,1,2
56,285,124595,2,0,B|60:322|95:372|163:366,1,149.333333333333,0|0
376,16,125493,5,8
504,56,125793,1,0
504,128,125943,2,0,B|401:201|296:128,1,224,4|0
8,128,126691,1,0
8,200,126841,2,0,B|111:273|216:200,1,224,0|8
504,200,127590,1,0
504,272,127740,2,2,B|401:345|296:272,1,224,2|0
8,272,128488,1,0
8,344,128638,2,0,B|111:417|216:344,1,224,0|8
488,256,129387,5,0
488,256,129537,1,4
424,160,129836,1,0
424,160,129986,1,8
360,64,130285,2,0,B|320:32|280:40|256:64|232:88|192:96|152:64,1,224,2|0
200,8,130884,1,8
312,120,131184,1,4
256,192,131783,12,0,133130
256,88,140168,53,0
256,88,140318,1,2
360,152,140618,1,0
360,152,140767,1,2
256,216,141067,1,0
256,216,141217,1,4
152,152,141516,1,0
152,320,141965,2,2,B|240:392|256:220|272:392|360:320,1,223.99999332428
480,192,142864,5,0
480,192,143014,2,2,B|496:116|451:52|362:36,1,167.99999499321
304,40,143762,1,4
304,40,144212,1,0
32,192,144661,5,0
32,192,144811,2,2,B|16:116|61:52|150:36,1,167.99999499321
208,40,145559,1,2
256,192,145709,12,0,147057
0,16,147506,5,6
256,384,147955,2,2,B|296:320|216:328|209:280|303:280|296:232|216:240|256:176,1,224
400,120,148704,5,0
335,72,148854,2,0,B|367:29|432:29|464:72,1,149.333333333333,8|0
469,158,149303,2,0,B|452:209|388:213|377:196|367:181|303:184|288:243,1,224,4|2
200,320,150052,2,0,B|102:387|-14:271|49:169,1,298.666666666667,0|8
512,16,151100,5,6
256,384,151549,2,2,B|216:320|296:328|303:280|209:280|216:232|296:240|256:176,1,224
112,120,152298,5,0
176,72,152448,2,0,B|145:29|80:29|48:72,1,149.333333333333,8|0
48,168,152897,2,0,B|79:211|144:211|176:168,1,149.333333333333,4|2
312,320,153646,2,0,B|409:387|526:271|462:169,1,298.666666666667,0|8
8,56,154544,5,0
8,128,154694,2,0,B|111:201|216:128,1,224,4|0
504,128,155443,1,0
504,200,155592,2,0,B|401:273|296:200,1,224,0|8
8,200,156341,1,0
8,272,156491,2,2,B|111:345|216:272,1,224,2|0
504,272,157239,1,0
504,344,157389,2,0,B|401:417|296:344,1,224,0|8
88,240,158138,5,0
88,240,158288,1,4
200,184,158587,1,2
312,128,158887,1,0
424,72,159186,1,2
320,280,159635,2,0,B|288:236|223:236|191:279,1,149.333333333333,0|2
256,328,160085,1,4
448,328,160384,21,0
448,328,160534,1,2
512,224,160833,1,0
512,224,160983,1,2
448,120,161283,1,0
448,120,161432,1,8
512,16,161732,5,0
512,16,161882,1,6
256,384,162331,2,2,B|216:320|296:328|303:280|209:280|216:232|296:240|256:176,1,224
48,240,163229,6,0,B|4:271|4:336|47:368,1,149.333333333333,8|0
96,304,163679,1,4
192,184,163978,1,0
368,200,164427,2,0,B|435:102|319:-14|217:49,1,298.666666666667,0|8
0,16,165326,5,0
0,16,165475,1,6
256,384,165925,2,2,B|296:320|216:328|209:280|303:280|296:232|216:240|256:176,1,224
416,304,166673,5,0
464,240,166823,2,0,B|507:271|507:336|464:368,1,149.333333333333,8|0
369,368,167272,2,0,B|325:336|325:271|368:239,1,149.333333333333,4|2
320,184,167722,1,0
144,200,168021,2,0,B|77:102|193:-14|295:49,1,298.666666666667,0|8
504,128,169069,6,0,B|401:201|296:128,1,224,4|0
8,128,169818,1,0
8,200,169968,2,0,B|111:273|216:200,1,224,0|8
504,200,170717,1,0
504,272,170866,2,2,B|401:345|296:272,1,224,2|0
8,272,171615,1,0
8,344,171765,2,0,B|111:417|216:344,1,224,0|8
256,192,172663,12,4,176257
